#VERSION:0.83;
#TITLE:Fall for the Queen Bean;
#SUBTITLE:;
#ARTIST:Jukio Kallio & Daniel Hagstrom;
#TITLETRANSLIT:;
#SUBTITLETRANSLIT:;
#ARTISTTRANSLIT:;
#GENRE:;
#ORIGIN:;
#CREDIT:;
#BANNER:Fall for the Queen Bean.png;
#BACKGROUND:Fall for the Queen Bean-bg.png;
#PREVIEWVID:;
#JACKET:Fall for the Queen Bean-jacket.png;
#CDIMAGE:;
#DISCIMAGE:;
#LYRICSPATH:;
#CDTITLE:cdtitle.png;
#MUSIC:Fall for the Queen Bean.ogg;
#OFFSET:-0.148000;
#SAMPLESTART:11.442000;
#SAMPLELENGTH:15.000000;
#SELECTABLE:YES;
#BPMS:0.000=170.000;
#STOPS:;
#DELAYS:;
#WARPS:;
#TIMESIGNATURES:0.000=4=4;
#TICKCOUNTS:0.000=4;
#COMBOS:0.000=1;
#SPEEDS:0.000=1.000=0.000=0;
#SCROLLS:0.000=1.000;
#FAKES:;
#LABELS:0.000=Song Start;
#BGCHANGES:;
#KEYSOUNDS:;
#ATTACKS:
;

//---------------dance-single - ----------------
#NOTEDATA:;
#CHARTNAME:;
#STEPSTYPE:dance-single;
#DESCRIPTION:;
#CHARTSTYLE:;
#DIFFICULTY:Challenge;
#METER:15;
#RADARVALUES:0.729553,1.054248,0.668824,0.255060,0.206882,901.000000,783.000000,118.000000,45.000000,0.000000,0.000000,0.000000,0.000000,0.000000,0.729553,1.054248,0.668824,0.255060,0.206882,901.000000,783.000000,118.000000,45.000000,0.000000,0.000000,0.000000,0.000000,0.000000;
#CREDIT:;
#NOTES:
0000
0000
0000
0000
,
0000
0000
0000
0000
,
0000
0000
0000
0000
,
0000
0000
0000
0000
,
1000
1100
0010
1010
,
0001
0011
0100
0101
,
1000
1001
0010
0110
,
1000
0001
1000
0001
1000
0001
1000
0001
1000
0001
1000
0001
1000
0001
1000
0001
,
1000
0000
0001
0000
0010
0011
0000
0101
,
0000
1100
0000
1010
0000
0110
0000
2002
,
3003
0000
0000
0000
1000
0000
1000
0000
1000
0000
0100
0010
0001
0000
0001
0000
,
0010
0100
1000
0000
0010
0100
0001
0000
0010
0000
0001
0000
1000
0000
0001
0000
,
1001
0000
1000
0000
0010
1010
0000
1100
,
0000
0101
0000
0011
0000
0110
0000
2002
,
3003
0000
0000
0000
0001
0000
0001
0000
0001
0000
0100
0010
1000
0000
1000
0000
,
0010
0100
0001
0000
0010
0100
1000
0000
0010
0000
1000
0000
0001
0000
0100
0000
,
0110
0000
0010
0000
1000
1010
0000
0011
,
0000
1001
0000
0110
0000
1100
0000
0202
,
0303
0000
0000
0000
0100
0000
0100
0000
0100
0000
0001
0100
0010
0000
0010
0000
,
1000
0010
0100
0000
0001
0010
0100
0000
1000
0000
0100
0000
0010
0000
0100
0000
,
0110
0000
0010
0000
0001
0011
0000
1010
,
0000
1001
0000
0110
0000
0101
0000
2200
,
3300
0000
0000
0000
0100
0000
0100
0000
0100
0000
1000
0100
0010
0000
0010
0000
,
0001
0010
0100
0000
1000
0010
0100
0000
0001
0000
0100
0000
0010
0000
1000
0000
,
0001
0001
2000
0010
0000
0001
0000
3010
,
1000
1000
0002
0010
0000
1000
0000
0013
,
0100
0100
0020
0001
0000
0001
0000
1000
,
0000
1000
0000
0001
0000
0001
0000
0130
,
1000
1000
1020
0100
0000
0001
0000
0130
,
0001
0001
0021
0100
0000
1000
0000
0130
,
1000
0010
1000
0010
1000
0010
1000
0000
0001
0100
0001
0100
0001
0100
0001
0000
,
1000
0100
1000
0100
0010
0100
0010
0100
0010
0001
0010
0001
1000
0001
1000
0001
,
1000
0000
0010
0000
0110
0100
0001
0010
,
0100
1000
0001
0100
0110
0010
1000
0001
,
1000
0000
0000
0000
0010
0000
0010
0000
0010
0000
0100
0001
0100
0000
0010
0000
,
1000
0100
1000
0000
1000
0010
1000
0000
0001
0000
0010
0000
1000
0000
0010
0000
,
0001
0000
0100
0000
0110
0010
1000
0100
,
0010
0001
1000
0010
0110
0100
0001
1000
,
0001
0000
0000
0000
0100
0000
0100
0000
0100
0000
0010
1000
0010
0000
0100
0000
,
0001
0010
0001
0000
0001
0100
0001
0000
1000
0000
0100
0000
0001
0000
0100
0000
,
1000
0001
0110
1000
0001
1000
0110
0001
,
0100
0010
1001
0100
0010
0100
1001
0010
,
1000
0000
0000
0000
0001
0000
0001
0000
0001
0000
1000
0100
1000
0000
0010
0000
,
0100
0001
0100
0000
0100
1000
0100
0000
0001
0000
0010
0000
1000
0000
0010
0000
,
0001
1000
0110
0001
1000
0001
0110
1000
,
0010
0100
1001
0010
0100
0010
1001
0100
,
0001
0000
0000
0000
1000
0000
1000
0000
1000
0000
0001
0010
0001
0000
0100
0000
,
0010
1000
0010
0000
0010
0001
0010
0000
1000
0000
0100
0000
0001
0000
0100
0000
,
1000
0010
0001
1000
0100
0001
0010
0100
,
1000
0001
0100
1000
0001
0010
1000
0100
,
0010
1000
0001
0100
1000
0010
0100
0001
,
1000
0010
0001
1000
0100
0001
0010
0100
,
0001
1000
0010
0001
0100
1000
0001
0010
,
1000
0100
0010
0001
0100
0010
1000
0100
0010
0100
1000
0010
0100
0001
0010
0100
,
1000
0001
0100
1000
0001
0100
0001
0010
,
1000
0100
0001
1000
0100
1000
0010
0001
,
1000
1000
0010
0001
1000
1000
0100
0001
,
0010
0010
1000
0001
0100
1000
0010
0100
,
0001
0001
0010
1000
0001
0001
0100
1000
,
0010
0010
0001
1000
0100
0001
0010
0100
,
0010
0010
1000
0001
0100
0100
1000
0010
,
0001
0001
1000
0100
0001
0010
0100
1000
,
0010
0010
0001
1000
0100
0100
0001
0010
,
1000
0000
1000
0000
0001
0000
0100
0000
1000
0001
1000
0001
1000
0001
1000
0001
,
1000
0000
0000
1010
0000
0101
0000
0011
,
1100
0000
0000
0000
0000
0000
1001
0000
0000
0000
1000
0000
0000
0000
0000
0100
,
0010
0000
0000
0011
0000
1100
0000
1010
,
0101
0000
0000
0000
0000
0000
0110
0000
0000
0000
0100
0000
0000
0000
0000
0010
,
1000
0000
0000
1100
0000
0011
0000
0101
,
1010
0000
0000
0000
0000
0000
0110
0000
0000
0000
0010
0000
0000
0000
0000
1000
,
0001
0000
0000
0101
0000
1010
0000
1100
,
0011
0000
0000
2002
0000
0000
3003
0000
,
1001
0000
1000
0100
0010
0001
0100
0101
,
0000
1100
0000
1010
0000
0011
0000
1001
,
0000
1000
0100
0010
0100
1000
0000
1010
,
0000
0011
0000
0101
0000
1100
0000
0110
,
0000
0000
0010
0000
0001
0000
0100
0000
0010
0000
1000
0100
0010
0000
0100
0000
,
1000
0010
0100
0000
0001
0010
0100
0000
1000
0000
0100
0000
0010
0000
0002
0000
,
1000
0100
2003
0100
,
3020
1000
0230
0302
,
2003
0000
3100
0010
0001
1000
0100
1100
,
0000
0101
0000
1010
0000
0011
0000
0110
,
0000
0100
1000
0001
0100
0001
0000
0011
,
0000
1010
0000
0101
0000
1100
0000
1001
,
0000
0000
0001
0000
0100
0000
0010
0000
1000
0000
0100
0010
0001
0000
0010
0000
,
0100
1000
0010
0000
0100
0001
0010
0000
0100
0000
1000
0000
0010
0000
2000
0000
,
0001
0010
3002
0010
,
0203
0001
0320
2030
,
3001
0010
0100
1100
0000
0011
0000
1001
,
1000
0010
0100
0101
0000
1010
0000
1001
,
0001
1000
0100
0110
0000
0011
0000
1100
,
0000
1001
0000
0101
0000
1010
0000
0110
,
0000
0000
0011
0000
0000
0000
1010
0000
0000
0000
1000
0100
0010
0000
0100
0000
,
1000
0001
0100
0000
0001
1000
0100
0000
1000
0000
0001
0000
0010
0000
0200
0000
,
1000
0010
2300
0001
,
3020
0100
2030
3002
,
0013
0100
1000
1010
0000
0011
0000
0110
,
0100
0010
0001
0101
0000
1100
0000
0110
,
0010
0001
1000
1001
0000
0011
0000
1010
,
0000
0110
0000
0101
0000
1100
0000
1001
,
0000
0000
0011
0000
0000
0000
1100
0000
0000
0000
0100
0010
0001
0000
0010
0000
,
0100
1000
0010
0000
0100
0001
0010
0000
0100
0000
1000
0000
0100
0000
0020
0000
,
0001
0100
0032
1000
,
0203
0010
0302
2003
,
3001
0001
0020
0100
0000
0001
0000
0130
,
1000
1000
0020
0100
0000
1000
0000
0130
,
0001
0001
2000
0100
0000
0001
0000
0010
,
0000
0001
0000
0100
0000
0001
0000
3010
,
1000
1000
0200
0010
0000
1000
0000
0310
,
0001
0001
0200
0010
0000
0001
0000
0310
,
1000
1000
0002
0010
0000
1000
0000
0100
,
0000
1000
0000
0010
0000
1000
0000
0103
,
0010
0010
2000
0001
0000
0010
0000
3001
,
0100
0100
0002
1000
0000
0100
0000
1003
,
0010
0010
0200
1000
0000
0010
0000
0001
,
0000
0010
0000
1000
0000
0010
0000
0301
,
0100
0010
1000
0100
0010
0001
0010
0100
,
1000
0010
0100
0001
0010
0100
1000
0001
,
1000
0010
0001
1000
0100
0001
0010
1000
,
0001
0100
1000
0001
0010
1000
0010
0001
,
1000
0000
0000
0000
;

//---------------dance-single - ----------------
#NOTEDATA:;
#CHARTNAME:;
#STEPSTYPE:dance-single;
#DESCRIPTION:;
#CHARTSTYLE:;
#DIFFICULTY:Hard;
#METER:12;
#RADARVALUES:0.580565,0.612144,0.453440,0.068016,0.000000,717.000000,637.000000,80.000000,12.000000,0.000000,0.000000,0.000000,0.000000,0.000000,0.580565,0.612144,0.453440,0.068016,0.000000,717.000000,637.000000,80.000000,12.000000,0.000000,0.000000,0.000000,0.000000,0.000000;
#CREDIT:;
#NOTES:
0000
0000
0000
0000
,
0000
0000
0000
0000
,
0000
0000
0000
0000
,
0000
0000
0000
0000
,
2000
0100
0001
0100
,
3002
1000
0010
1000
,
0023
0001
0100
0001
,
0230
0000
0000
0300
,
2001
0000
0000
0000
0000
0001
0000
0010
,
0000
0010
0000
0001
0000
0001
0000
0100
,
3000
0000
1000
0100
1000
0100
0010
0100
,
0010
0001
0010
0001
1000
0001
1000
0001
,
1002
0000
0000
0000
0000
1000
0000
0010
,
0000
0010
0000
1000
0000
1000
0000
0100
,
0003
0000
0001
0100
0001
0100
0010
0100
,
0010
1000
0010
1000
0001
1000
0001
0100
,
0210
0000
0000
0000
0000
0010
0000
1000
,
0000
1000
0000
0010
0000
0010
0000
0001
,
0300
0000
0100
0001
0100
0001
1000
0001
,
1000
0010
1000
0010
0100
0010
0100
0010
,
0120
0000
0000
0000
0000
0100
0000
0001
,
0000
0001
0000
0100
0000
0100
0000
1000
,
0030
0000
0010
1000
0010
1000
0001
1000
,
0001
0100
0001
0100
0010
0100
0010
1000
,
0001
0001
0010
0100
0000
0100
0000
0100
,
1000
1000
0010
0100
0000
0100
0000
0100
,
0010
0010
1000
0001
0000
0001
0000
1000
,
0000
1000
0000
0010
0000
0010
0000
0100
,
0001
0001
0200
0010
0000
0001
0000
0310
,
1000
1000
0200
0010
0000
1000
0000
0310
,
0100
1000
0100
1000
0001
0010
0001
0010
,
0001
0100
0001
0100
0010
1000
0010
1000
,
0001
0010
0110
0100
,
1000
0000
0010
0000
0110
0000
0100
0100
,
0001
0000
1000
0100
0010
0100
1000
0001
,
0100
0010
0100
0001
1000
0100
0010
0001
,
1000
0100
0110
0010
,
0001
0000
0100
0000
0110
0000
0010
0010
,
1000
0000
0001
0010
0100
0010
0001
1000
,
0010
0100
0010
1000
0001
0010
0100
1000
,
0001
0011
1000
1100
,
0010
1010
0100
0101
,
0001
0000
0010
0100
1000
0100
0010
0001
,
0100
1000
0100
0001
1000
0010
0001
0010
,
1000
1100
0001
0011
,
0100
0101
0010
1010
,
1000
0000
0100
0010
0001
0010
0100
1000
,
0010
0001
0010
1000
0001
0100
1000
0100
,
0001
0010
0001
0000
1000
0010
1000
0000
,
0001
0100
0001
0000
1000
0100
1000
0000
,
0010
1000
0010
0000
0100
0001
0100
0000
,
0010
0100
0010
0000
1000
0001
1000
0000
,
0001
0010
0100
0000
1000
0010
0100
0000
,
0001
0010
0100
1000
0010
0100
0001
1000
,
0100
0010
0001
0000
0100
0010
1000
0000
,
0100
1000
0010
0000
0100
0001
0010
0000
,
0001
0100
0010
0100
0001
0100
0010
1000
,
0100
0010
0001
0010
0100
1000
0001
0000
,
0100
0010
1000
0010
0100
0010
1000
0100
,
0010
0001
0100
0001
0010
0100
1000
0000
,
0010
0100
0001
0100
0010
0100
0001
0010
,
0100
1000
0010
1000
0100
0010
0001
0000
,
1000
0010
0100
0010
1000
0010
0100
0001
,
0010
0100
1000
0100
0010
0010
0010
0010
,
0001
0000
0000
1000
0000
1000
0000
1000
,
0010
0000
0000
0110
0000
0000
0000
0000
,
1000
0000
0000
0100
0000
0100
0000
0100
,
0010
0000
0000
0011
0000
0000
0000
0000
,
0100
0000
0000
1000
0000
1000
0000
1000
,
0001
0000
0000
0101
0000
0000
0000
0000
,
0010
0000
0000
0100
0000
0100
0000
0100
,
1000
0000
0000
2002
0000
0000
3003
0000
,
1001
0000
0001
0100
0001
0100
0001
1000
,
0000
1100
0000
0011
0000
0011
0000
1001
,
0000
1000
0010
1000
0010
0100
0000
0101
,
0000
0101
0000
1010
0000
1010
0000
0110
,
0000
0100
0001
0100
0001
0100
0000
0110
,
0000
0110
0000
0010
1000
0100
0000
1100
,
0000
1000
0001
1000
0001
1000
0001
0010
,
0000
0100
1000
0100
1000
0100
1000
0100
,
0110
0000
0010
0001
0010
0001
0010
0100
,
0000
1100
0000
0101
0000
0101
0000
0110
,
0000
0010
1000
0010
1000
0001
0000
0011
,
0000
0011
0000
1010
0000
1010
0000
1001
,
0000
0001
0010
0001
0010
0001
0000
0101
,
0000
0101
0000
0100
0010
1000
0000
1100
,
0000
0100
0010
0100
0010
0100
0010
0001
,
0000
1000
0010
1000
0010
1000
0010
1000
,
0001
0001
0100
0010
0000
0110
0000
0010
,
1000
1000
0100
0010
0000
0110
0000
0010
,
0001
0001
1000
0100
0000
1100
0000
0011
,
0000
1010
0000
0101
0000
1001
0000
0110
,
0000
1100
0000
0011
0000
0011
0000
0010
,
0100
0100
1000
0010
0000
1010
0000
0010
,
0100
0100
0001
0010
0000
0011
0000
0101
,
0000
0101
0000
1100
0000
1100
0000
1000
,
0010
0010
1000
0001
0000
1001
0000
0001
,
0010
0010
0001
1000
0000
1001
0000
1000
,
0010
0010
0100
0001
0000
0101
0000
1010
,
0000
0011
0000
1100
0000
1001
0000
0110
,
0000
0101
0000
1010
0000
1010
0000
1000
,
0001
0001
0100
0010
0000
0110
0000
0010
,
1000
1000
0100
0010
0000
0110
0000
0011
,
0000
0011
0000
1010
0000
1010
0000
1000
,
0001
0001
0100
0010
0000
0100
0000
0010
,
1000
1000
0100
0010
0000
0100
0000
0010
,
0100
0100
1000
0001
0000
0100
0000
0001
,
0000
1000
0000
0001
0000
0010
0000
0001
,
1000
1000
0010
0100
0000
0010
0000
0100
,
0001
0001
0010
0100
0000
0010
0000
0100
,
0010
0010
0001
1000
0000
0010
0000
1000
,
0000
0001
0000
1000
0000
0100
0000
1000
,
0010
0010
0100
0001
0000
0100
0000
0001
,
0010
0010
0100
1000
0000
0100
0000
1000
,
0001
0001
0100
0010
0000
0100
0000
0010
,
0000
1000
0000
0010
0000
0001
0000
0010
,
0100
0001
0010
1000
,
0010
0000
0001
0001
0100
0000
0001
0000
,
0010
0100
0001
0100
,
1000
0000
0010
0010
0100
0000
0001
0000
,
1000
0000
0000
0000
;

//---------------dance-single - ----------------
#NOTEDATA:;
#CHARTNAME:;
#STEPSTYPE:dance-single;
#DESCRIPTION:;
#CHARTSTYLE:;
#DIFFICULTY:Medium;
#METER:9;
#RADARVALUES:0.432388,0.476112,0.102024,0.022672,0.000000,534.000000,516.000000,18.000000,4.000000,0.000000,0.000000,0.000000,0.000000,0.000000,0.432388,0.476112,0.102024,0.022672,0.000000,534.000000,516.000000,18.000000,4.000000,0.000000,0.000000,0.000000,0.000000,0.000000;
#CREDIT:;
#NOTES:
0000
0000
0000
0000
,
0000
0000
0000
0000
,
0000
0000
0000
0000
,
0000
0000
0000
0000
,
1000
0010
1000
0010
,
1000
0100
1000
0100
,
0010
0001
0010
0001
,
0200
0000
0000
0300
,
1001
0000
0000
0000
0000
1000
0000
0010
,
0000
0010
0000
0100
0000
0100
0000
0001
,
0000
0000
0010
0000
0100
1000
0100
0000
,
0010
0001
0010
0000
0001
0100
0001
0000
,
1001
0000
0000
0000
0000
0001
0000
0010
,
0000
0010
0000
0100
0000
0100
0000
1000
,
0000
0000
0010
0000
0100
0001
0100
0000
,
0010
1000
0010
0000
1000
0100
1000
0000
,
0110
0000
0000
0000
0000
0010
0000
0001
,
0000
0001
0000
1000
0000
1000
0000
0100
,
0000
0000
1000
0000
0001
0010
0001
0000
,
1000
0100
1000
0000
0010
1000
0010
0000
,
0110
0000
0000
0000
0000
0010
0000
1000
,
0000
1000
0000
0001
0000
0001
0000
0100
,
0000
0000
0001
0000
1000
0100
1000
0000
,
0001
0010
0001
0000
0100
0001
0100
0000
,
0001
0010
0000
0100
0000
0100
0000
0100
,
1000
0010
0000
0100
0000
0100
0000
0100
,
0001
1000
0000
0010
0000
0010
0000
1000
,
0000
1000
0000
0001
0000
0001
0000
0010
,
0100
2000
0000
0010
0000
0010
0000
3010
,
0100
0002
0000
0010
0000
0010
0000
0013
,
0001
0100
0001
0000
1000
0010
1000
0000
,
0100
1000
0100
0000
0010
0001
0010
0000
,
0001
0000
1001
0000
,
1000
0000
0010
0000
0110
0000
0000
0100
,
0001
0000
1000
0000
0001
0010
0001
0000
,
1000
0100
1000
0010
1000
0000
0100
0000
,
1000
0000
1001
0000
,
0001
0000
0100
0000
0110
0000
0000
0010
,
1000
0000
0001
0000
1000
0100
1000
0000
,
0001
0010
0001
0100
0001
0000
0010
0000
,
0001
0011
1000
1100
,
0010
1010
0100
0101
,
0001
0000
0010
0000
0100
1000
0100
0000
,
0010
0001
0010
1000
0010
0000
0001
0000
,
1000
1100
0001
0011
,
0100
0101
0010
1010
,
1000
0000
0100
0000
0010
0001
0010
0000
,
0100
1000
0100
0001
0100
0000
1000
0000
,
0001
0010
0001
0100
,
0010
1000
0100
0010
,
0001
0100
0010
1000
,
0100
1000
0010
0100
,
0001
0010
0100
1000
,
0001
0001
0001
0000
1000
1000
1000
0000
,
0001
0100
1000
0100
,
0010
0001
0010
1000
,
0001
0010
0001
0000
1000
0100
1000
0000
,
0010
0100
0010
0000
0100
0000
0001
0000
,
1000
0010
1000
0000
0001
0100
0001
0000
,
0010
0100
0010
0000
0100
0000
1000
0000
,
0001
0001
0100
0000
1000
1000
0100
0000
,
0001
0001
0010
0000
0100
0000
1000
0000
,
0010
0010
0001
0000
0010
0010
1000
0000
,
0100
0100
0001
0000
0100
1000
0100
1000
,
0001
0000
0000
0010
0000
0010
0000
0000
,
0100
0000
0000
0100
0000
0000
0000
0000
,
1000
0000
0000
0010
0000
0010
0000
0000
,
0100
0000
0000
0100
0000
0000
0000
0000
,
0010
0000
0000
1000
0000
1000
0000
0000
,
0001
0000
0000
0001
0000
0000
0000
0000
,
0010
0000
0000
0100
0000
0100
0000
0000
,
1000
0000
0000
2000
0000
0000
3000
0000
,
1001
0000
0001
0000
0100
0000
0010
1000
,
0000
1000
0000
0100
0000
0100
0000
0010
,
0000
0010
0100
0000
1000
0001
0000
0010
,
0000
0010
0000
0001
0000
0001
0000
0100
,
0000
0100
0010
0000
1000
0001
0000
0010
,
0000
0010
0000
0010
0001
0010
0000
0100
,
0000
0100
1000
0000
0010
0000
1000
0001
,
0000
0001
0010
0000
0001
0000
0100
0000
,
0110
0000
0010
0000
1000
0000
0100
0010
,
0000
0010
0000
0001
0000
0001
0000
1000
,
0000
1000
0001
0000
0010
0100
0000
1000
,
0000
1000
0000
0001
0000
0001
0000
0100
,
0000
0100
0001
0000
1000
0010
0000
1000
,
0000
1000
0000
1000
0100
1000
0000
0001
,
0000
0001
0010
0000
0100
0000
1000
0010
,
0000
0010
0100
0000
0010
0000
1000
0000
,
0001
0001
0000
0010
0000
0010
0000
0010
,
0100
0100
0000
1000
0000
1000
0000
1000
,
0010
0010
0000
0100
0000
0001
0000
0010
,
0000
0001
0000
1000
0000
0010
0000
1000
,
0000
0001
0000
0100
0000
0100
0000
0100
,
0010
0010
0000
1000
0000
1000
0000
1000
,
0100
0100
0000
0010
0000
0010
0000
0001
,
0000
0001
0000
1000
0000
1000
0000
1000
,
0010
0010
0000
0100
0000
0100
0000
0100
,
0001
0001
0000
0010
0000
0010
0000
0010
,
0100
0100
0000
1000
0000
0010
0000
0100
,
0000
0001
0000
0100
0000
0010
0000
1000
,
0000
0001
0000
0010
0000
0010
0000
0010
,
0001
0001
0000
1000
0000
1000
0000
1000
,
0010
0010
0000
0100
0000
0100
0000
0001
,
0000
0001
0000
0010
0000
0010
0000
0010
,
0001
0100
0000
0010
0000
0100
0000
0010
,
1000
0100
0000
0010
0000
0100
0000
0010
,
0001
1000
0000
0010
0000
1000
0000
0010
,
0000
1000
0000
0010
0000
1000
0000
0010
,
0100
0001
0000
0010
0000
0001
0000
0010
,
0100
1000
0000
0010
0000
1000
0000
0010
,
1000
0001
0000
0100
0000
0001
0000
0100
,
0000
0001
0000
0100
0000
0001
0000
0100
,
0010
1000
0000
0100
0000
1000
0000
0100
,
0010
0001
0000
0100
0000
0001
0000
0100
,
0010
1000
0000
0001
0000
1000
0000
0001
,
0000
1000
0000
0001
0000
1000
0000
0001
,
0010
0100
1000
0010
,
0100
0001
0010
0001
,
0100
0010
1000
0100
,
0010
0001
0010
0100
,
1000
0000
0000
0000
;

//---------------dance-single - ----------------
#NOTEDATA:;
#CHARTNAME:;
#STEPSTYPE:dance-single;
#DESCRIPTION:;
#CHARTSTYLE:;
#DIFFICULTY:Easy;
#METER:6;
#RADARVALUES:0.312550,0.340080,0.107692,0.102024,0.000000,386.000000,367.000000,19.000000,18.000000,0.000000,0.000000,0.000000,0.000000,0.000000,0.312550,0.340080,0.107692,0.102024,0.000000,386.000000,367.000000,19.000000,18.000000,0.000000,0.000000,0.000000,0.000000,0.000000;
#CREDIT:;
#NOTES:
0000
0000
0000
0000
,
0000
0000
0000
0000
,
0000
0000
0000
0000
,
0000
0000
0000
0000
,
1000
0000
1000
0000
,
0010
0000
0010
0000
,
0100
0000
0100
0000
,
2002
0000
0000
3003
,
1001
0000
0000
0000
0000
1000
0000
0010
,
0000
0010
0000
1000
0000
1000
0000
0001
,
0000
0010
1000
0010
,
0100
0010
0001
1000
,
1001
0000
0000
0000
0000
0001
0000
0010
,
0000
0010
0000
0001
0000
0001
0000
1000
,
0000
0010
0001
0010
,
0100
0010
1000
0100
,
0110
0000
0000
0000
0000
0010
0000
0001
,
0000
0001
0000
0010
0000
0010
0000
0100
,
0000
1000
0010
1000
,
0100
1000
0001
0100
,
0110
0000
0000
0000
0000
0010
0000
1000
,
0000
1000
0000
0010
0000
0010
0000
0100
,
0000
0001
0010
0001
,
0100
0001
1000
0100
,
1000
0000
0000
0010
0000
0010
0000
0000
,
0100
0000
0000
0001
0000
0001
0000
0000
,
0010
0000
0000
0100
0000
0100
0000
1000
,
0000
1000
0000
0001
0000
0001
0000
0000
,
0100
0000
0000
0010
0000
0110
0000
0000
,
1000
0000
0000
0001
0000
1001
0000
0000
,
0020
0000
0230
0000
,
2300
0000
3002
0000
,
1003
0000
1001
0000
,
0001
0000
1001
0000
,
1000
0010
1000
0100
,
0010
0001
0100
0001
,
0010
0000
0110
0000
,
0100
0000
0110
0000
,
0010
0001
0100
0010
,
1000
0100
0010
0100
,
1000
1000
0001
0001
,
0100
0100
0010
0010
,
1000
0100
1000
0010
,
0100
0001
0010
0001
,
0100
0100
0010
0010
,
1000
1000
0001
0001
,
0100
0001
0010
0100
,
1000
0010
0100
0010
,
1000
0000
0001
0000
,
0100
0000
0010
0000
,
0100
0000
0001
0000
,
1000
0000
0010
0000
,
0100
0000
0010
0000
,
1000
0100
0010
0001
,
1000
0000
0010
0000
,
0100
0000
0001
0000
,
1000
0100
0010
0100
,
0001
0100
1000
0000
,
0001
0010
0100
0010
,
1000
0010
0001
0000
,
0100
0001
1000
0001
,
0010
0001
0100
0000
,
0010
1000
0001
1000
,
0100
1000
0010
0010
,
2000
0000
0000
0000
,
3002
0000
0000
0000
,
0203
0000
0000
0000
,
0320
0000
0000
0030
,
2200
0000
0000
3300
,
0022
0000
0000
0033
,
0220
0000
0000
0330
,
2002
0000
0000
3003
0000
0000
0000
0000
,
1001
1000
0010
0100
,
0001
0001
0010
0010
,
0001
1000
0010
0100
,
0010
0000
0010
0000
1000
0000
1000
0001
,
0000
1000
0100
0100
,
0010
0001
0100
0100
,
0010
1000
0001
0001
,
1000
0100
1000
0010
,
0110
0100
0001
0010
,
0100
0100
1000
1000
,
0010
1000
0100
0010
,
0001
0000
0001
0000
0100
0000
0100
0010
,
0000
1000
0001
0001
,
0010
0100
1000
1000
,
0001
0100
0010
0010
,
0100
0001
0010
0001
,
1001
1000
0010
0010
,
0100
0001
0010
0010
,
0001
1000
0100
1000
,
0001
0000
0100
0000
0001
0000
0010
0100
,
0000
0010
0001
0001
,
0100
0010
1000
1000
,
0001
0010
0100
0100
,
1000
1000
0010
0010
,
0110
0100
0001
0001
,
0010
0100
1000
1000
,
0010
0100
0001
0100
,
0010
0000
1000
0000
0010
0000
0100
0001
,
0000
0010
0100
0100
,
1000
0010
0100
0100
,
0010
1000
0001
0001
,
0100
0100
0010
0010
,
1000
0100
1000
0000
,
0001
0100
0001
0000
,
0010
0100
0010
0000
,
0010
0000
0010
0000
,
0001
0010
0001
0000
,
1000
0010
1000
0000
,
0100
0010
0100
0000
,
0100
0000
0100
0000
,
0010
0001
0010
0000
,
0100
1000
0100
0000
,
1000
0001
1000
0000
,
1000
0000
1000
0000
,
0010
0000
0100
0000
,
0001
0000
0010
0000
,
0100
0000
1000
0000
,
0010
0000
0100
0000
,
0001
0000
0000
0000
;

//---------------dance-single - ----------------
#NOTEDATA:;
#CHARTNAME:;
#STEPSTYPE:dance-single;
#DESCRIPTION:;
#CHARTSTYLE:;
#DIFFICULTY:Beginner;
#METER:3;
#RADARVALUES:0.155465,0.204048,0.056680,0.034008,0.000000,192.000000,182.000000,10.000000,6.000000,0.000000,0.000000,0.000000,0.000000,0.000000,0.155465,0.204048,0.056680,0.034008,0.000000,192.000000,182.000000,10.000000,6.000000,0.000000,0.000000,0.000000,0.000000,0.000000;
#CREDIT:;
#NOTES:
// measure 0
0000
0000
0000
0000
,  // measure 1
0000
0000
0000
0000
,  // measure 2
0000
0000
0000
0000
,  // measure 3
0000
0000
0000
0000
,  // measure 4
1000
0000
0000
0000
,  // measure 5
0001
0000
0000
0000
,  // measure 6
0100
0000
0000
0000
,  // measure 7
0010
0000
0000
0000
,  // measure 8
1001
0000
0000
0000
,  // measure 9
1000
0000
0000
0000
,  // measure 10
0001
0000
0001
0000
,  // measure 11
1000
0000
1000
0000
,  // measure 12
1001
0000
0000
0000
,  // measure 13
0001
0000
0000
0000
,  // measure 14
1000
0000
1000
0000
,  // measure 15
0001
0000
0001
0000
,  // measure 16
0110
0000
0000
0000
,  // measure 17
0100
0000
0000
0000
,  // measure 18
0010
0000
0010
0000
,  // measure 19
0100
0000
0100
0000
,  // measure 20
0110
0000
0000
0000
,  // measure 21
0010
0000
0000
0000
,  // measure 22
0100
0000
0100
0000
,  // measure 23
0010
0000
0010
0000
,  // measure 24
1000
0000
0000
0000
,  // measure 25
0001
0000
0000
0000
,  // measure 26
1000
0000
1000
0000
,  // measure 27
1000
0000
1000
0000
,  // measure 28
0001
0000
0000
0000
,  // measure 29
1000
0000
0000
0000
,  // measure 30
0001
0000
0001
0000
,  // measure 31
0001
0000
0001
0000
,  // measure 32
1001
0000
0000
0000
,  // measure 33
1000
0000
0000
0000
,  // measure 34
0001
0000
0001
0000
,  // measure 35
0100
0000
0100
0000
,  // measure 36
1001
0000
0000
0000
,  // measure 37
0001
0000
0000
0000
,  // measure 38
1000
0000
1000
0000
,  // measure 39
0010
0000
0010
0000
,  // measure 40
1000
0000
0001
0000
,  // measure 41
1000
0000
0001
0000
,  // measure 42
0100
0000
0100
0000
,  // measure 43
0010
0000
0010
0000
,  // measure 44
1000
0000
0001
0000
,  // measure 45
1000
0000
0001
0000
,  // measure 46
0010
0000
0010
0000
,  // measure 47
0100
0000
0100
0000
,  // measure 48
1000
0000
0000
0000
,  // measure 49
0001
0000
0000
0000
,  // measure 50
0100
0000
0000
0000
,  // measure 51
0010
0000
0000
0000
,  // measure 52
1000
0000
0000
0000
,  // measure 53
0100
0000
0010
0000
,  // measure 54
0100
0000
0000
0000
,  // measure 55
1000
0000
0000
0000
,  // measure 56
0001
0000
0001
0000
,  // measure 57
0001
0000
0000
0000
,  // measure 58
1000
0000
1000
0000
,  // measure 59
1000
0000
0000
0000
,  // measure 60
0010
0000
0010
0000
,  // measure 61
0010
0000
0000
0000
,  // measure 62
0100
0000
0100
0000
,  // measure 63
0100
0000
0000
0000
,  // measure 64
0002
0000
0000
0000
,  // measure 65
0003
0000
0000
0000
,  // measure 66
2000
0000
0000
0000
,  // measure 67
3000
0000
0000
0000
,  // measure 68
0020
0000
0000
0030
,  // measure 69
0200
0000
0000
0300
,  // measure 70
0002
0000
0000
0003
,  // measure 71
2000
0000
0000
3000
0000
0000
0000
0000
,  // measure 72
1001
0000
0010
0000
,  // measure 73
0001
0000
0100
0000
,  // measure 74
0010
0000
1000
0000
,  // measure 75
0100
0000
1000
0000
,  // measure 76
0001
0000
0100
0000
,  // measure 77
0001
0000
0010
0000
,  // measure 78
0100
0000
1000
0000
,  // measure 79
0010
0000
1000
0000
,  // measure 80
1001
0000
0010
0000
,  // measure 81
1000
0000
0100
0000
,  // measure 82
0010
0000
0001
0000
,  // measure 83
0100
0000
0001
0000
,  // measure 84
1000
0000
0100
0000
,  // measure 85
1000
0000
0010
0000
,  // measure 86
0100
0000
0001
0000
,  // measure 87
0010
0000
0001
0000
,  // measure 88
0110
0000
1000
0000
,  // measure 89
0010
0000
1000
0000
,  // measure 90
0100
0000
0010
0000
,  // measure 91
0001
0000
0100
0000
,  // measure 92
0001
0000
1000
0000
,  // measure 93
0100
0000
1000
0000
,  // measure 94
0010
0000
0100
0000
,  // measure 95
0001
0000
0010
0000
,  // measure 96
0110
0000
0001
0000
,  // measure 97
0100
0000
0001
0000
,  // measure 98
0010
0000
0100
0000
,  // measure 99
1000
0000
0010
0000
,  // measure 100
1000
0000
0001
0000
,  // measure 101
0010
0000
0001
0000
,  // measure 102
0100
0000
0010
0000
,  // measure 103
1000
0000
0100
0000
,  // measure 104
1000
0000
0000
0000
,  // measure 105
0001
0000
0000
0000
,  // measure 106
0100
0000
0100
0000
,  // measure 107
0100
0000
0100
0000
,  // measure 108
0001
0000
0000
0000
,  // measure 109
1000
0000
0000
0000
,  // measure 110
0010
0000
0010
0000
,  // measure 111
0010
0000
0010
0000
,  // measure 112
0100
0000
0000
0000
,  // measure 113
0010
0000
0000
0000
,  // measure 114
1000
0000
1000
0000
,  // measure 115
1000
0000
1000
0000
,  // measure 116
0010
0000
0000
0000
,  // measure 117
1000
0000
0000
0000
,  // measure 118
0100
0000
0000
0000
,  // measure 119
0010
0000
0000
0000
,  // measure 120
0001
0000
0000
0000
;
