#TITLE:Erlung;
#SUBTITLE:;
#ARTIST:削除;
#TITLETRANSLIT:;
#SUBTITLETRANSLIT:;
#ARTISTTRANSLIT:Sakuzyo;
#GENRE:;
#CREDIT:;
#BANNER:Erlung.png;
#BACKGROUND:Erlung-bg.png;
#LYRICSPATH:;
#CDTITLE:cdtitle.png;
#MUSIC:Erlung.ogg;
#OFFSET:1.209000;
#SAMPLESTART:75.933998;
#SAMPLELENGTH:15.000000;
#SELECTABLE:YES;
#DISPLAYBPM:140.000000;
#BPMS:0.000000=140.000000
,174.000000=280.000000
,176.000000=140.000000
,208.000000=280.000000
,210.000000=140.000000
;
#STOPS:34.000000=0.428571,
113.000000=0.428571,
174.000000=0.107143,
174.500000=0.160714,
175.250000=0.160714,
208.000000=0.204286,
209.000000=0.204286
;
#BGCHANGES:;
#KEYSOUNDS:;
#ATTACKS:;

//---------------dance-single - ----------------
#NOTES:
     dance-single:
     :
     Beginner:
     3:
     0.140259,0.227453,0.057272,0.155454,0.000000,120.000000,113.000000,7.000000,19.000000,0.000000,0.000000,0.140259,0.227453,0.057272,0.155454,0.000000,120.000000,113.000000,7.000000,19.000000,0.000000,0.000000:
0000
0000
0000
0000
,
0000
0000
0000
0000
,
0000
0000
0000
0000
,
0000
0000
0000
0000
,
0000
0000
0000
0000
,
1000
0000
0000
0000
,
0001
0000
0000
0000
,
0100
0000
0000
0000
,
0010
0000
0000
1001
,
0000
0000
0000
1001
,
0000
0000
0000
0110
,
0000
0000
0000
0110
,
0000
0000
0000
1000
,
0000
0010
0000
0100
,
0000
0010
0000
1000
,
0000
0000
0000
1001
,
0000
0000
0000
0001
,
0000
0010
0000
0100
,
0000
0010
0000
0001
,
0000
0000
0000
1000
,
0000
0001
0000
2000
,
0000
0000
3000
0002
,
0000
0000
0003
0100
,
0000
0100
0000
0010
,
0000
0010
0000
2000
,
0000
0000
3000
0001
,
0000
1000
0000
0020
,
0000
0000
0030
0200
,
0000
0300
0001
0000
,
0100
0000
0010
0000
,
1000
0000
0001
0000
,
0010
0000
0100
0000
,
1000
0000
0001
0001
,
0001
0000
1000
1000
,
1000
0000
0010
0010
,
0010
0000
0100
0100
,
0100
0100
0200
0000
,
0000
0300
0020
0000
,
0000
0030
1000
0000
,
0001
0000
0010
0000
,
0100
0000
1000
0000
,
1000
0000
0001
0000
,
0001
0000
0020
0000
,
0000
0000
0000
0000
,
0030
0000
0001
0000
,
0002
0000
0003
0000
,
0100
0000
0010
0000
,
1000
0000
0100
0000
,
0010
0000
0001
0001
,
0001
0000
1000
1000
,
1000
0000
0020
0000
,
0030
0000
0100
0000
,
0002
0000
0003
0000
,
2000
0000
3000
0000
,
0010
0000
0100
0000
,
0001
0000
0010
0000
,
0100
0000
1000
1000
,
1000
0000
0001
0001
,
0001
0000
1000
0000
,
0001
0000
1000
0000
,
0001
0000
0100
0000
,
0010
0000
0100
0000
,
0010
0000
1000
0000
,
0001
0000
0100
0000
,
0010
0000
2000
0000
,
0000
3000
0002
0000
,
0000
0003
2000
3000
,
0200
0300
0020
0030
,
0002
0003
2000
3000
,
0110
0000
1001
0000
;

//---------------dance-single - ----------------
#NOTES:
     dance-single:
     :
     Easy:
     7:
     0.267661,0.341180,0.179999,0.269998,0.000000,229.000000,207.000000,22.000000,33.000000,0.000000,0.000000,0.267661,0.341180,0.179999,0.269998,0.000000,229.000000,207.000000,22.000000,33.000000,0.000000,0.000000:
0000
0000
0000
0000
,
0000
0000
0000
0000
,
0000
0000
0000
0000
,
0000
0000
0000
0000
,
0000
0000
0000
0000
,
0001
0000
0010
0000
0000
0001
0001
0000
,
1000
0000
0010
0000
0000
1000
1000
0000
,
0100
0000
1000
0000
0000
0100
0100
0000
,
0010
0001
0000
1000
,
0000
1000
0000
0000
1001
0000
0001
0000
,
0000
0001
0000
0000
1001
0000
0100
0000
,
0000
0100
0000
0000
0110
0000
0010
0000
,
0000
0010
0000
0000
0110
0000
1000
0000
,
0001
0010
0100
2000
,
3001
0002
0203
0310
,
0010
0100
1001
0100
,
0100
0010
1001
0001
,
0100
0010
1000
0200
,
0310
0020
0032
1003
,
1000
0001
0110
0001
,
0100
1000
0100
0002
,
0000
2003
0000
0000
,
0000
3010
0100
0001
,
0000
0010
0000
0000
0001
0000
1000
0000
,
0000
0010
0000
0000
1000
0000
0100
0000
,
0000
0010
0000
0000
0100
0000
1000
0000
,
0001
0001
0100
0020
,
0000
0000
0000
0230
,
0000
0000
0300
0000
0001
0000
0000
0001
,
1000
0000
0000
1000
0100
0000
0000
0100
,
0010
0000
0000
0010
0001
0000
0000
0001
,
0100
0000
0000
0100
0010
0000
0000
0010
,
1000
0001
1000
0100
,
0010
0001
0010
0000
0001
0000
0100
0000
,
0010
1000
0010
0000
0100
0000
0001
0000
,
1000
0100
1000
0000
0100
0000
0010
0000
,
0001
1000
0001
1000
0002
0000
0000
0000
,
0000
0203
0320
0000
,
0000
2030
3002
0000
,
0023
0000
0130
1000
,
0010
1000
0001
0001
,
1000
1000
0100
0010
,
0100
0010
0100
0010
0200
0000
0000
0000
,
0000
0000
0000
0000
,
0310
0000
0002
0000
,
2003
0000
3000
0010
,
1000
0100
0100
0010
,
0001
1000
0020
0000
,
0130
0000
0010
0000
1000
0000
0000
1002
,
0000
0000
0103
0000
0001
0000
0000
2001
,
0000
3100
0020
0000
,
0130
1000
0001
0010
,
0200
0000
2300
0000
,
3002
0000
0003
0100
,
0001
0010
0010
0100
,
1000
0001
0200
0000
,
0310
0000
0100
0000
0001
0000
0000
2001
,
0000
0000
3010
0000
1000
0100
1000
0000
,
0001
0010
0001
0000
0101
0000
0000
0000
,
1010
0000
1100
0000
,
0011
0000
1010
0000
,
0101
0000
1100
0000
,
0011
0000
0101
0000
,
1100
0000
1000
0010
,
0100
0001
0020
0000
,
0000
0000
0031
0100
,
0010
1000
0002
0000
,
0023
0000
0230
0000
,
2300
0000
3001
0000
,
0110
0000
1001
0000
;

//---------------dance-single - ----------------
#NOTES:
     dance-single:
     :
     Medium:
     10:
     0.411426,0.454906,0.065454,0.425452,0.147272,352.000000,344.000000,8.000000,52.000000,0.000000,0.000000,0.411426,0.454906,0.065454,0.425452,0.147272,352.000000,344.000000,8.000000,52.000000,0.000000,0.000000:
0000
0000
0000
0000
,
0000
0000
0000
0000
,
0000
0000
0000
0000
,
0000
0000
0000
0000
,
0000
0000
0000
0000
,
1000
0000
0010
0000
0100
0000
0000
0010
0000
0000
0010
0000
1000
0000
0000
0000
,
0001
0000
0010
0000
0100
0000
0000
0010
0000
0000
0010
0000
0001
0000
0000
0000
,
0100
0000
0010
0000
1000
0000
0000
0001
0000
0000
0001
0000
1000
0000
0000
0000
,
0100
0000
0010
0000
0001
0000
0000
1000
0000
0000
0000
0000
0001
0000
0100
0000
,
0100
0001
0100
0100
0001
0000
1000
0010
,
0010
1000
0010
0010
1000
0000
0100
1000
,
1000
0100
1000
1000
0100
0000
0010
0001
,
0001
0010
0001
0001
0010
0000
0001
0000
,
0200
0000
0000
0000
0310
0000
0000
1000
0000
0000
0002
0000
0000
0000
0013
0000
,
0000
0000
0200
0000
0000
0000
2300
0000
0000
0000
3010
0000
0100
0000
0000
0100
,
0000
0101
0000
0010
1010
0000
1000
0000
,
0001
0011
0000
1000
1100
0000
1000
0000
,
0002
0000
0000
0000
0013
0000
0000
0100
0000
0000
2000
0000
0000
0000
3001
0000
,
0000
0000
0200
0000
0000
0000
0310
0000
0000
0000
1000
0000
0100
0000
0000
0100
,
0000
1100
0000
0010
0011
0000
0001
0000
,
0100
0000
0010
0000
1000
0000
0000
0100
0000
0000
0010
0000
0002
0000
0000
0000
,
0000
1003
0002
0000
0000
0000
0000
0000
,
0000
0000
0103
0000
0010
0000
0000
1000
0000
0000
0001
0000
0010
0000
0000
0100
,
0000
1000
0000
0010
1000
0000
0100
0000
,
0010
0000
0001
0000
0000
0000
1000
0000
0010
0000
0100
0000
0001
0000
0000
0001
,
0000
0010
0000
0100
0010
0000
0001
0000
,
1000
0000
0010
0000
1000
0000
0000
0100
0000
0000
0020
0000
0000
0000
0000
0000
,
0000
0000
0000
0000
0000
0031
0200
0000
,
0000
0000
0000
0000
0300
0000
0000
0000
0001
0000
0000
0010
0000
0001
0000
0000
,
1000
0000
0000
0010
0000
1000
0000
0000
0100
0000
0000
0010
0000
0001
0000
0000
,
0100
0000
0000
0010
0000
1000
0000
0000
0001
0000
0000
0010
0000
0010
0000
0000
,
0100
0000
0000
1000
0000
1000
0000
0000
0010
0000
0000
0100
0000
0100
0000
0000
,
0001
0010
0000
0000
0100
1000
0000
0000
0001
0000
0100
0000
0010
0000
1000
0000
,
0100
0010
0001
0000
1000
0010
0100
0001
,
0010
0100
1000
0000
0001
0100
1000
0100
,
0001
0010
0100
0000
1000
0010
0001
0010
,
1000
0100
0010
0001
2000
0000
0000
0000
,
0000
3020
0230
0000
,
0000
0301
1000
0020
0000
0000
0000
0000
,
2030
0000
3100
0020
0000
0130
1000
0002
,
0000
0103
0010
1000
0100
0000
0010
0000
,
0001
0000
0000
1000
0000
0000
1001
0000
0000
0000
0001
0000
0000
0000
1000
0000
,
0010
0010
0100
0100
0020
0000
0000
0000
,
0000
0000
0000
0000
0000
0000
0000
0000
0030
0000
0100
0000
0000
0100
0000
0000
,
0001
1000
0100
0010
0002
0000
0000
1003
,
2000
0000
0000
0000
0000
3000
0010
0100
,
0001
0000
0000
0010
0000
0000
0200
0000
0000
0000
0310
0000
0001
0000
2000
0000
,
0000
3100
0010
0001
0020
0000
0000
0230
,
0000
0000
1300
0000
0010
0000
0100
0000
0001
0000
0000
0001
0000
0000
0002
0000
,
0000
0000
0000
0000
0013
0000
0100
0000
1000
0000
0000
1000
0000
0000
2000
0000
,
0000
0000
3001
0100
0020
0000
0000
0000
,
0230
0000
0302
0000
1003
0100
0010
0001
,
1000
0000
0001
0000
2001
0000
0000
3001
,
0002
0000
0000
0000
0000
0003
0100
0010
,
1000
0000
0000
0100
0000
0000
0020
0000
0000
0000
0130
0000
1000
0000
0002
0000
,
0000
0013
0100
1000
0200
0000
0000
0320
,
0000
0000
0031
0000
0100
0000
0010
0000
1000
0000
0000
1000
0000
0000
1000
0000
,
0100
0010
0001
0100
0010
1000
0001
0010
,
0100
1000
0010
0100
0001
0000
1000
0100
,
1000
0000
0001
0010
0001
0000
0100
0001
,
0100
0000
0010
1000
0010
0000
1000
0100
,
0010
0000
0001
0100
0010
0000
0100
0001
,
1000
0000
0100
1000
0001
0000
0010
0100
,
1000
0000
0010
0100
0001
2000
3200
0320
,
0032
0203
0320
2030
3002
0000
1000
0000
,
1000
0010
0010
2003
,
3200
0000
0320
0000
0032
0000
1003
0010
,
0200
0000
0310
1000
0002
0000
0013
0100
,
2000
0000
3001
0100
0020
0000
1030
0100
,
0001
0000
0001
0100
1000
0000
0000
0000
;

//---------------dance-single - ----------------
#NOTES:
     dance-single:
     :
     Hard:
     13:
     0.550516,0.625496,0.278180,0.924540,0.396816,471.000000,437.000000,34.000000,113.000000,0.000000,0.000000,0.550516,0.625496,0.278180,0.924540,0.396816,471.000000,437.000000,34.000000,113.000000,0.000000,0.000000:
// measure 0
0000
0000
0000
0000
,  // measure 1
0000
0000
0000
0000
,  // measure 2
0000
0000
0000
0000
,  // measure 3
0000
0000
0000
0000
,  // measure 4
0000
0000
0000
0000
,  // measure 5
0001
0000
0100
0000
0100
0001
0000
1000
0000
0000
0010
0000
0010
0000
0000
0000
,  // measure 6
0100
0000
0001
0000
0001
0010
0000
0100
0000
0000
1000
0000
1000
0000
0000
0000
,  // measure 7
0010
0000
0100
0000
0100
0010
0000
1000
0000
0000
0001
0000
0001
0000
0000
0000
,  // measure 8
1000
0000
0010
0000
0010
0100
0000
0001
0000
0000
0000
0000
1000
0000
0001
0000
,  // measure 9
0001
0011
1000
1000
1010
0010
0010
0100
,  // measure 10
0100
0101
0001
0001
1100
1000
0001
1000
,  // measure 11
1000
1010
0001
0001
0011
0010
0010
0100
,  // measure 12
0100
1100
1000
1000
0101
0001
1000
0010
,  // measure 13
2000
0000
0000
0000
3200
0000
0000
0310
0000
0000
0002
0000
0000
0000
1003
0000
,  // measure 14
0000
0000
0020
0000
0000
0000
0230
0000
0000
0000
0301
0010
0002
0000
0103
0001
,  // measure 15
0000
0000
0010
0000
0001
0100
0001
0000
1000
0000
0010
0000
0010
0000
1000
0100
,  // measure 16
1000
0000
0010
0000
1000
0100
1000
0000
0001
0000
0010
0000
0100
0000
1000
0000
,  // measure 17
0200
0000
0000
0000
0320
0000
0000
0031
0000
0000
2000
0000
0000
0000
3010
0000
,  // measure 18
0000
0000
0200
0000
0000
0000
0302
0000
0000
0000
0013
0100
0020
0000
0031
0010
,  // measure 19
0000
0000
0100
0000
0010
0001
0010
0000
0100
0000
1000
0000
1000
0000
0010
0000
,  // measure 20
0200
0000
0302
0000
2003
0000
0000
3200
0000
0000
0320
0000
0032
0000
0000
0000
,  // measure 21
0000
2003
3002
0000
0100
0000
1000
0000
,  // measure 22
0000
0000
0023
0000
0230
0000
1300
0002
0000
0000
0203
0000
0320
0000
0000
2030
,  // measure 23
0000
0000
3100
0010
0000
0000
0001
0000
0101
0000
0000
0000
0100
0000
0000
0000
,  // measure 24
0010
0000
1010
0000
0000
0000
1000
0000
0100
0000
0010
0000
0002
0000
0103
0001
,  // measure 25
0000
1001
0000
1000
1100
0000
0100
0000
,  // measure 26
0020
0000
0032
0000
0023
0000
0000
0230
0000
0000
2300
0000
0001
0000
0000
0000
,  // measure 27
0000
0000
0010
0000
0000
0000
0000
0000
0001
0000
3010
0100
0020
0000
0100
0000
,  // measure 28
0100
0000
0100
0000
0030
0000
0000
0000
0001
0100
0000
0010
0000
0010
0000
0000
,  // measure 29
1000
0100
0000
0010
0000
0010
0000
0000
0100
1000
0000
0001
0000
0001
0000
0000
,  // measure 30
0100
0010
0000
1000
0000
1000
0000
0000
0001
1000
0000
0010
0000
1000
0000
0000
,  // measure 31
1000
0001
0000
0010
0000
0001
0000
0000
0100
0010
0000
1000
0000
0010
0000
0000
,  // measure 32
0100
0001
0100
0000
0001
0010
0001
0000
1000
0010
0000
0100
0000
0010
0000
1000
,  // measure 33
0100
1000
0000
0010
0000
1000
0000
0001
0010
0001
0000
0100
0000
0001
0000
0010
,  // measure 34
0001
0010
0000
0100
0000
0010
0000
0001
1000
0010
0000
0100
0000
0010
0000
1000
,  // measure 35
0001
0010
0000
0100
0000
0010
0000
0001
0100
0010
0000
1000
0000
0001
0000
1000
,  // measure 36
0100
0010
0000
0001
0000
1000
0000
0010
2000
0000
0000
0000
0001
0000
0000
0000
,  // measure 37
0100
3002
0023
0100
,  // measure 38
0001
0230
2300
3002
0100
0000
0010
0000
,  // measure 39
0203
0000
0320
2030
0000
3200
0320
0032
,  // measure 40
0000
0023
0230
1300
1010
0000
0101
0000
,  // measure 41
1000
0000
0000
0001
0000
0000
1001
0000
1000
0000
1000
0000
0100
0000
0100
0000
,  // measure 42
0010
0000
0001
0000
0100
0010
0100
0010
2000
0000
0000
0000
3020
0000
0000
0000
,  // measure 43
0230
0000
0000
0000
0302
0000
0000
0000
0003
0000
0011
0000
0000
1100
0000
0000
,  // measure 44
1000
0000
0001
0000
0100
0000
0010
0000
2000
0000
0000
0000
0100
0000
3001
0010
,  // measure 45
0002
0000
1000
0000
0100
0003
0002
0023
,  // measure 46
0230
0000
0000
2300
0000
0000
3020
0000
0000
0000
0230
0000
0302
0000
2003
0000
,  // measure 47
0000
0000
3200
0000
0320
0000
0031
0100
0002
0000
0000
0000
0100
0000
0203
0000
,  // measure 48
0000
0000
0320
0000
2030
0000
3002
0000
0013
0000
0100
0010
0000
0000
2001
0000
,  // measure 49
0000
0000
0000
0000
3002
0000
2003
0000
3010
0000
0100
0010
0000
0000
1002
0000
,  // measure 50
0000
0000
2003
3200
0320
0000
0001
0000
,  // measure 51
0230
0000
2300
0000
3002
0203
0320
1030
,  // measure 52
1001
0000
0000
0000
0110
0000
0000
0000
1002
0000
0000
0000
0010
0000
1003
0100
,  // measure 53
2000
0000
0001
0000
0010
3000
2000
3200
,  // measure 54
0320
0000
0000
0032
0000
0000
0203
0000
0000
0000
0320
0000
2030
0000
3002
0000
,  // measure 55
0000
0000
0023
0000
0230
0000
1300
0010
2000
0000
0000
0000
0010
0000
3020
0000
,  // measure 56
0000
0000
0230
0000
0302
0000
2003
0000
3100
0000
0010
0100
0000
0010
0100
0000
,  // measure 57
1000
0000
0010
0000
0100
0001
0100
0000
0010
0000
1000
0000
0001
0010
0001
0000
,  // measure 58
0010
0000
0100
0000
1000
0010
1000
0000
0001
0000
0000
0000
1000
0000
0100
0000
,  // measure 59
1100
0000
0001
0100
0101
0000
0010
0001
,  // measure 60
0011
0000
0010
1000
1010
0000
0010
0001
,  // measure 61
0101
0000
0010
1000
1100
0000
1000
0001
,  // measure 62
0011
0000
0001
1000
1010
0000
1000
0100
,  // measure 63
0101
0000
0001
0100
1100
2000
3020
0230
,  // measure 64
0302
0023
0230
2300
3002
0000
1000
1000
,  // measure 65
1000
0000
0100
0100
0100
0000
2003
0000
,  // measure 66
3020
0000
0230
0000
0302
0000
1003
0100
,  // measure 67
0020
0000
1030
0001
0200
0000
0310
0001
,  // measure 68
2000
0000
3010
0100
0002
0000
1003
0100
,  // measure 69
0011
0000
0001
0100
1010
0000
0000
0000
;

//---------------dance-single - ----------------
#NOTES:
     dance-single:
     :
     Challenge:
     16:
     0.736359,0.909812,0.253635,1.169993,0.838631,630.000000,599.000000,31.000000,143.000000,0.000000,0.000000,0.736359,0.909812,0.253635,1.169993,0.838631,630.000000,599.000000,31.000000,143.000000,0.000000,0.000000:
0000
0000
0000
0000
,
0000
0000
0000
0000
,
0000
0000
0000
0000
,
0000
0000
0000
0000
,
0000
0000
0000
0000
,
1000
0000
0010
0000
0100
0100
0000
1000
0000
0000
0001
0000
0202
0000
0303
0000
,
0100
0000
0010
0000
1000
1000
0000
0100
0000
0000
0001
0000
0022
0000
0033
0000
,
0001
0000
0100
0000
0010
0010
0000
0001
0000
0000
1000
0000
2020
0000
3030
0000
,
0010
0000
0100
0000
0001
0001
0000
0010
0000
0000
0000
0000
1000
0100
1000
0100
,
1000
0000
1010
0000
0001
0100
0001
0000
0011
0000
0010
0000
0100
1000
0100
1000
,
0100
0000
0110
0000
0010
0001
0010
0000
1001
0000
0001
0000
1000
0010
0100
0010
,
1000
0000
1100
0000
0001
0010
0100
0000
0011
0000
1000
0000
0010
0100
0001
0100
,
0010
0000
1010
0000
0100
0001
0010
0000
0101
0000
0001
0000
1000
0000
0100
0000
,
0020
0000
0001
0000
0230
0000
0000
2300
0000
0000
3002
0000
0100
0000
2003
0000
,
0100
0000
3020
0000
1000
0000
0230
0000
1000
0000
0301
0010
0200
0000
1300
0100
,
0000
0000
0010
0001
0100
0010
1000
0000
0001
0010
0100
0000
1000
0010
0001
0010
,
1000
0000
0100
0010
0001
0100
0010
0000
1000
0001
0010
0000
0100
0000
1000
0000
,
0002
0000
0010
0000
2003
0000
0000
3200
0000
0000
0320
0000
0001
0000
0230
0000
,
0001
0000
2300
0000
0010
0000
3002
0000
0010
0000
0103
0010
2000
0000
3001
1000
,
0000
0000
0100
0001
0100
1000
0100
0000
0010
0001
1000
0000
0010
0000
0100
0000
,
2000
0000
3002
0000
0023
0000
0000
0230
0000
0000
0302
0000
2003
0000
0000
0000
,
0100
3002
2003
0100
0001
0000
0010
0000
,
0010
0000
3002
0000
0203
0000
1300
0002
0000
0000
0023
0000
2030
0000
0000
3200
,
0000
0000
0310
0001
0000
0000
1000
0000
1020
0030
0000
0000
0100
0000
0000
0000
,
0001
0000
0021
0030
0000
0100
1000
0010
0100
0001
0010
0001
2000
0000
3010
1000
,
0000
0000
1200
0300
0000
0000
0010
0000
0012
0003
0000
0000
1000
0000
0000
0000
,
0200
0000
0302
0000
0203
0000
0000
0320
0000
0000
0032
0000
1000
0000
0000
0000
,
1000
0000
0000
0000
0100
0000
0000
0000
0000
0000
0000
0000
0100
0000
0000
0000
1000
0000
0000
0000
0013
0000
0100
0000
2000
0000
0000
0000
3010
0100
0010
0000
,
0100
0001
1000
0001
0000
0000
0000
0000
1000
0010
0000
0010
0000
1000
0001
0010
,
0100
1000
0000
1000
0000
0010
1000
0100
0010
0001
0000
0001
0000
0100
0010
1000
,
0001
0010
0000
0010
0000
0100
1000
0010
0100
0001
0000
0001
0000
0010
0010
0100
,
0001
1000
0000
1000
0000
0010
0010
0001
1000
0010
0000
0010
0000
0100
0100
1000
,
0001
0100
0000
0100
0100
0010
0001
0000
1000
0100
1000
0100
0001
0100
0001
0100
,
1000
0010
0100
0001
0010
0100
1000
0000
0001
0100
0001
0100
1000
0100
1000
0100
,
0001
0010
0100
1000
0010
0100
0001
0000
0010
1000
0010
1000
0001
0100
0010
0001
,
1000
0100
1000
0100
0010
0001
1000
0000
0010
0001
0010
0001
1000
0100
0010
1000
,
0001
0010
0100
1000
0010
0100
0010
0100
0002
1000
0000
1000
0000
1000
0000
0000
,
0100
0100
0000
1000
2003
0001
0000
0000
3020
0100
0000
0100
0000
0100
0000
0000
,
1000
0000
0230
0000
0302
0000
2003
0000
0010
0010
0000
0010
0000
0010
0000
0000
,
3200
0000
0000
0000
1300
0010
2000
0000
0000
0000
3100
0000
0010
0001
0020
0000
,
0000
0230
2300
3010
0110
0100
0101
0001
,
1001
0000
0000
1100
0000
0000
0011
0000
0001
0000
0100
0010
0100
0000
0001
0000
,
1000
0000
0100
0010
0100
0001
0100
1000
0002
0000
0203
0000
0320
0000
0032
0000
,
2003
0000
0000
0000
0000
0000
0000
0000
3200
0000
0000
0000
0000
0000
0000
0000
0320
0000
0000
0000
0000
0000
0000
0000
2030
0000
0000
0000
0000
0000
0000
0000
3000
0000
0000
0000
0000
0000
0000
0000
2200
3300
0000
0000
0000
0000
0000
0000
0000
0000
0000
0000
0022
0033
0000
0000
0000
0000
0000
0000
0000
0000
0000
0000
,
0001
0100
0010
0001
0010
1000
0100
0010
0002
0000
1000
0000
0100
0000
1003
0010
,
2000
0000
0001
0000
0100
3100
2000
3020
,
0032
0000
0000
2003
0000
0000
3200
0000
0001
0000
0320
0000
2030
0000
3002
0000
,
0010
0000
0203
0000
0320
0000
1030
0100
0020
0000
0001
0000
0100
0000
0032
0000
,
1000
0000
0203
0000
0320
0000
2030
0000
3100
0100
0010
0100
0000
0000
1002
0000
,
0000
0000
0000
0000
2003
0000
3002
0000
0103
0100
0010
0100
0000
0000
2001
0000
,
0000
0000
0000
0000
3002
0000
0023
0000
0230
0000
0000
1300
0001
0000
0100
0001
,
0200
0000
0320
0000
2030
3200
0320
0031
,
2002
3003
0000
0000
0000
0000
0000
0000
0000
0000
0000
0000
0000
0000
0000
0000
0220
0330
0000
0000
0000
0000
0000
0000
0000
0000
0000
0000
0000
0000
0000
0000
2001
0000
0000
0000
0000
0000
0000
0000
0001
0000
0000
0000
0000
0000
0000
0000
0010
0000
0000
0000
0000
0000
0000
0000
3001
0000
0000
0000
0100
0000
0000
0000
,
0002
0000
1000
0000
0010
0013
0002
0203
,
2300
0000
0000
3002
0000
0000
0023
0000
1000
0000
0230
0000
0302
0000
2003
0000
,
0100
0000
3020
0000
0230
0000
0301
0010
0200
0000
1000
0000
0010
0000
2300
0000
,
0001
0000
3020
0000
0230
0000
0302
0000
0013
0010
0100
0010
1000
0001
2000
0000
,
3100
0010
0001
0100
0010
0001
0010
0100
0001
1000
0010
1000
0100
0010
1000
0001
,
0100
0010
0001
1000
0010
0100
0001
1000
0001
0000
0000
0000
1000
0100
0010
0100
,
1000
0000
0000
0000
0001
0100
0010
0100
0001
0000
0000
0000
1000
0010
0100
0001
,
1000
0000
0000
0000
0001
0010
0100
1000
0001
0000
0000
0000
0100
0010
1000
0001
,
0010
0000
0000
0000
0100
1000
0001
0100
0010
0000
0000
0000
1000
0100
0010
1000
,
0010
0000
0000
0000
0001
0100
0010
0001
0010
0000
0000
0000
1000
0100
0001
0100
,
1000
0000
0000
0000
0001
0100
1000
0100
0001
0000
0020
0000
0230
0000
2300
0000
,
3020
0000
0230
0000
0302
0000
2003
0000
3200
0000
0000
0000
1300
0010
0100
0001
,
0020
0000
0000
0000
0031
0100
0010
1000
0002
0000
0003
0000
0022
0000
0033
0000
,
0220
0000
0330
0000
2200
0000
3300
0000
1002
0000
0000
0000
0103
0010
0001
0010
,
2000
0000
0000
0000
3100
0010
1000
0001
0200
0000
0000
0000
0310
0001
1000
0100
,
0020
0000
0000
0000
0031
0000
0200
0000
2300
0000
0000
0000
3001
0010
1000
0100
,
0001
0000
0000
0000
1000
0010
0001
0100
1000
0000
0000
0000
0000
0000
0000
0000
;
