#TITLE:Electroman Adventures;
#SUBTITLE:;
#ARTIST:Waterflame;
#TITLETRANSLIT:;
#SUBTITLETRANSLIT:;
#ARTISTTRANSLIT:;
#GENRE:;
#CREDIT:;
#BANNER:Electroman Adventures.png;
#BACKGROUND:Electroman Adventures-bg.png;
#LYRICSPATH:;
#CDTITLE:cdtitle.png;
#MUSIC:Electroman Adventures.ogg;
#OFFSET:-0.031000;
#SAMPLESTART:39.560001;
#SAMPLELENGTH:15.000000;
#SELECTABLE:YES;
#BPMS:0.000000=170.000000
;
#STOPS:
;
#BGCHANGES:;
#KEYSOUNDS:;
#ATTACKS:;

//---------------dance-single - ----------------
#NOTES:
     dance-single:
     :
     Challenge:
     15:
     0.770349,0.816613,0.486869,0.354087,0.095898,731.000000,665.000000,66.000000,48.000000,0.000000,0.000000,0.770349,0.816613,0.486869,0.354087,0.095898,731.000000,665.000000,66.000000,48.000000,0.000000,0.000000:
// measure 0
0000
0000
0000
0000
,  // measure 1
0000
0000
0000
0000
,  // measure 2
0000
0000
0000
0000
,  // measure 3
0000
0000
0000
0000
,  // measure 4
1100
0000
0101
0000
1001
0000
1000
0100
,  // measure 5
0000
0100
0010
0000
0110
0000
1001
0000
,  // measure 6
0011
0000
1010
0000
1001
0000
0001
0010
,  // measure 7
0000
0010
0100
0000
0110
0000
1001
0000
,  // measure 8
1100
0000
1000
0010
0001
0100
0001
0010
,  // measure 9
0000
0010
0100
0000
0110
0000
1001
0000
,  // measure 10
0011
0000
0001
0100
1000
0010
1000
0100
,  // measure 11
0000
0100
0010
1000
0100
1000
0000
1000
,  // measure 12
1010
0000
0010
0100
1000
0010
1000
0100
,  // measure 13
0000
0100
0010
0010
1000
1000
0001
0001
,  // measure 14
0101
0000
0100
0010
0001
0100
0001
0010
,  // measure 15
0000
0010
0100
0100
0001
1000
0010
1000
,  // measure 16
1100
0100
1000
0001
0001
0010
0001
0101
,  // measure 17
0000
0000
0100
0000
0010
0000
1000
0000
2020
0000
0000
0000
3030
0000
1000
0100
,  // measure 18
1000
0000
0100
0010
0100
0000
0010
0001
0010
0000
0001
0100
0001
0000
1000
0001
,  // measure 19
1000
0000
0001
0010
0100
0000
1000
0000
0010
0000
1000
0100
0010
0000
0001
0000
,  // measure 20
0200
0300
0001
0010
0100
1000
0010
2020
,  // measure 21
0000
3030
1000
0010
0100
0001
0010
0022
,  // measure 22
0000
0033
0100
1000
0010
0100
0001
0210
,  // measure 23
0000
0301
1000
0100
1000
0010
0100
0002
,  // measure 24
0000
0003
1000
0100
0010
0001
0100
0202
,  // measure 25
0000
0303
0001
0100
0010
1000
0100
2200
,  // measure 26
0000
3300
0010
0001
0100
0010
1000
0120
,  // measure 27
0000
0000
1030
0100
1000
0000
0001
0100
0001
0000
1000
0010
1000
0000
0001
0010
,  // measure 28
0001
1000
0100
0010
0001
1000
0010
1010
,  // measure 29
1000
0001
0100
0010
1000
0001
0010
0011
,  // measure 30
0001
0100
0010
1000
0100
0010
0001
0210
,  // measure 31
0000
0301
1000
0010
0100
0001
0010
0001
,  // measure 32
1000
0001
0010
0100
1000
0001
0100
0101
,  // measure 33
0001
1000
0010
0100
0001
1000
0100
1100
,  // measure 34
1000
0010
0100
0001
0010
0100
1000
0120
,  // measure 35
0000
1030
0001
0100
0010
1000
0200
0000
,  // measure 36
1300
0001
0010
0001
0001
1000
0100
1100
,  // measure 37
1000
0001
0100
0001
0001
1000
0010
1010
,  // measure 38
1000
0100
0010
0100
0100
1000
0001
0210
,  // measure 39
0000
0301
1000
0010
0010
1000
0100
0010
,  // measure 40
0001
1000
0100
1000
1000
0001
0010
0011
,  // measure 41
0001
1000
0010
1000
1000
0001
0100
0101
,  // measure 42
0001
0010
0100
0010
0010
0001
1000
0120
,  // measure 43
0000
1030
0001
0100
0100
0001
0020
0000
,  // measure 44
0031
1000
0100
1000
0001
0010
0001
1000
,  // measure 45
0010
1000
0001
0010
1000
0010
0001
0100
,  // measure 46
0010
0100
1000
0100
0010
0100
0001
0010
,  // measure 47
0100
1000
0010
0100
0010
0001
0010
1000
,  // measure 48
1000
0001
0010
0001
1000
0100
1000
0001
,  // measure 49
0100
0001
1000
0100
0001
0100
1000
0010
,  // measure 50
0100
0010
0001
0010
0100
0010
1000
0100
,  // measure 51
0010
0001
0100
0010
0100
1000
0100
0001
,  // measure 52
0002
0000
1003
0010
1000
0100
0010
0002
,  // measure 53
0000
0000
0103
0010
1000
0100
0010
0001
,  // measure 54
0100
0010
1000
0010
0100
0010
0001
0020
,  // measure 55
0000
1030
0100
0010
0001
0100
0001
1000
,  // measure 56
2000
0000
3001
0010
0001
0100
0010
2000
,  // measure 57
0000
0000
3100
0010
0001
0010
0100
1000
,  // measure 58
0200
0000
0000
0310
0200
0000
0000
1300
,  // measure 59
0200
0310
0200
0301
0200
0000
0000
0300
,  // measure 60
1100
1000
0001
0101
0100
0010
1000
0001
,  // measure 61
0011
0010
0100
1100
1000
0001
0100
0010
,  // measure 62
1010
1000
0001
0011
0010
0100
1000
0001
,  // measure 63
0101
0100
0010
1000
0011
0100
0011
1000
,  // measure 64
0011
0001
1000
1010
0010
0100
0001
1000
,  // measure 65
1100
0100
0010
0011
0001
1000
0010
0100
,  // measure 66
0101
0001
1000
1100
0100
0010
0001
1000
,  // measure 67
1001
0000
0000
0000
1000
0000
0000
0000
1000
0001
1000
0000
0001
1000
0001
1000
,  // measure 68
0001
0000
1000
0000
0001
0000
0010
0100
1000
0000
0010
0000
0100
0000
0001
0000
,  // measure 69
0010
0001
0100
0000
0010
0000
1000
0100
0010
0000
0001
0000
0100
0000
0010
0000
,  // measure 70
1000
0001
0010
0000
0100
0000
0010
0001
1000
0000
0100
0000
0010
0000
0100
0000
,  // measure 71
1000
0001
0100
0000
0010
0000
1000
0000
0002
0000
0100
0000
2003
0000
0010
0000
,  // measure 72
3002
0100
0100
2003
0100
0100
0100
0100
,  // measure 73
3020
1000
1000
0230
0001
0001
0001
0001
,  // measure 74
0320
0001
0001
0230
1000
1000
1000
1000
,  // measure 75
0301
0000
0000
0000
0001
0000
0000
0000
0001
1000
0001
0000
1000
0001
1000
0001
,  // measure 76
1000
0010
0100
1000
1000
0100
0001
0011
,  // measure 77
0010
0100
0001
0100
0100
1000
0001
0101
,  // measure 78
0100
0010
1000
0001
0001
1000
0010
0110
,  // measure 79
0100
0001
0010
0001
0001
0100
1000
0100
,  // measure 80
0001
0100
0010
0001
0001
0010
1000
1100
,  // measure 81
0100
0010
1000
0010
0010
0001
1000
1010
,  // measure 82
0010
0100
0001
1000
1000
0001
0100
0110
,  // measure 83
0010
1000
0100
1000
1000
0010
0001
0010
,  // measure 84
1001
0001
2000
0010
3010
1000
0001
0011
,  // measure 85
0100
1000
0002
0100
0103
0001
1000
1100
,  // measure 86
0010
0001
0200
0010
0310
0100
0001
0101
,  // measure 87
0100
0001
0020
0001
0031
0100
1000
0100
,  // measure 88
0001
0100
0020
1000
1030
0010
0100
0101
,  // measure 89
1000
0010
0200
0001
0301
0100
0010
1010
,  // measure 90
0100
0010
2000
0001
3001
1000
0010
0110
,  // measure 91
0100
0000
0002
0000
0100
0000
0103
0000
0010
0100
0010
0000
1000
0001
1000
0002
,  // measure 92
2000
3003
0000
0000
;
