#TITLE:Din Don Dan;
#SUBTITLE:(Supra's Edit);
#ARTIST:Ryu☆ feat.Mayumi Morinaga;
#TITLETRANSLIT:;
#SUBTITLETRANSLIT:;
#ARTISTTRANSLIT:;
#GENRE:;
#CREDIT:;
#BANNER:Din Don Dan (Supra's Edit).png;
#BACKGROUND:Din Don Dan (Supra's Edit)-bg.png;
#LYRICSPATH:;
#CDTITLE:cdtitle.png;
#MUSIC:Din Don Dan (Supra's Edit).ogg;
#OFFSET:0.000000;
#SAMPLESTART:73.241997;
#SAMPLELENGTH:15.000000;
#SELECTABLE:YES;
#BPMS:0.000000=140.000000
;
#STOPS:
;
#BGCHANGES:;
#KEYSOUNDS:;
#ATTACKS:;

//---------------dance-single - ----------------
#NOTES:
     dance-single:
     :
     Challenge:
     15:
     0.796245,0.790689,0.472192,0.527744,0.592554,602.000000,551.000000,51.000000,57.000000,0.000000,0.000000,0.796245,0.790689,0.472192,0.527744,0.592554,602.000000,551.000000,51.000000,57.000000,0.000000,0.000000:
// measure 0
0000
0000
0000
0000
,  // measure 1
0000
0000
0000
0000
,  // measure 2
0000
0000
0000
0000
,  // measure 3
1000
0000
0010
1000
0000
0010
1000
0000
0010
0000
0100
0010
0000
0100
0010
0000
,  // measure 4
0100
0000
0001
0100
0000
0001
0100
0000
0001
0000
1000
0000
0010
0000
1000
0000
,  // measure 5
0001
0000
0010
0001
0000
0010
0001
0000
1000
0000
0001
0000
0010
0000
0001
0000
,  // measure 6
1000
0000
0100
1000
0000
0100
1000
0000
0100
0000
0010
0000
0001
0010
0100
1000
,  // measure 7
0100
0000
0010
0100
0000
0010
0100
0000
1000
0000
0100
0000
0010
0000
0001
0000
,  // measure 8
1000
0000
0001
1000
0000
0001
1000
0000
0001
0000
0100
0000
1000
0000
0100
0000
,  // measure 9
0001
1000
0001
1000
0001
1000
0001
1000
0001
0000
0000
0000
1001
0000
1001
0000
,  // measure 10
0010
1000
0010
0000
0100
0001
0100
0000
0010
0100
0010
0100
0010
0000
1000
0000
,  // measure 11
0100
0010
0001
0100
0010
1000
0001
1000
,  // measure 12
0100
1000
0100
0000
0010
0001
0010
0000
0001
1000
0001
1000
0001
0000
0100
0000
,  // measure 13
0010
1000
0001
0010
0200
0300
0110
0110
,  // measure 14
0100
1000
0001
0000
0100
0001
1000
0000
0001
1000
0010
1000
0001
0000
0010
0000
,  // measure 15
0100
1000
0100
0010
0002
0103
2000
3100
,  // measure 16
0010
1000
0100
0000
0010
0001
0100
0000
0010
1000
0001
1000
0010
0000
1000
0000
,  // measure 17
0100
1000
0100
1000
0100
0010
0100
0010
0002
0000
0003
0000
1001
0000
1001
0000
,  // measure 18
2001
3010
1002
0103
2000
3200
0320
0031
,  // measure 19
2000
3100
0002
0013
0100
1000
1010
0000
,  // measure 20
0102
0013
0201
1300
0200
0320
2030
3001
,  // measure 21
0100
0010
1010
0110
0101
0000
0110
0110
,  // measure 22
0210
1300
0110
0011
0120
0031
1000
0000
,  // measure 23
0100
0000
1000
0000
0100
0000
0010
0000
0001
0010
0001
0000
1000
0100
1000
0000
,  // measure 24
2010
3100
1020
0031
0020
0230
0302
1003
,  // measure 25
0100
1000
0100
1000
0100
0010
0100
0010
0001
0010
0001
0100
0020
0000
0000
0000
,  // measure 26
1030
0000
0100
0000
0001
0000
0100
0000
1000
0000
0010
0000
0100
0001
0010
0001
,  // measure 27
0100
0000
0000
0100
0010
0000
0010
0000
1000
0000
0100
0000
1000
0000
0001
0000
,  // measure 28
0100
0000
0100
0001
0000
0001
0100
0000
0100
1000
0000
1000
0010
0000
0010
0000
,  // measure 29
0001
0000
0000
0001
0010
0000
0000
0010
0100
0000
0100
0000
1100
0000
0110
0000
,  // measure 30
1010
0000
0010
0000
0001
0000
0100
0000
0001
0000
0010
0000
1000
0010
0100
0010
,  // measure 31
1000
0000
0000
1000
0100
0000
0100
0000
0010
0000
0001
0000
0010
0000
0100
0000
,  // measure 32
1000
0010
1000
0000
0001
0010
0001
0000
0100
0010
0100
0010
1000
0010
1000
0000
,  // measure 33
1010
0000
0000
0011
0000
0000
0001
0100
0000
0100
1000
0000
1001
0000
1001
0000
,  // measure 34
2100
3010
0012
0103
0010
0100
1000
0100
,  // measure 35
0010
0000
0010
0001
0000
0001
0200
0000
0010
0300
0010
0000
1010
0000
1010
0000
,  // measure 36
1000
0100
1000
0000
0100
0010
0100
0000
0010
0001
0010
0100
1000
0000
1000
0000
,  // measure 37
0010
0100
0001
0010
0100
0010
0001
0000
0100
0010
1000
0100
0010
0100
1000
0010
,  // measure 38
0200
0301
0020
1030
0200
0320
0032
2003
,  // measure 39
3100
0000
0100
1000
0000
1000
0020
0000
0100
0000
0130
0000
0101
0000
0101
0000
,  // measure 40
0001
0010
0001
0000
1000
0010
1000
0000
0100
0010
0001
0010
0100
0000
0100
0000
,  // measure 41
2100
0000
3010
0102
0000
1003
0010
0100
,  // measure 42
0210
0000
0000
0000
0310
0000
0000
0100
0001
0000
1000
0000
1001
0000
1001
0000
,  // measure 43
0100
0001
0100
0000
0010
1000
0010
0000
0100
0010
0100
0010
0100
0000
0001
0000
,  // measure 44
0010
0100
1000
0010
0100
0001
1001
0001
,  // measure 45
0010
0001
0010
0000
0100
1000
0100
0000
1000
0001
1000
0001
1000
0000
0010
0000
,  // measure 46
0100
0001
1000
0100
0220
0330
0110
0110
,  // measure 47
0010
0001
1000
0000
0010
1000
0001
0000
1000
0001
0100
0001
1000
0000
0100
0000
,  // measure 48
0010
0001
0010
0100
2000
3010
0002
0013
,  // measure 49
0100
0001
0010
0000
0100
1000
0010
0000
0100
0001
1000
0001
0100
0000
0001
0000
,  // measure 50
0010
0001
0010
0001
0010
0100
0010
0200
2000
0000
3300
0000
1001
0000
1001
0000
,  // measure 51
0100
2000
0100
0000
3001
0020
0001
0000
0130
0010
0100
0010
0200
0000
0010
0000
,  // measure 52
0310
0001
1000
0100
0010
0100
1100
1100
,  // measure 53
1000
0200
1000
0000
0310
0002
0010
0000
1003
0001
1000
0001
2000
0000
0001
0000
,  // measure 54
3001
0000
0100
0000
0010
0000
1000
0000
0010
0000
0000
0100
0110
0000
0110
0000
,  // measure 55
0010
0200
0010
0000
0301
2000
0001
0000
3010
1000
0010
1000
0020
0000
1000
0000
,  // measure 56
1030
0000
0100
0000
0010
0000
0100
0000
1000
0010
1000
0000
0001
0100
0001
0000
,  // measure 57
1000
0002
1000
0000
0103
0020
0100
0000
1030
0010
1000
0010
2000
0000
0010
0000
,  // measure 58
3020
0000
0000
0000
0130
0000
0000
0001
1000
0000
0100
0000
0010
0000
0010
0000
,  // measure 59
0120
0100
0100
0100
,  // measure 60
0100
0100
0100
0100
,  // measure 61
0130
0000
0000
0000
;
