#TITLE:Dimension Gale;
#SUBTITLE:;
#ARTIST:TAG;
#TITLETRANSLIT:;
#SUBTITLETRANSLIT:;
#ARTISTTRANSLIT:;
#GENRE:;
#CREDIT:;
#BANNER:Dimension Gale.png;
#BACKGROUND:Dimension Gale-bg.png;
#LYRICSPATH:;
#CDTITLE:cdtitle.png;
#MUSIC:Dimension Gale.ogg;
#OFFSET:-0.040000;
#SAMPLESTART:80.556000;
#SAMPLELENGTH:15.000000;
#SELECTABLE:YES;
#BPMS:0.000000=155.000000
;
#STOPS:179.500000=1.548387
;
#BGCHANGES:;
#KEYSOUNDS:;
#ATTACKS:;

//---------------dance-single - ----------------
#NOTES:
     dance-single:
     :
     Beginner:
     3:
     0.153906,0.273386,0.072903,0.113404,0.000000,133.000000,124.000000,9.000000,14.000000,0.000000,0.000000,0.153906,0.273386,0.072903,0.113404,0.000000,133.000000,124.000000,9.000000,14.000000,0.000000,0.000000:
0000
0000
0000
0000
,
0000
0000
0000
0000
,
0000
0000
0000
0000
,
0000
0000
0000
0000
,
0001
0000
0000
0000
,
1000
0000
0000
0000
,
0100
0000
0000
0000
,
0010
0000
0000
0000
,
0001
0000
0001
0000
,
1000
0000
0000
0000
,
1000
0000
1000
0000
,
0001
0000
0000
0000
,
0001
0000
0001
0000
,
1000
0000
1000
0000
,
0010
0000
0100
0000
,
0010
0000
0010
0000
,
1000
1000
1000
0000
,
0001
0001
0001
0000
,
0100
0100
0100
0000
,
0010
0000
0010
0000
,
0001
0001
0001
0000
,
1000
1000
1000
0000
,
0100
0100
0100
0000
,
0010
0000
0010
0000
,
0001
0001
0001
0000
,
1000
1000
1000
0000
,
0010
0010
0010
0000
,
0100
0000
0100
0000
,
1000
1000
1000
0000
,
0001
0001
0001
0000
,
0100
0100
0100
0000
,
0010
0000
0010
0000
,
0001
0000
0001
0000
,
0002
0000
0003
0000
,
1000
0000
1000
0000
,
2000
0000
3000
0000
,
0100
0100
0100
0000
,
0200
0000
0300
0000
,
0001
0000
1000
0000
,
0020
0000
0030
0000
,
2002
0000
0000
0000
,
3003
0000
0000
0000
,
0220
0000
0000
0000
,
0330
0000
0000
0000
,
1001
0000
0000
0000
,
1001
0000
0000
0000
,
0010
0000
0000
0000
,
1001
0000
0100
0000
,
1001
0000
0010
0000
,
1001
0000
0110
0000
,
1001
0000
0000
0000
,
1000
0000
1000
0000
,
0001
0000
0001
0000
,
1000
0000
1000
0000
,
0010
0000
0100
0000
,
0001
0000
0001
0000
,
1000
0000
1000
0000
,
0010
0000
0100
0000
,
0020
0000
0030
0000
,
2000
0000
3000
0000
,
0002
0000
0003
0000
,
0100
0000
0100
0000
,
1000
0000
1000
0000
,
0002
0000
0003
0000
,
2000
0000
3000
0000
,
0020
0000
0030
0000
,
0100
0000
0100
0000
,
0001
0000
0000
0000
,
1000
0000
0000
0000
,
0010
0000
0000
0000
,
0100
0000
0001
0000
,
1000
0000
0000
0000
,
0001
0000
0000
0000
,
0100
0000
0000
0000
,
0010
0000
1000
0000
,
0001
0000
0000
0000
;

//---------------dance-single - ----------------
#NOTES:
     dance-single:
     :
     Easy:
     6:
     0.291611,0.364514,0.081003,0.162006,0.000000,252.000000,242.000000,10.000000,20.000000,0.000000,0.000000,0.291611,0.364514,0.081003,0.162006,0.000000,252.000000,242.000000,10.000000,20.000000,0.000000,0.000000:
0000
0000
0000
0000
,
0000
0000
0000
0000
,
0000
0000
0000
0000
,
0000
0000
0000
0000
,
0100
0100
0001
0001
,
0010
0010
1000
1000
,
0100
0100
1000
1000
,
0010
0010
0001
0001
,
1000
1000
1000
0000
,
0001
0000
1000
0000
,
0001
0001
0001
0000
,
1000
0000
0001
0000
,
1000
1000
1000
0000
,
0001
0001
0001
0000
,
1000
0000
0001
0000
,
0100
0000
0010
0000
,
1000
0100
1000
1000
,
0010
0100
0001
0001
,
0010
0001
0100
0100
,
0010
1000
0100
0001
,
0010
1000
0001
0001
,
0010
0001
1000
1000
,
0100
1000
0010
0010
,
0100
0001
0010
1000
,
0100
0010
0100
0100
,
0001
1000
0010
0010
,
1000
0100
1000
1000
,
0001
0010
0100
1000
,
0001
0100
0010
0010
,
1000
0001
0100
0100
,
0010
1000
0001
0001
,
0010
0100
1000
0001
,
1000
0100
0010
0000
,
0002
0000
2003
0000
,
3001
0100
0010
0000
,
2000
0000
3001
1001
,
1000
0010
0100
0001
,
1000
1000
0001
0001
,
0100
0001
0010
1000
,
0100
1000
0010
0001
,
2002
0000
0000
3000
,
0200
0000
0000
0303
,
0220
0000
0000
0030
,
0002
0300
2000
3003
,
1000
0000
0000
1000
0000
0000
1000
0000
,
0001
0000
0000
0001
0000
0000
0001
0000
,
0020
0030
0200
0300
,
1000
0000
0000
1000
0000
0000
1000
0000
,
0001
0000
0000
0001
0000
0000
0001
0000
,
1000
0000
0001
0000
,
0100
0000
0010
1001
,
1000
0001
0010
1001
,
0001
1000
0100
1001
,
1000
0001
0100
1001
,
0001
0010
0100
1000
,
0010
0100
0001
0110
,
0100
0010
1000
0110
,
0100
0010
0001
1000
,
0020
0100
0100
0130
,
0002
0100
0100
0103
,
2000
3010
0002
0013
,
1000
0010
0100
0001
,
0010
0100
1000
0010
,
2000
0100
0100
3100
,
0002
0013
2000
3010
,
0200
0010
0010
0310
,
1000
0001
0100
0110
,
0001
0000
0000
0010
0000
0000
0001
0000
,
1000
0000
0000
0100
0000
0000
1000
0000
,
0010
0000
0000
0100
0000
0000
0010
0000
,
0100
0100
0001
0001
,
1000
0000
0000
0100
0000
0000
1000
0000
,
0001
0000
0000
0010
0000
0000
0001
0000
,
0100
0000
0000
0010
0000
0000
0100
0000
,
0010
0010
1000
1000
,
0001
0000
0000
0000
;

//---------------dance-single - ----------------
#NOTES:
     dance-single:
     :
     Medium:
     11:
     0.492962,0.546771,0.081003,0.348314,0.328063,426.000000,416.000000,10.000000,43.000000,0.000000,0.000000,0.492962,0.546771,0.081003,0.348314,0.328063,426.000000,416.000000,10.000000,43.000000,0.000000,0.000000:
0000
0000
0000
0000
,
0000
0000
0000
0000
,
0000
0000
0000
0000
,
0000
0000
0000
0000
,
0010
1000
0000
0100
0000
1000
0000
0001
,
0010
0001
0000
0100
0000
0001
0000
0010
,
0100
1000
0000
0010
0000
1000
0000
0001
,
0100
0001
0000
0010
0000
0001
0000
0100
,
0010
0000
1000
0000
0000
0100
0000
0000
0010
0000
0000
0001
0000
0000
1000
0000
,
0001
0010
0001
0000
1000
0100
1000
0000
,
0010
0000
0001
0000
0000
0100
0000
0000
0010
0000
0000
1000
0000
0000
0001
0000
,
1000
0010
1000
0000
0001
0100
0001
0000
,
0100
0000
1000
0000
0000
0010
0000
0000
0100
0000
0000
0001
0000
0000
1000
0000
,
0010
0000
1000
0000
0000
0001
0000
0000
0010
0000
0000
0100
0000
0000
1000
0000
,
0001
0010
0001
0000
1000
0100
1000
0000
,
0010
0000
0100
0000
0010
0000
0000
0000
0100
0000
0000
0100
0000
0000
0100
0000
,
0001
0000
0010
0000
0001
0000
0000
0100
0000
0000
0010
0000
1000
0000
0100
0000
,
0000
0000
1000
0000
0010
0000
0000
0100
0000
0000
0001
0000
0010
0000
0100
0000
,
0000
0000
1000
0000
0010
0000
0000
0100
0000
0000
0010
0000
1000
0000
0100
0000
,
0010
0000
0000
0001
0000
0000
0100
0000
0000
1000
0000
0000
0010
0000
0001
0000
,
0000
0000
1000
0000
0100
0000
0000
0010
0000
0000
0100
0000
1000
0000
0010
0000
,
0000
0000
0100
0000
0001
0000
0000
0010
0000
0000
0001
0000
1000
0000
0100
0000
,
0000
0000
1000
0000
0001
0000
0000
0010
0000
0000
0100
0000
1000
0000
0010
0000
,
0100
0000
0000
0001
0000
0000
0010
0000
0000
1000
0000
0000
0100
0000
0001
0000
,
1000
0000
0100
0000
1000
0000
0000
0010
0000
0000
0100
0000
0001
0000
0010
0000
,
0000
0000
0001
0000
0100
0000
0000
0010
0000
0000
1000
0000
0100
0000
0010
0000
,
0000
0000
0001
0000
0100
0000
0000
0010
0000
0000
0100
0000
0001
0000
0010
0000
,
0100
0000
0000
1000
0000
0000
0010
0000
0000
0001
0000
0000
0100
0000
1000
0000
,
0000
0000
0001
0000
0010
0000
0000
0100
0000
0000
0010
0000
0001
0000
0100
0000
,
0000
0000
0010
0000
1000
0000
0000
0100
0000
0000
1000
0000
0001
0000
0010
0000
,
0000
0000
0001
0000
1000
0000
0000
0100
0000
0000
0010
0000
0001
0000
0100
0000
,
0010
0000
0000
1000
0000
0000
0100
0000
0000
0001
0000
0000
0010
0000
1000
0000
,
0001
0010
0100
1000
0002
0000
0103
0000
,
2000
3010
0002
0013
,
1000
0100
0010
0001
2000
0000
3010
0000
,
0002
0000
0103
0000
1000
0001
1001
0000
,
1000
0010
0100
0001
1000
0010
1000
0000
,
0001
0100
0001
0000
1000
0100
1000
0000
,
0020
0000
1030
0000
0200
0000
0301
2000
,
0010
0000
0000
0000
0001
0000
0000
0000
3010
0000
0000
1000
0100
0000
1000
0000
,
0002
0000
0000
0000
0000
0000
0000
0000
0103
0000
0000
0010
0000
0000
1000
0000
,
0200
0000
0000
0000
,
2300
0000
0000
0000
0000
0000
0000
0000
3001
0000
0000
1000
0000
0000
0010
0000
,
0200
0000
0320
0000
,
1030
0000
0000
0001
0000
0000
1000
0000
0000
0001
1000
0000
0001
0000
1000
0000
,
0010
0000
0000
0100
0000
0000
0010
0000
0000
0100
0010
0000
0100
0000
0010
0000
,
2000
0000
0000
3200
0000
0000
0320
0000
0032
0000
0000
0203
0000
0000
0310
0000
,
1010
0000
0000
1000
0000
0000
0100
0000
0000
0010
0001
0000
0010
0000
0001
0000
,
0101
0000
0000
0001
0000
0000
0100
0000
0000
0010
1000
0000
0010
0000
1000
0000
,
1100
0000
0000
0100
0000
0000
0010
0000
0011
0000
0000
0001
0000
0000
1000
0000
,
1010
0000
0000
0010
0000
0000
0110
0000
0000
1000
0000
0000
1001
0000
0000
0000
,
0001
0000
0010
0100
0000
0000
0010
0001
0000
0000
0000
1000
0100
0000
1000
0000
,
0010
0000
0100
0001
0000
0000
0010
0100
0000
0000
0000
1000
0010
0000
0100
0000
,
0001
0000
1000
0010
0000
0000
1000
0100
0000
0000
0000
0010
0001
0000
1000
0000
,
0002
0000
0000
0203
0000
0000
0320
0000
2030
0000
0000
3200
0000
0000
0320
0000
,
0031
0000
1000
0100
0000
0000
1000
0010
0000
0000
0000
0100
0001
0000
0010
0000
,
0001
0000
0100
0010
0000
0000
1000
0100
0000
0000
0000
0010
0001
0000
1000
0000
,
0200
0000
0000
2300
0000
0000
3020
0000
0230
0000
0000
0302
0000
0000
0023
0000
,
0230
0000
1000
0000
0310
0001
0100
0001
,
2000
0000
0100
0000
3001
1000
0100
0020
,
0001
0100
0032
2003
,
3010
0000
0000
0100
0000
0000
0001
0000
0000
0000
0010
0000
0100
0000
1000
0000
,
0001
0200
0320
2030
,
3002
0000
0010
0000
1003
0001
0010
0200
,
1000
0010
2300
3002
,
0023
1000
0001
1000
,
0031
0000
0100
0000
0110
0000
0000
1000
0000
0000
0001
0000
1001
0000
0000
0000
,
0001
0000
0000
0100
0000
0000
0010
0000
0000
1000
0000
0000
0100
0000
0010
0000
,
0001
0000
0000
0100
0000
0000
0001
0000
0000
1000
0000
0000
0100
0000
1000
0000
,
0010
0000
0000
0100
0000
0000
0001
0000
0000
0010
0000
0000
0100
0000
1000
0000
,
0010
0000
0000
1000
0000
0000
0100
0000
0010
0000
0001
0000
0100
0000
0001
0000
,
1000
0000
0000
0010
0000
0000
0100
0000
0000
0001
0000
0000
0010
0000
0100
0000
,
1000
0000
0000
0010
0000
0000
1000
0000
0000
0001
0000
0000
0010
0000
0001
0000
,
0100
0000
0000
0010
0000
0000
1000
0000
0000
0100
0000
0000
0010
0000
0001
0000
,
0100
0000
0000
0001
0000
0000
0010
0000
0100
0000
1000
0000
0010
0000
1000
0000
,
0001
0000
0000
0000
;

//---------------dance-single - ----------------
#NOTES:
     dance-single:
     :
     Hard:
     15:
     0.715142,0.820157,0.372614,0.429317,0.639925,618.000000,572.000000,46.000000,53.000000,0.000000,0.000000,0.715142,0.820157,0.372614,0.429317,0.639925,618.000000,572.000000,46.000000,53.000000,0.000000,0.000000:
// measure 0
0000
0000
0000
0000
,  // measure 1
0000
0000
0000
0000
,  // measure 2
0000
0000
0000
0000
,  // measure 3
0000
0000
0000
0000
,  // measure 4
1000
0000
0001
0000
0000
0000
0010
0000
0001
0000
0100
0000
0010
1000
0000
1000
,  // measure 5
0100
0000
1000
0000
0000
0000
0010
0000
1000
0000
0100
0000
0010
0001
0000
0001
,  // measure 6
0100
0000
0001
0000
0000
0000
0010
0000
0100
0000
1000
0000
0001
0100
0000
0100
,  // measure 7
0010
0000
1000
0000
0000
0000
0100
0000
0010
0000
0001
0000
1000
0010
1000
0010
,  // measure 8
1000
0000
0001
0000
1000
0100
0000
0100
0010
0000
0010
0001
0000
0001
1000
0000
,  // measure 9
0001
1000
1100
0000
1000
0001
0101
0000
,  // measure 10
0001
0000
1000
0000
0001
0100
0000
0100
0010
0000
0010
1000
0000
1000
0001
0000
,  // measure 11
1000
0001
0011
0000
0001
1000
1010
0000
,  // measure 12
1001
0000
0001
0000
1000
0100
0000
0010
0001
0000
1000
0100
0000
0010
0001
0000
,  // measure 13
1001
0000
1000
0000
0001
0100
0000
0010
1000
0000
0001
0100
0000
0010
1000
0000
,  // measure 14
1001
0000
0001
0000
0010
0100
0010
0000
1001
0000
0100
0010
0100
0000
1000
0000
,  // measure 15
0110
0000
0001
0000
0010
0100
0010
0100
1000
0000
0000
1100
0000
0000
0011
0000
,  // measure 16
1001
0000
1000
0000
0001
0000
0010
0001
0000
0000
1000
0000
0010
0000
1000
0000
,  // measure 17
0100
0000
0010
0000
0001
0000
0100
0010
0000
0000
0100
0000
0001
0000
0010
0000
,  // measure 18
0100
0000
1000
0000
0010
0000
1000
0100
0000
0000
1000
0000
0010
0000
0100
0000
,  // measure 19
0001
0000
0001
0010
0000
0010
0100
0000
0100
1000
0000
1000
0001
0000
0101
0000
,  // measure 20
1000
0000
0001
0000
1000
0000
0010
1000
0000
0000
0001
0000
0010
0000
0001
0000
,  // measure 21
0100
0000
0010
0000
1000
0000
0100
0010
0000
0000
0100
0000
1000
0000
0010
0000
,  // measure 22
0100
0000
0001
0000
0010
0000
0001
0100
0000
0000
0001
0000
0010
0000
0100
0000
,  // measure 23
1000
0000
1000
0010
0000
0010
0100
0000
0001
0000
0001
0000
0001
0000
0001
1000
,  // measure 24
0001
0000
1000
0000
0100
0000
0010
0001
0000
0000
1000
0000
0010
0000
0001
0000
,  // measure 25
0010
0000
1000
0000
0001
0000
0100
0010
0000
0000
0100
0000
1000
0000
0100
0000
,  // measure 26
0001
0000
1000
0000
0010
0000
0100
0001
0000
0000
0010
0000
1000
0000
0010
0000
,  // measure 27
0001
0000
0001
0100
0000
0100
0010
0000
0010
1000
0000
1000
0001
0000
0011
0000
,  // measure 28
1000
0000
0001
0000
0100
0000
0010
1000
0000
0000
0001
0000
0010
0000
1000
0000
,  // measure 29
0010
0000
0001
0000
1000
0000
0100
0010
0000
0000
0100
0000
0001
0000
0100
0000
,  // measure 30
1000
0000
0001
0000
0010
0000
0100
1000
0000
0000
0010
0000
0001
0000
0010
0000
,  // measure 31
1000
0000
1000
0100
0000
0100
0010
0000
0010
0001
0000
0001
1000
0000
0010
0000
,  // measure 32
1010
0000
1000
0100
0010
0000
0001
0100
0010
0000
1000
0000
0100
0000
1000
0010
,  // measure 33
1000
0001
0001
0000
0100
0001
0001
0000
,  // measure 34
1000
0000
0001
0010
0100
0000
1000
0010
0100
0000
0001
0000
0010
0000
0001
0100
,  // measure 35
0001
0000
1000
0000
1000
0000
0000
0000
0010
0000
1000
0001
0100
0000
0000
0000
,  // measure 36
0001
0000
1000
0010
0100
0000
0001
0010
0100
0000
1000
0000
0010
0000
1000
0100
,  // measure 37
2000
0001
3001
0010
0002
1000
1003
0010
,  // measure 38
0200
0010
0310
1000
0002
1000
0010
2003
,  // measure 39
0001
0000
0010
0000
0001
0000
3010
0000
0100
0000
0010
0100
0010
0000
1000
0000
,  // measure 40
2002
0000
0000
0000
0000
0000
0003
0000
3020
0000
0000
0230
0000
0000
0302
0000
,  // measure 41
2000
0000
0000
0000
0000
0000
0000
3003
,  // measure 42
0220
0000
0000
0000
0000
0000
0300
0000
2030
0000
0000
3002
0000
0000
0023
0000
,  // measure 43
0230
0000
0000
0000
0020
0000
0000
0330
,  // measure 44
1001
0000
0000
1100
0000
0000
0101
0000
0000
0100
0010
0000
1010
0000
0011
0000
,  // measure 45
0110
0000
0000
1010
0000
0000
0011
0000
0000
0001
1000
0000
1100
0000
0001
0100
,  // measure 46
0002
0000
0000
0023
0000
0000
2030
0000
3200
0000
0000
0302
0000
0000
2003
0000
,  // measure 47
3010
0000
0000
1100
0000
0000
0011
0000
0000
1000
0010
0000
0100
0000
0001
0010
,  // measure 48
0001
0000
0000
0101
0000
0000
1010
0000
0000
0001
0010
0000
0100
0000
1000
0010
,  // measure 49
1000
0000
0000
1010
0000
0000
0010
0000
0100
0000
0000
0101
0000
0000
0001
0000
,  // measure 50
0011
0000
0000
1100
0000
0000
0110
0000
0001
1000
0001
0000
1001
0000
1000
0000
,  // measure 51
0001
0010
0100
0010
0000
0001
0100
0001
0000
1000
0100
1000
0010
0000
1010
0000
,  // measure 52
1000
0001
0010
0001
0000
0100
0010
0100
0000
0001
0010
0100
0010
0000
0011
0000
,  // measure 53
0001
1000
0010
1000
0000
0001
0100
0001
0000
1000
0100
0010
0100
0000
1000
0010
,  // measure 54
2000
0000
0000
3200
0000
0000
0320
0000
0032
0000
0000
0203
0000
0000
0320
0000
,  // measure 55
1030
0100
0010
0100
0000
1000
0010
0100
0000
0001
0010
0001
0100
0000
0101
0000
,  // measure 56
0001
1000
0100
1000
0000
0010
0100
0001
0000
0010
0100
1000
0100
0000
1000
0001
,  // measure 57
0020
0000
0000
0230
0000
0000
2300
0000
3020
0000
0000
0230
0000
0000
0302
0000
,  // measure 58
0023
0000
0000
0001
0000
0000
1000
0000
0000
0031
0100
0000
0010
0000
1000
0001
,  // measure 59
2000
0000
0000
0010
0000
0000
0010
0000
0000
3010
0200
0000
0302
0000
0023
0000
,  // measure 60
0100
0000
0000
0100
0000
0000
0100
0000
0032
0000
1000
0000
2003
0000
0010
0000
,  // measure 61
3010
0000
0000
0100
0000
0000
0001
0000
0000
0010
0001
0000
1000
0000
0010
0000
,  // measure 62
0100
0000
0001
0010
0002
0000
0100
0000
0203
0000
0010
0000
0320
0000
1000
0000
,  // measure 63
2030
0000
0000
0100
0000
0000
0100
0000
0000
3100
0020
0000
0032
0000
0103
0000
,  // measure 64
0020
0000
0000
1000
0000
0000
1000
0000
2030
0000
0001
0000
3002
0000
0100
0000
,  // measure 65
0203
0000
0000
0010
0000
0000
0010
0000
0310
0000
1000
0000
0100
0010
0100
0010
,  // measure 66
0000
0000
0001
0100
0001
0100
0000
0010
1000
0000
0100
0000
1000
0000
0001
1000
,  // measure 67
0001
0000
0000
0010
0000
0000
0100
0000
0000
1000
0000
0000
1010
0000
0010
0000
,  // measure 68
0100
0000
0000
0001
0000
0000
0010
0000
0000
0001
0000
0000
0101
0000
0100
0000
,  // measure 69
0010
0000
0000
1000
0000
0000
0100
0000
0000
0010
0000
0000
0011
0000
0001
0000
,  // measure 70
0100
0000
0000
0010
0000
0000
0100
0000
0001
0000
1000
0000
1001
0000
0001
0000
,  // measure 71
0010
0000
0000
0100
0000
0000
1000
0000
0000
0010
0000
0000
0110
0000
0100
0000
,  // measure 72
0001
0000
0000
1000
0000
0000
0100
0000
0000
1000
0000
0000
1010
0000
0010
0000
,  // measure 73
0100
0000
0000
0001
0000
0000
0010
0000
0000
0100
0000
0000
1100
0000
1000
0000
,  // measure 74
0010
0000
0000
0100
0000
0000
0001
0000
0010
0100
0010
0100
1000
0000
0100
0010
,  // measure 75
0001
0000
0000
0000
;

//---------------dance-single - ----------------
#NOTES:
     dance-single:
     :
     Challenge:
     17:
     0.893349,1.029145,0.729028,0.567022,0.955837,772.000000,682.000000,90.000000,70.000000,0.000000,0.000000,0.893349,1.029145,0.729028,0.567022,0.955837,772.000000,682.000000,90.000000,70.000000,0.000000,0.000000:
// measure 0
0000
0000
0000
0000
,  // measure 1
0000
0000
0000
0000
,  // measure 2
0000
0000
0000
0000
,  // measure 3
0000
0000
0000
0000
,  // measure 4
0001
0000
0010
0000
0100
0000
1000
0000
1010
0000
0010
0000
0100
0001
0010
0001
,  // measure 5
0100
0000
0010
0000
1000
0000
0100
0000
0110
0000
0010
0000
0001
0100
0010
0100
,  // measure 6
0001
0000
1000
0000
0100
0000
0010
0000
0011
0000
0001
0000
0100
0010
1000
0010
,  // measure 7
0100
0000
0001
0000
0010
0000
0100
0000
1000
0010
0100
0010
0001
0010
0100
0001
,  // measure 8
1000
0000
0001
0010
0000
0010
0100
0000
0100
1000
0000
1000
0010
0000
0010
0100
,  // measure 9
0001
0000
1000
0001
0101
0000
0000
0000
1000
0000
0001
1000
1100
0000
0000
0000
,  // measure 10
0001
0000
1000
0010
0000
0010
0100
0000
0100
0001
0000
0001
0010
0000
0010
0100
,  // measure 11
1000
0000
0001
1000
1010
0000
0000
0000
0001
0000
1000
0001
0011
0000
0000
0000
,  // measure 12
1000
0000
0100
0010
0000
0001
0100
0010
1000
0000
0001
1000
0000
0100
0010
0001
,  // measure 13
1000
0000
0010
0100
0000
0001
0010
0100
1000
0000
0001
1000
0000
0010
0100
0001
,  // measure 14
1000
0100
0100
0010
0001
0100
0100
0010
,  // measure 15
1000
0100
0010
0001
0100
0010
0100
0010
0110
0000
0000
0101
0000
0000
1010
0000
,  // measure 16
1001
0000
0001
0000
0010
0000
0100
2000
0000
0010
3010
0000
1000
0000
1100
0000
,  // measure 17
0100
0000
0010
0000
0001
0000
0100
0020
0000
1000
1030
0000
0001
0000
0011
0000
,  // measure 18
0010
0000
0100
0000
1000
0000
0001
0200
0000
0010
0310
0000
0100
0000
0101
0000
,  // measure 19
0001
0000
0001
0010
0000
0010
0100
0000
1100
0000
1010
0000
0000
0000
1001
0000
,  // measure 20
0001
0000
1000
0000
0010
0000
0100
0002
0000
0010
0013
0000
0001
0000
0101
0000
,  // measure 21
0100
0000
0010
0000
1000
0000
0100
0020
0000
0001
0031
0000
1000
0000
1010
0000
,  // measure 22
0010
0000
0100
0000
0001
0000
1000
0200
0000
0010
0310
0000
0100
0000
1100
0000
,  // measure 23
1000
0000
1000
0010
0000
0010
0100
0000
0101
0000
1010
0000
1001
0000
0001
0001
,  // measure 24
1000
0100
0010
0100
1000
0100
0010
0100
0000
0010
0100
0000
1000
0000
1010
0000
,  // measure 25
0010
0100
0001
0100
0010
0100
0001
0100
0000
0001
0100
0000
0010
0000
0110
0000
,  // measure 26
0100
0001
1000
0001
0100
0001
1000
0001
0000
1000
0001
0000
0010
0000
0011
0000
,  // measure 27
0001
0000
0001
0100
0000
0100
0010
0000
1010
0000
1100
0000
0000
0000
1001
0000
,  // measure 28
0001
0100
0010
0100
0001
0100
0010
0100
0000
0010
0100
0000
0001
0000
0011
0000
,  // measure 29
0010
0100
1000
0100
0010
0100
1000
0100
0000
1000
0100
0000
0010
0000
0110
0000
,  // measure 30
0100
1000
0001
1000
0100
1000
0001
1000
0000
0001
1000
0000
0010
0000
1010
0000
,  // measure 31
1000
0000
1000
0100
0000
0100
0010
0000
0010
0001
0000
0001
1000
0000
0010
0000
,  // measure 32
1010
0000
1000
0100
0001
0000
0100
1000
0002
0000
0010
0000
1000
0000
0013
0100
,  // measure 33
2000
0000
0001
0000
0001
0000
0001
0000
3020
0000
0000
0100
0230
0000
0000
0000
,  // measure 34
0301
0000
0001
0100
1000
0000
0100
0001
2000
0000
0010
0000
0001
0000
3010
0100
,  // measure 35
0002
0000
1000
0000
1000
0000
1000
0000
0023
0000
0031
1000
1001
0000
0000
0000
,  // measure 36
0001
0000
1000
0100
0001
0000
1000
0010
0002
0000
0100
0000
1000
0000
0103
0010
,  // measure 37
2000
0000
0001
0000
0001
0000
0001
0000
3020
0000
0130
0001
0002
0000
1003
0000
,  // measure 38
2010
0001
0100
3001
0012
1000
0103
0210
,  // measure 39
0001
0000
0010
0000
1000
0000
0010
0000
0301
0000
0010
0100
0100
0000
1000
0000
,  // measure 40
2002
0000
0000
0000
0000
0000
3003
0000
0202
0000
0303
2020
0000
3030
2200
3300
,  // measure 41
0022
0000
0000
0000
0000
0000
0000
0033
,  // measure 42
0220
0000
0000
0000
0000
0000
0330
0000
2200
0000
3300
0022
0000
0033
2002
3003
,  // measure 43
2020
0000
0000
3030
0202
0000
0000
0303
,  // measure 44
1001
0000
0000
0000
0000
0000
0000
0000
0000
0000
0000
0000
1100
0000
0000
0000
0000
0000
0000
0000
0000
0000
0000
0000
0101
0000
0000
0000
0000
0000
0000
0000
0000
0000
0000
0000
0110
0000
0000
0000
0010
0000
0000
0000
0000
0000
0000
0000
1010
0000
0000
0000
0000
0000
0000
0000
0022
0033
0000
0000
0000
0000
0000
0000
,  // measure 45
1001
0000
0000
0101
0000
0000
1100
0000
0000
0110
0010
0000
0011
0000
1000
0010
,  // measure 46
2000
0000
0000
3200
0000
0000
0302
0000
0023
0000
0000
2030
0000
0000
3001
0000
,  // measure 47
0011
0000
0000
1010
0000
0000
1100
0000
0000
0001
0001
0000
0101
0000
0010
1000
,  // measure 48
1010
0000
0000
0011
0000
0000
0101
0000
0000
1000
1000
0000
1100
0000
0010
0001
,  // measure 49
0011
0000
0000
1100
0000
0000
1000
0000
1010
0000
0000
0101
0000
0000
0001
0000
,  // measure 50
0011
0000
0001
0100
0000
0100
0010
0000
1000
0100
0010
0001
1001
0000
0000
0000
,  // measure 51
1000
0100
0010
1000
0010
0100
1000
0010
0100
1000
0100
0010
1000
0100
0010
0000
,  // measure 52
0001
0100
0010
0001
0010
0100
0001
0010
0100
0001
0100
0010
0001
0100
0010
0000
,  // measure 53
0100
0010
1000
0100
0010
1000
0010
0100
1000
0100
0001
0100
1000
0001
0010
0100
,  // measure 54
2000
0000
0000
3020
0000
0000
0032
0000
2003
0100
0000
3200
0001
0000
0302
0000
,  // measure 55
1003
0010
0100
1000
0100
0010
1000
0100
0010
1000
0010
0100
1000
0010
0100
0000
,  // measure 56
0010
0100
0001
0010
0100
0001
0100
0010
0001
0010
1000
0010
0001
1000
0100
0010
,  // measure 57
0002
0000
0000
0203
0000
0000
2300
0000
3002
0010
0000
0023
1000
0000
2030
0000
,  // measure 58
3002
0000
0000
0100
0000
0000
1000
0000
0000
0010
0023
0000
0230
0000
2300
0000
,  // measure 59
3001
0000
0100
0010
0000
0000
0001
0000
0010
1000
0000
0000
0100
0000
0010
0000
,  // measure 60
0100
0000
1000
0010
0000
0000
0100
0000
1000
0100
0000
0000
0010
0000
1000
0000
,  // measure 61
0001
0000
0010
0100
0000
0000
0001
0000
0100
1000
0000
0000
0010
0000
0100
0000
,  // measure 62
0010
0000
1000
0100
0020
0000
0001
0000
0230
1000
0000
0000
2300
0000
0010
0000
,  // measure 63
3002
0000
1003
0100
0000
0000
0010
0000
1000
0010
0000
0000
0100
0000
1000
0000
,  // measure 64
0010
0000
0001
0010
0000
0000
0100
0000
0001
1000
0000
0000
0100
0000
0010
0000
,  // measure 65
0001
0000
1000
0010
0000
0000
0100
0000
0101
0000
0101
0000
0001
0010
0100
1000
,  // measure 66
0000
0000
0010
0001
0010
0100
0000
0001
1000
0000
1100
0000
0011
0000
1000
0001
,  // measure 67
1001
0000
0000
0100
0000
0000
0101
0000
0000
0010
0000
0000
1010
0000
1000
0000
,  // measure 68
1100
0000
0000
0001
0000
0000
0011
0000
0000
0100
0000
0000
0110
0000
0010
0000
,  // measure 69
1010
0000
0000
1000
0000
0000
0011
0000
0000
0001
0000
0000
1100
0000
1000
0000
,  // measure 70
1001
0000
0000
0001
0000
0000
0101
0000
0100
0000
0110
0000
0010
0000
1010
0000
,  // measure 71
0001
0010
0100
1000
0100
0010
0100
1000
0010
0100
0001
0010
0100
0010
0001
0100
,  // measure 72
0010
1000
0010
0100
0001
1000
0100
0010
0001
0100
0010
1000
0001
0010
0100
0010
,  // measure 73
0001
0010
0100
1000
0001
0100
0001
1000
0100
0010
0100
1000
0001
0100
0010
1000
,  // measure 74
0010
0100
0001
1000
0001
0010
0100
1000
0001
0100
1000
0100
0001
1000
0100
0010
,  // measure 75
0002
0000
0000
0000
,  // measure 76
0000
0000
0000
0000
,  // measure 77
0003
0000
0000
0000
;
