#VERSION:0.83;
#TITLE:Determinate;
#SUBTITLE:;
#ARTIST:Lemonade Mouth;
#TITLETRANSLIT:;
#SUBTITLETRANSLIT:;
#ARTISTTRANSLIT:;
#GENRE:;
#ORIGIN:;
#CREDIT:;
#BANNER:Determinate.png;
#BACKGROUND:Determinate-bg.png;
#PREVIEWVID:;
#JACKET:Determinate-jacket.png;
#CDIMAGE:;
#DISCIMAGE:;
#LYRICSPATH:;
#CDTITLE:cdtitle.png;
#MUSIC:Determinate.ogg;
#OFFSET:-0.591000;
#SAMPLESTART:57.161999;
#SAMPLELENGTH:15.000000;
#SELECTABLE:YES;
#BPMS:0.000=140.000;
#STOPS:419.000=0.428,
433.000=0.107,
433.250=0.107,
433.500=0.107,
433.750=0.107;
#DELAYS:;
#WARPS:;
#TIMESIGNATURES:0.000=4=4;
#TICKCOUNTS:0.000=4;
#COMBOS:0.000=1;
#SPEEDS:0.000=1.000=0.000=0;
#SCROLLS:0.000=1.000;
#FAKES:;
#LABELS:0.000=Song Start,
450.000=Song End,
459.167=Video End;
#BGCHANGES:-1.375=Determinate.avi=1.000=1=0=0=StretchNoLoop==CrossFade==,
459.136=Determinate-bg.png=1.000=1=0=0=StretchNoLoop==CrossFade==,
99999=-nosongbg-=1.000=0=0=0 // don't automatically add -songbackground-
;
#KEYSOUNDS:;
#ATTACKS:
;

//---------------dance-single - ----------------
#NOTEDATA:;
#CHARTNAME:;
#STEPSTYPE:dance-single;
#DESCRIPTION:;
#CHARTSTYLE:;
#DIFFICULTY:Hard;
#METER:11;
#RADARVALUES:0.523167,0.510737,0.348058,0.141241,0.005044,726.000000,657.000000,69.000000,28.000000,0.000000,0.000000,0.000000,0.000000,0.000000,0.523167,0.510737,0.348058,0.141241,0.005044,726.000000,657.000000,69.000000,28.000000,0.000000,0.000000,0.000000,0.000000,0.000000;
#CREDIT:;
#NOTES:
// measure 0
0000
0000
0000
0000
,  // measure 1
0000
0000
0000
0000
,  // measure 2
0000
0000
0000
0000
,  // measure 3
0000
0000
0000
0000
,  // measure 4
0001
0100
0010
1000
0000
0100
0000
0000
,  // measure 5
1000
0100
0010
0001
0000
0010
0000
0000
,  // measure 6
0001
0010
0100
0010
0000
0001
0000
1000
,  // measure 7
0010
0000
1000
0100
0000
0010
0000
0000
,  // measure 8
0100
1000
0100
0010
0000
0001
0000
0000
,  // measure 9
0010
0001
0010
0100
0000
1000
0000
0000
,  // measure 10
0100
0010
0001
1000
0000
0100
0000
0000
,  // measure 11
1000
0000
0100
0010
0000
0100
0000
0000
,  // measure 12
1000
0010
0100
0001
0000
0010
0100
1000
,  // measure 13
0200
0000
0310
0002
0000
0000
1003
0020
,  // measure 14
0100
1000
1000
1000
0000
0130
0000
0002
,  // measure 15
0000
0023
0000
0230
0000
2300
0000
3000
,  // measure 16
0100
1000
0001
0010
0000
0001
1000
0100
,  // measure 17
0020
0000
0031
2000
0000
0000
3001
0100
,  // measure 18
0010
1000
0100
0010
0001
0010
0100
2000
,  // measure 19
0002
0000
0000
0000
,  // measure 20
0000
0000
0000
3003
,  // measure 21
0010
0000
1010
0000
0010
1000
1010
1000
,  // measure 22
0001
0000
0101
0000
0001
0100
0101
0100
,  // measure 23
0010
0000
0011
0000
0010
0001
0011
0001
,  // measure 24
1000
1001
0011
1010
,  // measure 25
1000
0000
1100
0000
1000
0100
1100
0100
,  // measure 26
0000
0000
0101
0000
0100
0001
0101
0001
,  // measure 27
0010
0000
0110
0000
0010
0100
0110
0100
,  // measure 28
1000
1100
0101
1001
,  // measure 29
0001
1000
0100
1000
0000
0001
0010
0001
,  // measure 30
0000
0100
0001
0100
0010
1000
0100
1000
,  // measure 31
0000
0010
0100
0010
0000
0100
0001
0100
,  // measure 32
0000
0010
1000
0010
0100
0001
0010
0001
,  // measure 33
0100
0000
0010
1000
0010
0100
0001
1000
,  // measure 34
0000
0100
0010
0001
0011
0000
1010
0000
,  // measure 35
1000
0000
0001
0100
0010
1000
1100
0000
,  // measure 36
0001
0001
1000
0010
0100
0001
0101
0000
,  // measure 37
0010
0000
0100
0001
0100
0010
1000
0001
,  // measure 38
0000
0010
0100
1000
1100
0000
0101
0000
,  // measure 39
0001
0000
0100
0010
0100
0001
0011
0000
,  // measure 40
1000
1000
0100
0010
0100
1000
1010
0000
,  // measure 41
0100
0000
0100
0010
0000
0010
0001
0000
,  // measure 42
0001
1000
0000
1000
0002
0000
0203
0000
,  // measure 43
0310
0000
0010
1000
0000
1000
0010
0000
,  // measure 44
0010
0100
0000
0100
0002
0000
2003
0000
,  // measure 45
3100
0000
1000
0001
1000
0100
0010
0001
,  // measure 46
0000
0100
0010
1000
1010
0000
0101
0000
,  // measure 47
0010
0000
0100
1000
0100
0010
0011
0000
,  // measure 48
0100
0100
0010
0001
0010
0100
1100
0000
,  // measure 49
1000
0010
0100
0001
0010
0001
0100
0100
,  // measure 50
0010
1000
0001
0100
0010
0001
0010
0010
,  // measure 51
0100
0010
1000
0100
0010
0001
1000
1000
,  // measure 52
0100
1000
1010
0000
0011
0000
0101
0000
,  // measure 53
1001
0001
0010
0010
0100
1000
0001
0001
,  // measure 54
1000
0010
0100
0100
0010
1000
0001
0001
,  // measure 55
0010
0100
1000
1000
0010
0100
0010
0010
,  // measure 56
0100
0001
0011
0000
0101
0000
1100
0000
,  // measure 57
1000
1000
1000
1000
1000
1000
1000
1000
,  // measure 58
0001
0001
0001
0001
0001
0001
0001
0001
,  // measure 59
0010
0010
0010
0010
0010
0010
0010
0010
,  // measure 60
0200
0000
0000
0300
,  // measure 61
1001
0000
0100
0001
0100
0010
1000
0001
,  // measure 62
0000
0010
0100
1000
1100
0000
0101
0000
,  // measure 63
0001
0000
1000
0010
0100
0001
0011
0000
,  // measure 64
1000
1000
0001
0100
0010
1000
1010
0000
,  // measure 65
0100
0000
0010
1000
0010
0100
0001
1000
,  // measure 66
0000
0100
0010
0001
0011
0000
1010
0000
,  // measure 67
1000
0000
0010
0100
0010
1000
1100
0000
,  // measure 68
0001
0001
0010
0100
0010
0001
0101
0000
,  // measure 69
0010
0000
0010
0001
0000
0001
0100
0000
,  // measure 70
0100
0010
0000
0010
2000
0000
3020
0000
,  // measure 71
0130
0000
0100
0001
0000
0001
0010
0000
,  // measure 72
0010
0100
0000
0100
2000
0000
3002
0000
,  // measure 73
0013
0000
0001
1000
0001
0010
0100
1000
,  // measure 74
0000
0010
0100
0001
0011
0000
1100
0000
,  // measure 75
0010
0000
1000
0001
0010
0001
0101
0000
,  // measure 76
0100
0100
0001
1000
0100
1000
1010
0000
,  // measure 77
1000
0100
1000
0010
0100
0001
1000
0000
,  // measure 78
0100
0010
0001
0010
0100
1000
0001
0000
,  // measure 79
0100
0010
1000
0100
0010
0100
1000
0001
,  // measure 80
0010
0001
0100
0010
1000
0100
1000
0001
,  // measure 81
0100
0010
0100
0001
1000
0100
0010
0001
,  // measure 82
1001
0000
0000
0010
0001
0100
0010
1000
,  // measure 83
1001
0000
0000
0010
1000
0100
0010
0010
,  // measure 84
0001
1000
0100
1000
0001
0100
0010
0100
,  // measure 85
0002
0000
2003
0000
3001
0010
0100
0100
,  // measure 86
1000
0010
0100
0010
1000
0001
0010
0100
,  // measure 87
2000
0000
3002
0000
0103
0010
1000
1000
,  // measure 88
0100
0010
0100
1000
0001
0100
0010
0100
,  // measure 89
0001
0000
0010
0001
1000
0001
0100
0010
,  // measure 90
0000
1000
0100
0010
0011
0000
1100
0000
,  // measure 91
0010
0000
1000
0010
0100
0001
0011
0000
,  // measure 92
0010
0010
0100
1000
0010
0100
0101
0000
,  // measure 93
0010
0000
0100
1000
0100
0010
0001
0100
,  // measure 94
0000
0001
1000
0010
1010
0000
0101
0000
,  // measure 95
0010
0000
0100
0010
0001
1000
1100
0000
,  // measure 96
0100
0100
1000
0001
0100
0010
1010
0000
,  // measure 97
0001
0000
0001
0010
0000
0010
0100
0000
,  // measure 98
0100
1000
0000
1000
0020
0000
0230
0000
,  // measure 99
0310
0000
0010
1000
0000
1000
0001
0000
,  // measure 100
0001
0100
0000
0100
0020
0000
2030
0000
,  // measure 101
3100
0000
1000
0010
1000
0001
0010
0100
,  // measure 102
0000
1000
0010
0100
0101
0000
1100
0000
,  // measure 103
0010
0000
1000
0001
0010
0100
0110
0000
,  // measure 104
0001
0001
0100
0010
1000
0001
1001
0100
,  // measure 105
1000
0010
0000
0100
0001
0010
0000
0001
,  // measure 106
1000
0010
0100
0001
0010
0100
1000
0100
,  // measure 107
0010
0100
0000
1000
0001
0100
0000
0001
,  // measure 108
0100
0000
0010
0000
1000
0100
0010
0001
0010
0000
0000
0000
0100
0000
1000
0000
,  // measure 109
0001
0000
0101
0000
0001
0000
0010
0100
,  // measure 110
1000
0000
1100
0000
0100
1000
0010
0100
,  // measure 111
0001
0010
0011
0000
0001
1000
0100
0010
,  // measure 112
0100
1000
1010
0000
1001
0000
0000
0000
;

//---------------dance-single - ----------------
#NOTEDATA:;
#CHARTNAME:;
#STEPSTYPE:dance-single;
#DESCRIPTION:;
#CHARTSTYLE:;
#DIFFICULTY:Medium;
#METER:8;
#RADARVALUES:0.384809,0.397240,0.302659,0.020177,0.000000,534.000000,474.000000,60.000000,4.000000,0.000000,0.000000,0.000000,0.000000,0.000000,0.384809,0.397240,0.302659,0.020177,0.000000,534.000000,474.000000,60.000000,4.000000,0.000000,0.000000,0.000000,0.000000,0.000000;
#CREDIT:;
#NOTES:
0000
0000
0000
0000
,
0000
0000
0000
0000
,
0000
0000
0000
0000
,
0000
0000
0000
0000
,
0010
0000
1000
0100
0000
0010
0000
0000
,
0001
0000
0010
0100
0000
0010
0000
0000
,
0100
0000
1000
0010
0000
0002
0000
0000
,
0000
0000
0000
0003
,
0100
0000
1000
0010
0000
0100
0000
0000
,
0001
0000
0010
0100
0000
1000
0000
0000
,
0100
0000
0010
0001
0000
0020
0000
0000
,
0000
0000
0000
0030
,
0001
0010
0100
1000
0000
0100
0000
0000
,
1000
0100
0010
0100
0000
1000
0000
0000
,
0010
0001
0010
0100
0000
0001
0000
0000
,
0100
0000
1000
0100
0000
0010
0000
0000
,
0100
1000
0100
0010
0000
0001
0000
0000
,
0100
0010
0001
0010
0000
0100
0000
0000
,
1000
0100
0010
0000
0001
0010
0100
0000
,
0020
0000
0000
0000
,
0000
0000
0000
0030
,
0001
0100
0010
1001
,
0100
0010
0001
0110
,
0001
0100
0010
1100
,
0010
1010
0100
0101
,
0010
1000
0100
1001
,
0000
0100
0001
0110
,
0001
1000
0010
0101
,
0010
0011
1000
1100
,
0001
0000
0100
0100
0000
0000
0010
0010
,
0000
0000
1000
1000
1000
0000
0001
0000
,
1000
0000
0010
0010
0000
0000
0100
0100
,
0000
0000
0001
0001
0001
0000
1000
0000
,
1001
0000
0010
0000
0100
0000
0001
0010
,
0000
0100
1000
0100
0010
0000
0101
0000
,
0001
0000
1000
0100
0000
1000
0010
0000
,
0100
0000
0001
0010
0000
0001
0100
0000
,
0010
0000
0100
0000
0001
0000
0010
0100
,
0000
1000
0100
0010
0001
0000
0110
0000
,
0100
0000
1000
0010
0000
0100
0010
0000
,
1000
0000
0001
0100
0000
0010
1000
0000
,
1010
0000
0000
1001
0000
0000
0011
0000
,
0000
0101
0000
0000
0010
0000
0100
0000
,
0110
0000
0000
1100
0000
0000
1010
0000
,
0000
0011
0000
0000
0001
0000
1000
0000
,
0010
0000
0100
0000
0001
0000
1000
0010
,
0000
0100
0001
0010
0100
0000
1100
0000
,
1000
0000
0010
1000
0000
0001
0100
0000
,
0001
0000
0010
0001
0000
1000
0100
0000
,
0010
0000
0001
0000
0100
0000
0010
1000
,
0010
0000
0100
0000
0001
0000
0010
0001
,
0010
0000
0100
0000
1000
0000
0010
0100
,
0001
0011
0010
1010
,
1000
0000
0100
0000
0010
0000
0001
1000
,
0100
0000
1000
0000
0010
0000
0100
0001
,
0010
0000
0001
0000
0100
0000
0001
0010
,
0100
1100
0001
0101
,
0010
0000
1000
0100
0000
0000
0001
0100
,
0000
0000
0010
1000
0010
0000
1000
0000
,
0001
0000
0100
0010
0000
0000
1000
0010
,
0200
0000
0000
0300
,
1001
0000
0100
0000
0010
0000
1000
0100
,
0000
0010
0001
0010
0100
0000
1010
0000
,
1000
0000
0001
0100
0000
0001
0010
0000
,
0100
0000
1000
0010
0000
1000
0001
0000
,
0100
0000
0010
0000
1000
0000
0100
0010
,
0000
0001
0100
0010
1000
0000
0110
0000
,
0010
0000
0001
0100
0000
0010
0100
0000
,
0001
0000
1000
0010
0000
0100
0001
0000
,
0101
0000
0000
0110
0000
0000
1010
0000
,
0000
1100
0000
0000
1000
0000
0001
0000
,
1001
0000
0000
0101
0000
0000
0011
0000
,
0000
1010
0000
0000
0010
0000
0100
0000
,
1000
0000
0001
0000
0100
0000
0010
0100
,
0000
0001
1000
0100
0010
0000
0011
0000
,
0001
0000
0010
0001
0000
1000
0100
0000
,
1000
0000
0010
1000
0000
0001
0100
0000
,
0010
0000
0100
0000
0001
0010
0001
0000
,
0010
0000
1000
0000
0100
1000
0100
0000
,
0010
0000
0001
0000
0100
0001
0100
0000
,
0010
0000
1000
0100
1000
0010
0100
0000
,
0010
0000
1000
0000
0001
0100
0010
0000
,
0110
0000
0000
0000
0100
1000
0001
0000
,
1001
0000
0000
0000
0010
0001
1000
0000
,
0100
0000
1000
0001
0010
0001
0100
0000
,
0011
0011
0100
1000
,
0001
0100
0010
0000
0001
1000
0100
0000
,
1010
1010
0100
0001
,
0010
1000
0100
0000
0010
0100
0001
0000
,
0101
0000
0010
0000
0100
0000
1000
0010
,
0000
0100
0001
1000
0100
0000
1010
0000
,
0100
0000
0001
0010
0000
0010
0100
0000
,
0010
0000
1000
0100
0000
0100
0001
0000
,
1000
0000
0100
0000
0010
0000
0001
0010
,
0000
1000
0100
1000
0010
0000
0101
0000
,
0100
0000
1000
0001
0000
0001
0100
0000
,
0010
0000
0100
1000
0000
1000
0010
0000
,
0011
0000
0000
1100
0000
0000
0110
0000
,
0000
0101
0000
0000
0010
0000
0010
0000
,
1001
0000
0000
1010
0000
0000
0101
0000
,
0000
0011
0000
0000
0100
0000
0100
0000
,
1000
0000
0001
0000
0100
0000
0001
0010
,
0000
0100
1000
0010
1000
0000
1001
0000
,
0100
0000
0010
0001
0000
0100
0100
0000
,
0010
0000
1000
0100
0000
0010
0010
0000
,
1000
1000
0000
0000
0001
0001
0000
0000
,
0100
0100
0100
0000
0010
0000
1000
0000
,
0001
0001
0000
0000
1000
1000
0000
0000
,
0010
0010
0010
0010
0010
0000
1000
0000
,
0100
1001
1000
0001
,
0010
0000
1001
0000
0100
0000
0010
1000
,
0100
0000
1001
0000
0010
0000
0100
0001
,
0010
1001
0100
0000
;

//---------------dance-single - ----------------
#NOTEDATA:;
#CHARTNAME:;
#STEPSTYPE:dance-single;
#DESCRIPTION:;
#CHARTSTYLE:;
#DIFFICULTY:Easy;
#METER:5;
#RADARVALUES:0.243568,0.283743,0.121064,0.080709,0.000000,338.000000,314.000000,24.000000,16.000000,0.000000,0.000000,0.000000,0.000000,0.000000,0.243568,0.283743,0.121064,0.080709,0.000000,338.000000,314.000000,24.000000,16.000000,0.000000,0.000000,0.000000,0.000000,0.000000;
#CREDIT:;
#NOTES:
0000
0000
0000
0000
,
0000
0000
0000
0000
,
0000
0000
0000
0000
,
0000
0000
0000
0000
,
1000
0000
0000
1000
0000
0000
0000
0000
,
0001
0000
0000
0001
0000
0000
0000
0000
,
0100
0000
0000
0100
0000
0000
0000
0000
,
0000
0000
0000
0000
,
0010
0000
0000
0010
0000
0000
0000
0000
,
0001
0000
0000
0001
0000
0000
0000
0000
,
1000
0000
0000
1000
0000
0000
0000
0000
,
0000
0000
0000
0000
,
0200
0000
0000
0010
0000
0010
0300
0000
,
0002
0000
0000
1000
0000
1000
0003
0000
,
0200
0000
0000
0001
0000
0001
0300
0000
,
0010
0000
0000
1000
0000
0100
0000
0000
,
0020
0000
0000
0001
0000
0001
0030
0000
,
2000
0000
0000
0100
0000
0100
3000
0000
,
0001
1000
0100
0010
,
0220
0000
0000
0000
,
0000
0000
0000
0330
,
2000
0000
3000
0100
,
0020
0000
0030
0001
,
0200
0000
0300
0010
,
0001
1000
0100
1000
,
0020
0000
0030
0100
,
0000
1001
0000
0010
,
2000
0000
3000
0100
,
0010
0001
0100
0001
,
0000
1000
0000
0001
,
0000
0100
0010
1000
,
0000
0001
0000
1000
,
0000
0010
0100
0001
,
0000
1000
0100
1000
,
0000
0100
0010
0001
,
0000
1000
0001
1001
,
0000
0001
1000
1001
,
0000
0010
0001
0010
,
0000
0100
1000
0010
,
0000
0100
0010
0110
,
0000
0010
0100
0110
,
0001
0000
0000
0010
0000
0000
0100
0000
,
0000
0001
0000
0000
1000
0000
0010
0000
,
0100
0000
0000
0001
0000
0000
0010
0000
,
0000
1000
0000
0000
0100
0000
0010
0000
,
0000
0001
0100
0001
,
0000
1000
0001
0010
,
0000
1000
0010
1010
,
0000
0001
0100
0101
,
0001
0010
0001
0000
,
1000
0100
1000
0000
,
0010
1000
0010
0000
,
0100
0001
0010
0001
,
0100
1000
0100
0000
,
0010
0001
0010
0000
,
0001
0100
0001
0000
,
1000
0010
1000
0100
,
0010
0010
0010
0010
,
1000
1000
1000
1000
,
0001
0001
0001
0001
,
0200
0000
0000
0300
,
0000
0001
0010
0001
,
0000
0010
0100
1000
,
0000
0001
1000
1001
,
0000
1000
0001
1001
,
0000
0100
1000
0100
,
0000
0010
0001
0100
,
0000
0010
0100
0110
,
0000
0100
0010
0110
,
1000
0000
0000
0010
0000
0000
0100
0000
,
0000
1000
0000
0000
0001
0000
0100
0000
,
0010
0000
0000
1000
0000
0000
0100
0000
,
0000
0001
0000
0000
0010
0000
0100
0000
,
0000
1000
0010
1000
,
0000
0001
1000
0100
,
0000
0001
0010
0011
,
0000
1000
0100
1100
,
0010
1000
0100
0000
,
0010
0001
0100
0000
,
1000
0010
0100
0001
,
0010
0001
1000
0100
,
1000
0001
0010
1000
,
1001
0000
1000
0001
,
1001
0000
0001
0100
,
0001
0010
0100
1000
,
0010
0010
0100
0001
,
0010
1000
0010
0001
,
0100
0100
0010
1000
,
0100
0001
0100
1000
,
0000
1000
0100
0010
,
0000
0001
0010
0100
,
0000
1000
0010
1010
,
0000
0001
0100
0101
,
0000
0001
0010
1000
,
0000
1000
0100
0001
,
0000
0010
0001
0011
,
0000
0100
1000
1100
,
0010
0000
0000
0100
0000
0000
0001
0000
,
0000
0010
0000
0000
1000
0000
0001
0000
,
0100
0000
0000
0010
0000
0000
1000
0000
,
0000
0001
0000
0000
0100
0000
0010
0000
,
0000
1000
0010
0100
,
0000
0001
0010
1000
,
0000
0100
0010
0110
,
0000
0001
1000
1001
,
1000
0000
0010
0000
,
0100
0001
0010
1000
,
0100
0000
0001
0000
,
0010
2000
3000
0010
,
0100
0001
0000
0010
,
0100
1000
0000
0001
,
0100
1001
0000
0100
,
0010
2002
3003
0000
;

//---------------dance-single - ----------------
#NOTEDATA:;
#CHARTNAME:;
#STEPSTYPE:dance-single;
#DESCRIPTION:;
#CHARTSTYLE:;
#DIFFICULTY:Beginner;
#METER:2;
#RADARVALUES:0.141241,0.198620,0.105931,0.010089,0.000000,196.000000,175.000000,21.000000,2.000000,0.000000,0.000000,0.000000,0.000000,0.000000,0.141241,0.198620,0.105931,0.010089,0.000000,196.000000,175.000000,21.000000,2.000000,0.000000,0.000000,0.000000,0.000000,0.000000;
#CREDIT:;
#NOTES:
0000
0000
0000
0000
,
0000
0000
0000
0000
,
0000
0000
0000
0000
,
0000
0000
0000
0000
,
1000
0000
0000
0000
,
0001
0000
0000
0000
,
0100
0000
0000
0000
,
0000
0000
0000
0000
,
0010
0000
0000
0000
,
1000
0000
0000
0000
,
0001
0000
0000
0000
,
0000
0000
0000
0000
,
0100
0000
0000
0000
,
1000
0000
0000
0000
,
0001
0000
0000
0000
,
0010
0000
0000
0000
,
0001
0000
0000
0000
,
1000
0000
0000
0000
,
0100
0000
0000
0000
,
0020
0000
0000
0000
,
0000
0000
0000
0030
,
0000
1000
0000
1000
,
0000
0001
0000
0001
,
0000
1000
0000
1000
,
0000
0001
0001
0001
,
0000
0100
0000
0100
,
0000
0010
0000
0010
,
0000
0100
0000
0100
,
0000
0010
0010
0010
,
0010
0000
0000
0000
,
0100
0000
0000
0000
,
0001
0000
0000
0000
,
1000
0000
0000
0000
,
0000
0100
0000
1000
,
0000
0010
0000
0001
,
0000
0010
0000
1001
,
0000
0100
0000
1001
,
0000
0010
0000
0001
,
0000
0100
0000
1000
,
0000
0100
0000
1001
,
0000
0010
0000
1001
,
0000
0000
0000
0000
,
1000
0000
0000
0000
,
0001
0000
0000
0000
,
1000
0000
0000
0000
,
0000
0001
0000
0010
,
0000
1000
0000
0100
,
0000
0010
0000
1001
,
0000
0100
0000
1001
,
0000
0010
0000
1000
,
0000
0010
0000
0001
,
0000
0010
0000
1000
,
0000
0010
0010
0010
,
0000
0100
0000
0001
,
0000
0100
0000
1000
,
0000
0100
0000
0001
,
0000
0100
0100
0100
,
0000
1000
0000
1000
,
0000
0001
0000
0001
,
0000
0010
0000
0010
,
0020
0000
0000
0030
,
0000
0001
0000
0100
,
0000
1000
0000
0010
,
0000
1000
0000
0110
,
0000
0001
0000
0110
,
0000
1000
0000
0010
,
0000
0001
0000
0100
,
0000
0001
0000
0110
,
0000
1000
0000
0110
,
0000
0000
0000
0000
,
0100
0000
0000
0000
,
0010
0000
0000
0000
,
0100
0000
0000
0000
,
0000
0010
0000
1000
,
0000
0100
0000
0001
,
0000
1000
0000
0110
,
0000
0001
0000
0110
,
0000
1000
0000
0001
,
0000
1000
0000
0010
,
0000
0100
0000
0001
,
0000
1000
1000
0000
,
0001
0000
0100
0000
,
1001
0000
0000
0000
,
1001
0000
0000
0000
,
0001
0000
0010
0000
,
1000
1000
0000
0000
,
0010
0000
0100
0000
,
0001
0001
0000
0000
,
1000
0000
0100
0000
,
0000
0010
0000
1000
,
0000
0100
0000
0001
,
0000
1000
0000
1001
,
0000
0010
0000
0110
,
0000
0001
0000
0100
,
0000
1000
0000
0010
,
0000
0100
0000
0110
,
0000
0001
0000
1001
,
0000
0000
0000
0000
,
0100
0000
0000
0000
,
1000
0000
0000
0000
,
0001
0000
0000
0000
,
0000
1000
0000
0010
,
0000
0100
0000
0001
,
0000
1000
0000
0110
,
0000
0010
0000
1001
,
0000
0000
0000
1000
,
0000
0000
0000
0001
,
0000
0000
0000
0100
,
0000
0000
0000
0000
,
0010
0000
0100
0000
,
0100
0000
0001
0000
,
0001
0000
1000
0000
,
0001
0000
1001
0000
;
