#TITLE:Dance Of The Violins;
#SUBTITLE:;
#ARTIST:F-777;
#TITLETRANSLIT:;
#SUBTITLETRANSLIT:;
#ARTISTTRANSLIT:;
#GENRE:;
#CREDIT:;
#BANNER:Dance Of The Violins.png;
#BACKGROUND:Dance Of The Violins-bg.png;
#LYRICSPATH:;
#CDTITLE:cdtitle.png;
#MUSIC:Dance Of The Violins.ogg;
#OFFSET:-0.054000;
#SAMPLESTART:59.131001;
#SAMPLELENGTH:15.000000;
#SELECTABLE:YES;
#BPMS:0.000000=130.000000
;
#STOPS:
;
#BGCHANGES:;
#KEYSOUNDS:;
#ATTACKS:;

//---------------dance-single - ----------------
#NOTES:
     dance-single:
     :
     Hard:
     13:
     0.589378,0.648828,0.608556,0.366923,0.268480,461.000000,393.000000,68.000000,41.000000,0.000000,0.000000,0.589378,0.648828,0.608556,0.366923,0.268480,461.000000,393.000000,68.000000,41.000000,0.000000,0.000000:
// measure 0
0000
0000
0000
0000
,  // measure 1
0000
0000
0000
0000
,  // measure 2
0000
0000
0000
0000
,  // measure 3
0000
0000
0000
0000
,  // measure 4
0100
0000
1000
0000
0010
0000
0100
0001
0000
0010
0001
0000
1000
0000
0010
0000
,  // measure 5
1000
0000
0001
0000
0100
0000
0010
1000
0000
0100
1000
0000
0001
0000
0001
0000
,  // measure 6
0100
0000
0010
0000
1000
0000
0100
0010
0000
0001
1000
0000
0010
0000
0100
0000
,  // measure 7
0010
0000
1000
0000
0100
0000
0010
0001
0000
1000
0100
0000
1000
0000
1000
0000
,  // measure 8
0002
0000
1000
0000
1000
0000
0000
0100
0000
0000
0100
0000
1000
0000
0000
0000
,  // measure 9
2003
0000
0000
0000
3020
0000
0130
0002
0000
0000
0010
0000
0010
0000
0010
0000
,  // measure 10
0023
0000
0000
0000
0100
0000
0000
1000
0000
0000
0100
0000
0100
0000
0000
0000
,  // measure 11
0032
0000
1000
0000
2003
0000
3200
0010
0000
0000
1000
0000
1000
0000
1000
0000
,  // measure 12
0320
0000
0001
0000
0001
0000
0000
1000
0000
0000
1000
0000
0001
0000
0000
0000
,  // measure 13
0230
0000
0000
0000
2300
0000
3010
0200
0000
0000
1000
0000
0010
0000
1000
0000
,  // measure 14
0302
0000
0000
0000
0010
0000
0000
1000
0000
0000
1000
0000
0010
0000
0000
0000
,  // measure 15
2003
0000
0010
0000
3020
0000
0230
1000
0000
0000
0001
0000
1000
0000
0001
0000
,  // measure 16
0301
0000
1000
0000
0100
0000
0010
0001
0010
0000
0100
0000
0001
0000
0100
0000
,  // measure 17
1000
0100
0010
0002
0000
0103
0010
0100
,  // measure 18
0001
0000
0010
0000
0100
0000
1000
0100
1000
0000
0010
0000
0001
0000
0010
0000
,  // measure 19
0100
0001
1000
0200
0000
2300
0000
3001
,  // measure 20
0100
0000
0010
0000
1000
0000
0100
0010
0001
0000
0100
0000
0010
0000
1000
0000
,  // measure 21
0100
0001
0100
2000
0000
3100
0010
0100
,  // measure 22
1000
0000
0001
0000
0010
0000
0001
1000
0100
0000
1000
0000
0001
0000
0010
0000
,  // measure 23
0100
0010
0001
0200
0000
0320
0000
1030
,  // measure 24
1100
0000
0000
0000
1010
0000
0000
0110
0000
0000
0100
0000
0101
0000
0000
0000
,  // measure 25
0011
0000
0000
0000
1001
0000
0000
1010
0000
0000
1100
0000
1000
0000
0001
0000
,  // measure 26
0101
0000
0000
0000
0011
0000
0000
1100
0000
0000
0010
0000
1010
0000
0000
0000
,  // measure 27
0110
0000
0000
0000
1010
0000
0000
1001
0000
0000
0011
0000
0010
0000
0100
0000
,  // measure 28
2100
0000
0000
0000
0100
0000
0000
3020
0000
0000
0001
0000
0001
0000
0030
0000
,  // measure 29
0120
0000
0000
0000
0230
0000
0000
0302
0000
0000
1000
0000
1000
0000
1003
0000
,  // measure 30
0100
0010
0001
0000
0100
0010
1000
0000
0001
1000
0100
0000
0010
0100
1000
0000
,  // measure 31
0010
0100
0010
0100
0010
0100
0010
0100
0002
0000
0000
0000
2000
0000
3003
0000
,  // measure 32
0100
0000
1000
0000
0010
0000
0100
0001
0100
0000
0001
0000
0010
0000
0100
0000
,  // measure 33
0010
0001
1000
0020
0000
0130
0001
0100
,  // measure 34
0010
0000
1000
0000
0100
0000
1000
0010
1000
0000
0001
0000
0010
0000
0001
0000
,  // measure 35
1000
0010
0100
0002
0000
2003
0000
3010
,  // measure 36
0100
0000
0010
0000
1000
0000
0010
0100
0001
0000
0010
0000
0001
0000
0100
0000
,  // measure 37
0010
1000
0001
0200
0000
0310
0001
0010
,  // measure 38
1000
0000
0100
0000
0010
0000
0001
0010
0100
0000
0010
0000
0001
0000
1000
0000
,  // measure 39
0100
0001
0010
2000
0000
3020
0000
0130
,  // measure 40
0101
0000
1001
0000
0101
0000
0001
0010
0001
0000
0100
0000
0010
0000
1000
0000
,  // measure 41
1100
0110
0101
0021
0000
0001
0001
0031
,  // measure 42
0110
0000
1010
0000
0110
0000
0100
0001
0100
0000
0010
0000
1000
0000
0001
0000
,  // measure 43
0011
1001
1010
2100
0000
3002
0000
0103
,  // measure 44
0110
0000
1100
0000
1010
0000
1000
0100
0010
0000
0001
0000
0100
0000
0010
0000
,  // measure 45
1010
0011
0110
0102
0000
0100
1000
0103
,  // measure 46
1001
0000
0110
0000
1001
0000
1000
0001
0010
0000
0001
0000
0100
0000
0001
0000
,  // measure 47
0011
0000
0000
0000
1100
0000
0000
0110
0000
0000
1001
0000
1001
0000
0001
1000
,  // measure 48
0001
0000
0100
0001
0100
0000
0010
1000
0000
1000
0010
0000
0100
0000
0001
0000
,  // measure 49
0010
0000
0100
1000
0100
0000
0010
0001
0000
0001
0100
0000
0010
0000
0010
0000
,  // measure 50
0100
0000
0001
1000
0001
0000
0010
0100
0000
0100
0010
0000
0100
0000
1000
0000
,  // measure 51
0001
0000
0010
0100
0010
0000
0001
1000
0000
1000
0010
0000
0100
0000
0100
0000
,  // measure 52
0110
0000
0000
0000
1010
0000
0000
1100
0000
0000
0011
0000
0011
0000
0000
0000
,  // measure 53
1001
0000
0000
0000
1100
0000
0000
0101
0000
0000
1010
0000
1010
0000
0100
0000
,  // measure 54
0101
0000
0000
0000
0011
0000
0000
0110
0000
0000
1100
0000
1100
0000
0000
0000
,  // measure 55
0110
0000
0000
0000
1001
0000
0000
1010
0000
0000
1100
0000
1100
0000
0010
0000
,  // measure 56
0202
0000
0000
0000
,  // measure 57
0000
0000
0000
0000
,  // measure 58
0303
0000
0000
0000
;

//---------------dance-single - ----------------
#NOTES:
     dance-single:
     :
     Challenge:
     11:
     0.379708,0.519062,0.304278,0.277430,0.000000,297.000000,263.000000,34.000000,31.000000,288.000000,0.000000,0.379708,0.519062,0.304278,0.277430,0.000000,297.000000,263.000000,34.000000,31.000000,288.000000,0.000000:
0000
0000
0000
0000
,
0000
0000
0000
0000
,
0000
0000
0000
0000
,
0000
0000
0000
0000
,
1000
MMMM
1000
MMMM
0001
MMMM
0001
MMMM
,
0010
MMMM
0100
MMMM
1100
MMMM
0101
MMMM
,
0010
MMMM
0010
MMMM
0100
MMMM
0100
MMMM
,
0001
MMMM
1000
MMMM
1010
MMMM
0011
MMMM
,
0002
1000
1000
1000
,
0203
0001
0320
0100
,
2030
0100
0100
0100
,
3002
0010
0203
0001
,
0320
0100
1000
0100
,
2030
0010
3002
1000
,
0203
0001
1000
0001
,
0320
0100
2030
0001
,
3010
0100
0001
0010
0100
0010
0001
1000
,
0100
1000
0010
0100
MMMM
0100
0010
1000
,
0100
1000
0001
0010
0001
0100
0010
1000
,
0010
0100
0001
1000
MMMM
0001
MMMM
1000
,
0100
1000
0001
0100
0010
0100
0001
0010
,
0100
1000
0100
0010
MMMM
0010
0001
0010
,
0100
1000
0001
1000
0010
0100
0001
0010
,
0001
0010
0100
1000
MMMM
0001
MMMM
1000
,
0002
0000
1000
0000
0200
0003
0010
0000
,
0020
0300
1000
0000
2000
0030
0001
0000
,
0002
3000
0010
0000
2000
0003
0100
0000
,
0020
3000
0001
0000
0200
0030
1000
0000
,
0310
0000
0100
0000
0010
1000
0001
0000
,
1000
0000
0001
0000
1000
0010
0100
0100
,
0010
1000
0100
0001
0010
1000
0001
0010
,
0200
0000
0000
0000
0310
MMMM
1001
0000
,
1000
MMMM
0001
MMMM
0010
MMMM
0100
MMMM
,
0010
MMMM
0001
MMMM
0100
0001
0100
MMMM
,
0010
MMMM
1000
MMMM
0100
MMMM
1000
MMMM
,
0010
0100
0001
0100
MMMM
0010
MMMM
0100
,
0001
MMMM
1000
MMMM
1010
MMMM
0101
MMMM
,
0010
MMMM
1000
MMMM
0100
1000
0100
MMMM
,
0010
MMMM
0001
MMMM
0011
MMMM
1100
MMMM
,
1000
0100
0010
0100
MMMM
1000
MMMM
0100
,
0101
MMMM
0101
MMMM
0011
MMMM
0011
MMMM
,
1010
MMMM
1010
MMMM
1100
MMMM
1100
MMMM
,
1010
MMMM
0011
MMMM
0101
MMMM
1100
MMMM
,
1001
0001
0100
0010
MMMM
0100
MMMM
0010
,
1010
MMMM
1100
MMMM
1010
0010
1010
MMMM
,
0101
MMMM
0011
MMMM
0101
0100
0101
MMMM
,
0011
MMMM
1010
MMMM
0011
0001
0011
MMMM
,
0100
0000
0100
0000
0100
0001
0001
0001
,
0002
0000
0103
0000
2000
0100
3100
0000
,
0020
0000
0031
0000
0200
0001
0301
0000
,
0020
0000
1030
0000
0002
0010
0013
0000
,
0200
0000
0310
0000
2000
0001
3001
0000
,
0100
0000
0100
0000
0100
1000
0001
0010
,
0100
0000
0100
0000
0100
0010
0001
1000
,
0010
0000
0010
0000
0010
0100
0001
1000
,
0010
0000
0100
0002
0000
0000
0000
0000
,
2000
0000
0000
0000
,
0000
0000
0000
0000
,
3003
0000
0000
0000
;

//---------------dance-single - ----------------
#NOTES:
     dance-single:
     :
     Medium:
     10:
     0.435961,0.467156,0.187936,0.259531,0.111867,341.000000,320.000000,21.000000,29.000000,0.000000,0.000000,0.435961,0.467156,0.187936,0.259531,0.111867,341.000000,320.000000,21.000000,29.000000,0.000000,0.000000:
0000
0000
0000
0000
,
0000
0000
0000
0000
,
0000
0000
0000
0000
,
0000
0000
0000
0000
,
0100
0000
0000
0000
1000
0000
0000
0001
0010
0000
0001
0000
0001
0000
0000
0000
,
0010
0000
0000
0000
0001
0000
0000
1000
0100
0000
1000
0000
0010
0000
1000
0000
,
0001
0000
0000
0000
0010
0000
0000
0100
0001
0000
0100
0000
0100
0000
0000
0000
,
0010
0000
0000
0000
1000
0000
0000
0010
0100
0000
0001
0000
0010
0000
0001
0000
,
2000
0000
0000
0000
0001
0000
0000
0001
0000
0000
0100
0000
0100
0000
0000
0000
,
3020
0000
0000
0000
1000
0000
0000
0230
0000
0000
0001
0000
0001
0000
0001
0000
,
0302
0000
0000
0000
0010
0000
0000
0010
0000
0000
0100
0000
0100
0000
0000
0000
,
2003
0000
0100
3200
0000
0010
0010
0010
,
0320
0000
0000
0000
0100
0000
0000
0100
0000
0000
0001
0000
0001
0000
0000
0000
,
0032
0000
0000
0000
1000
0000
0000
0023
0000
0000
0100
0000
0100
0000
0100
0000
,
0230
0000
0000
0000
1000
0000
0000
1000
0000
0000
0010
0000
0010
0000
0000
0000
,
2300
0000
0001
3002
0000
1000
1000
1000
,
1003
0100
1000
0010
0100
0001
0100
0000
,
0010
0100
0001
0200
0000
0310
0100
0000
,
0001
0010
0001
0100
0010
1000
0010
0000
,
0100
0010
1000
0002
0000
2003
0000
3010
,
0100
0001
0100
0010
1000
0001
1000
0000
,
0100
0010
0001
0020
0000
0130
0010
0000
,
0001
1000
0001
0010
0100
1000
0100
0000
,
1000
0001
0100
0020
0000
2030
0000
3001
,
0100
0000
0000
0000
0100
0000
0000
0001
0000
0000
1000
0000
1000
0000
0000
0000
,
0010
0000
0000
0000
0010
0000
0000
1000
0000
0000
0100
0000
0010
0000
0100
0000
,
1000
0000
0000
0000
1000
0000
0000
0100
0000
0000
0010
0000
0010
0000
0000
0000
,
0001
0000
0000
0000
0001
0000
0000
0100
0000
0000
0010
0000
1000
0000
0010
0000
,
0200
0000
0000
0000
1000
0000
0000
0010
0000
0000
0001
0000
0001
0000
0300
0000
,
0020
0000
0000
0000
0100
0000
0000
0001
0000
0000
1000
0000
1000
0000
1030
0000
,
0100
0010
0010
0001
0001
1000
1000
0100
,
0100
1000
0001
0100
0020
0000
0130
0000
,
1000
0000
1100
0000
0001
0100
0001
0000
,
0010
0000
0011
0000
0100
0010
0100
0000
,
0001
0000
0101
0000
0010
1000
0010
0000
,
1000
0100
0010
0002
0000
2003
0000
3010
,
1010
0000
1001
0000
0001
0010
0100
0000
,
1100
0000
1001
0000
0010
1000
0001
0000
,
0011
0000
0110
0000
0100
0010
1000
0000
,
0010
1000
0001
0200
0000
0320
0000
1030
,
0001
0100
0001
0010
0100
1000
0010
0000
,
0100
0010
0001
1000
0010
1000
0100
0000
,
1000
0010
0001
0010
0100
0010
1000
0000
,
0100
1000
0100
0020
0000
0032
0000
1003
,
0100
1000
0010
0100
0001
0100
0110
0000
,
1000
0001
0010
0001
0100
0010
1010
0000
,
0010
0001
0010
1000
0100
0001
0011
0000
,
0010
0000
0000
0000
0010
0000
0000
0010
0000
0000
1000
0000
1000
0000
1000
0000
,
0100
0000
1000
0000
0100
0000
0000
0010
0001
0000
0010
0000
0001
0000
0100
0000
,
0001
0000
0100
0000
0010
0000
0000
1000
0100
0000
1000
0000
0100
0000
0010
0000
,
0100
0000
0010
0000
0001
0000
0000
0100
0010
0000
0100
0000
0010
0000
1000
0000
,
0010
0000
1000
0000
0100
0000
0000
1000
0001
0000
1000
0000
0001
0000
0100
0000
,
0010
0000
0000
0000
0110
0000
0000
1100
0000
0000
1000
0000
1000
0000
0000
0000
,
0001
0000
0000
0000
0011
0000
0000
0110
0000
0000
0010
0000
1000
0000
0010
0000
,
0100
0000
0000
0000
0101
0000
0000
0011
0000
0000
0001
0000
0001
0000
0000
0000
,
1000
0000
0000
0000
1010
0000
0000
1001
0000
0000
0001
0000
0010
0000
0100
0000
,
0220
0000
0000
0000
,
0000
0000
0000
0000
,
0330
0000
0000
0000
;

//---------------dance-single - ----------------
#NOTES:
     dance-single:
     :
     Beginner:
     3:
     0.132962,0.233578,0.062645,0.107392,0.000000,104.000000,97.000000,7.000000,12.000000,0.000000,0.000000,0.132962,0.233578,0.062645,0.107392,0.000000,104.000000,97.000000,7.000000,12.000000,0.000000,0.000000:
0000
0000
0000
0000
,
0000
0000
0000
0000
,
0000
0000
0000
0000
,
0000
0000
0000
0000
,
1000
0000
1000
0000
,
0001
0000
0001
0000
,
0100
0000
0100
0000
,
0010
0000
0010
0000
,
2000
0000
0000
3000
,
0020
0000
0000
0030
,
0200
0000
0000
0300
,
0002
0000
0000
0003
,
0020
0000
0000
0030
,
0200
0000
0000
0300
,
2000
0000
0000
3000
,
0002
0000
0000
0003
,
0010
0000
1000
0000
,
0010
0010
0010
0000
,
0100
0000
0001
0000
,
0100
0100
0100
0000
,
0001
0000
0010
0000
,
0001
0001
0001
0000
,
1000
0000
0001
0000
,
1000
1000
1000
0000
,
1001
0000
0000
0000
,
0000
0000
0000
0000
,
0000
0000
0000
0000
,
0000
0000
0000
0000
,
0020
0000
0000
0030
,
0200
0000
0000
0300
,
1000
1000
1000
1000
,
2000
0000
3000
0000
,
0100
0000
0001
0000
,
0010
0010
0010
0000
,
0001
0000
0100
0000
,
1000
1000
0000
1000
,
1000
0000
0010
0000
,
0001
0001
0001
0000
,
0010
0000
1000
0000
,
0100
0100
0000
0100
,
0100
0000
1001
0000
,
0010
0010
0010
0000
,
1001
0000
0110
0000
,
0001
0001
0000
0001
,
0001
0000
0110
0000
,
0100
0100
0100
0000
,
0110
0000
1001
0000
,
1000
1000
0000
1000
,
1000
0000
0001
0000
,
0100
0000
0010
0000
,
0100
0000
1000
0000
,
0010
0000
0001
0000
,
0100
0000
0000
0000
,
1000
0000
0000
0000
,
0010
0000
0000
0000
,
0001
0000
0000
0000
,
0200
0000
0000
0000
,
0000
0000
0000
0000
,
0300
0000
0000
0000
;

//---------------dance-single - ----------------
#NOTES:
     dance-single:
     :
     Easy:
     7:
     0.271037,0.363343,0.134240,0.116342,0.000000,212.000000,197.000000,15.000000,13.000000,0.000000,0.000000,0.271037,0.363343,0.134240,0.116342,0.000000,212.000000,197.000000,15.000000,13.000000,0.000000,0.000000:
0000
0000
0000
0000
,
0000
0000
0000
0000
,
0000
0000
0000
0000
,
0000
0000
0000
0000
,
1000
0001
0010
0100
,
0010
1000
0001
1001
,
0010
0100
0001
0010
,
1000
0100
0010
0110
,
0200
0010
0000
0310
,
2000
0100
0000
3100
,
0002
0010
0000
0013
,
0020
0100
0000
0130
,
0002
0000
1000
0000
0000
1000
1003
0000
,
0200
0000
0001
0000
0000
0001
0301
0000
,
0020
0000
0100
0000
0000
0100
0130
0000
,
2000
0000
0010
0000
0000
0010
3010
0000
,
0100
1000
0010
0001
,
0010
0000
0100
1000
0000
0000
0100
0000
,
0010
0001
0010
1000
,
0100
0000
0010
0001
0000
0010
0000
0001
,
1000
0010
0100
0001
,
0010
0000
1000
0100
0000
0000
1000
0000
,
0001
0010
0001
0100
,
0010
0000
1000
0100
0000
1000
0000
0100
,
0020
0000
0000
0000
,
0000
0000
0000
0000
,
0030
0000
0000
0000
,
0000
0000
0000
0000
,
0200
0000
0010
0300
,
0002
0000
1000
1003
,
0100
0001
1000
0010
,
0001
1000
0001
1000
0001
0000
0000
0000
,
0100
0010
0001
1000
,
0010
0000
0100
0001
0000
0100
0001
0000
,
0010
0100
1000
0010
,
0100
0000
0010
1000
0000
0010
0000
1000
,
0001
0010
0001
1000
,
0100
0000
0010
0001
0000
0010
0001
0000
,
1000
0010
0001
0100
,
1000
0000
0010
0100
0000
0010
0000
0100
,
0001
0010
0110
1001
,
1000
0000
0100
0010
0000
0001
0010
0000
,
0100
1000
1001
0110
,
0010
0000
0100
0001
0000
0010
0000
0001
,
1000
0100
1100
0011
,
0001
0000
0010
0100
0000
1000
0100
0000
,
0010
0001
0101
1010
,
0010
0000
0000
0000
0010
0000
0010
0010
,
0010
0000
1001
0000
1000
0100
1000
0000
,
0100
0000
1001
0000
0100
0001
0100
0000
,
1000
0000
0110
0000
0010
1000
0010
0000
,
0001
0000
0110
0000
0001
0010
0001
0000
,
1000
0000
0010
1000
,
0100
0000
1000
0100
,
0010
0000
0100
0010
,
0001
0000
1000
0001
,
2002
0000
0000
0000
,
0000
0000
0000
0000
,
3003
0000
0000
0000
;
