#VERSION:0.83;
#TITLE:DELTA ASCENDER;
#SUBTITLE:;
#ARTIST:RILEY AGAINST SELF;
#TITLETRANSLIT:;
#SUBTITLETRANSLIT:;
#ARTISTTRANSLIT:;
#GENRE:;
#ORIGIN:;
#TAGS:;
#CREDIT:;
#BANNER:DELTA ASCENDER.png;
#BACKGROUND:DELTA ASCENDER-bg.png;
#PREVIEWVID:;
#JACKET:DELTA ASCENDER-jacket.png;
#CDIMAGE:;
#DISCIMAGE:;
#LYRICSPATH:;
#CDTITLE:cdtitle.png;
#MUSIC:DELTA ASCENDER.ogg;
#OFFSET:0.000000;
#SAMPLESTART:61.895000;
#SAMPLELENGTH:15.000000;
#SELECTABLE:YES;
#DISPLAYBPM:*;
#BPMS:0.000000=190.000000
;
#STOPS:;
#DELAYS:;
#WARPS:;
#TIMESIGNATURES:0.000000=4=4
;
#TICKCOUNTS:0.000000=4
;
#COMBOS:0.000000=1
;
#SPEEDS:0.000000=1.000000=0.000000=0
;
#SCROLLS:0.000000=1.000000
;
#FAKES:;
#LABELS:0.000000=Song Start
;
#BGCHANGES:;
#KEYSOUNDS:;
#ATTACKS:
;

//---------------dance-single - ----------------
#NOTEDATA:;
#CHARTNAME:;
#CHARTHASH:2293972383;
#STEPSTYPE:dance-single;
#BANNER:;
#DESCRIPTION:;
#CHARTSTYLE:;
#DIFFICULTY:Beginner;
#METER:5;
#METERF:5.000000;
#LASTSECONDHINT:122.526314;
#RADARVALUES:0.185800,0.313437,0.048470,0.113096,0.000000,161.000000,155.000000,6.000000,14.000000,0.000000,0.000000,0.000000,0.000000,0.000000,0.185800,0.313437,0.048470,0.113096,0.000000,161.000000,155.000000,6.000000,14.000000,0.000000,0.000000,0.000000,0.000000,0.000000;
#CREDIT:Supra G.L.;
#DISPLAYBPM:*;
#NOTES:
0000
0000
0000
0000
,
0000
0000
0000
0000
,
0000
0000
0000
0000
,
0000
0000
0000
0000
,
0000
0000
0000
0000
,
1001
0000
0000
0000
,
0000
0000
0000
0000
,
1001
0000
0000
0000
,
0000
0000
0000
0000
,
1000
0000
1000
0000
,
1000
0000
0000
0000
,
0001
0000
0001
0000
,
0001
0000
0000
0000
,
0010
0000
0100
0000
,
0010
0100
0010
0100
,
0010
0000
0000
0000
,
0100
0000
0000
0000
,
1001
0000
1000
0000
,
0001
0000
0100
0000
,
1001
0000
0001
0000
,
1000
0000
0100
0000
,
0110
0000
0010
0000
,
0100
0000
1000
0000
,
0110
0000
0010
0000
,
0100
0000
0001
0000
,
1000
0000
1000
0000
,
0001
0000
0001
0000
,
1000
0000
0100
0000
,
0010
0000
0001
0000
,
0100
0000
0100
0000
,
0001
0000
1000
0000
,
0010
0000
0010
0000
,
1000
0000
0000
0000
,
0002
0000
0000
0000
,
0003
0000
0000
0000
,
2000
0000
0000
0000
,
3000
0000
0000
0000
,
0200
0000
0000
0000
,
0300
0000
0000
0000
,
0020
0000
0000
0000
,
0030
0000
0000
0000
,
0001
0000
0001
0000
,
0001
0000
0000
0000
,
1000
0000
1000
0000
,
1000
0000
0000
0000
,
0001
0000
1000
0000
,
0001
0000
1000
0000
,
0010
0100
0010
0000
,
0100
0010
0100
0000
,
0001
0000
0010
0000
,
0100
0000
1000
0001
,
1000
0000
0010
0000
,
0100
0000
0001
1000
,
0001
0000
0010
0000
,
0100
0010
0100
0010
,
0100
0000
1000
0000
,
0001
1000
0001
1000
,
0002
0000
0000
0003
,
1000
0000
0010
0000
,
0200
0000
0000
0300
,
0020
0000
0000
0030
,
2000
0000
0000
3000
,
0001
0000
0010
0000
,
0200
0000
0000
0300
,
0010
0000
0000
0000
,
0002
0000
0000
0000
,
0003
0000
1000
0000
,
0010
0000
0100
0000
,
0020
0000
0030
0000
,
2000
0000
0000
0000
,
3000
0000
0001
0000
,
0010
0000
0200
0000
,
0000
0000
0300
0000
,
1000
0000
1000
0000
,
1000
0000
0001
0000
,
0100
0000
0010
0000
,
0100
0000
0100
0000
,
0001
0000
0001
0000
,
0001
0000
1000
0000
,
0200
0000
0000
0000
,
0000
0000
0300
0000
,
1000
0000
0000
0001
,
0000
0000
1000
0000
,
0010
0000
0000
1000
,
0000
0000
0010
0000
,
0100
0000
0000
0010
,
0000
0000
0100
0000
,
0001
0000
0000
0100
,
0000
0000
0001
0000
,
1000
0000
1000
0000
,
1000
0000
1000
0000
,
0001
0000
0001
0000
,
0001
0000
0001
0000
,
1000
1000
1000
0000
,
0001
0001
0001
0000
,
0100
0100
0100
0000
,
0010
0010
0010
0010
,
0010
0000
0000
0000
;

//---------------dance-single - ----------------
#NOTEDATA:;
#CHARTNAME:;
#CHARTHASH:3381256488;
#STEPSTYPE:dance-single;
#BANNER:;
#DESCRIPTION:;
#CHARTSTYLE:;
#DIFFICULTY:Easy;
#METER:9;
#METERF:9.000000;
#LASTSECONDHINT:122.842102;
#RADARVALUES:0.362368,0.549928,0.105017,0.468539,0.000000,314.000000,301.000000,13.000000,58.000000,0.000000,0.000000,0.000000,0.000000,0.000000,0.362368,0.549928,0.105017,0.468539,0.000000,314.000000,301.000000,13.000000,58.000000,0.000000,0.000000,0.000000,0.000000,0.000000;
#CREDIT:Supra G.L.;
#DISPLAYBPM:*;
#NOTES:
0000
0000
0000
0000
,
0000
0000
0000
0000
,
0000
0000
0000
0000
,
0000
0000
0000
0000
,
0000
0000
0000
0000
,
2000
0000
0000
3020
,
0000
0000
0230
0000
,
0302
0000
0000
0023
,
0000
0000
0230
0000
,
1300
0000
0010
1000
,
0010
0000
1000
0100
,
0010
0000
0001
0010
,
0001
0000
0100
0010
,
1000
1000
0001
0001
,
2002
0000
0000
3003
,
0100
0000
0100
0000
0000
0100
0000
0000
,
0010
0000
0010
0000
0000
0010
0000
0000
,
1000
0000
0100
0000
1000
0000
0001
1000
,
0001
0000
0100
0000
0001
0000
1000
0001
,
1000
0000
0001
0000
0010
0000
0100
1000
,
0100
0000
1000
0000
0010
0000
0100
0001
,
0100
0001
0010
0010
,
0100
1000
0010
0010
,
0100
0001
1000
1000
,
0100
0010
0001
1001
,
1000
1000
0010
0010
,
0100
0100
0001
0001
,
1000
0100
0010
0001
,
1000
0010
1000
0000
,
0001
0001
1000
1000
,
0001
0100
0010
1000
,
0100
0100
0010
0010
,
0100
0000
0000
0000
,
2000
0000
0000
0000
0000
3000
0000
0002
,
0000
0000
0003
0000
,
2000
0000
0000
0000
0000
3000
0000
0020
,
0000
0000
0030
0000
,
0200
0000
0000
0000
0000
0300
0000
0002
,
0000
0000
0003
0000
,
0020
0000
0000
0000
0000
0030
0000
0002
,
0000
0000
0003
0000
,
1000
0000
0001
0100
,
0001
0000
0010
0001
,
0001
0000
1000
0100
,
1000
0000
0010
1000
,
1000
0100
0010
0001
,
1000
0010
0100
0001
,
1000
0100
1000
0000
0001
0010
0001
0000
,
0200
0320
1030
0000
,
0001
0000
1001
0000
1000
0000
0001
0010
,
0000
0001
0010
0000
0100
0000
1100
0000
,
1000
0000
1001
0000
0001
0000
0010
0100
,
0000
0010
0100
0000
1000
0000
1010
0000
,
0010
0000
0110
0000
0100
0000
0001
1000
,
0000
0001
0010
0000
0100
0010
0100
0000
,
0010
0000
0011
0000
0001
0000
0100
0010
,
0000
0100
0001
0000
1000
0010
0100
0000
,
0002
1000
1000
1000
,
2003
0100
3200
0010
,
0320
0100
0100
0100
,
0230
1000
1000
2300
,
3002
0100
0100
0100
,
0203
0010
0320
1000
,
2030
0001
0001
0001
,
3001
0000
0000
1000
,
0010
0000
0000
0020
0000
0000
0000
0000
,
0000
1030
0100
1000
,
0001
0000
0000
0002
0000
0000
0000
0000
,
0023
0000
0000
0130
,
1000
0000
0000
2000
0000
0000
0000
0000
,
0000
3010
1000
0100
,
0010
0000
0000
0020
0000
0000
0000
0000
,
0000
0000
0000
0031
,
0100
0000
0000
0200
0000
0000
0001
0000
,
0001
0301
0010
0001
,
1000
0000
0000
2000
0000
0000
0100
0000
,
3200
0010
0010
0310
,
0001
0000
0000
0002
0000
0000
0100
0000
,
0100
0103
0001
0010
,
0200
0000
2300
0000
,
3020
0000
0130
0000
,
0002
0000
0000
2003
0000
0000
3020
0000
,
0000
2030
0000
0000
3001
0000
0010
0000
,
0200
0000
0000
2300
0000
0000
3200
0000
,
0000
0320
0000
0000
0031
0000
1001
0000
,
2000
0000
0000
3020
0000
0000
0032
0000
,
0000
0023
0000
0000
1030
0000
0001
0000
,
0200
0000
0000
2300
0000
0000
3200
0000
,
0000
0302
0000
0000
1003
0000
1001
0000
,
0001
0001
1000
1000
,
0001
0010
0100
1000
,
0010
0010
0100
0100
,
0010
1000
0100
0010
,
0001
0100
0010
0000
1000
0100
0010
0000
,
0001
0100
1000
0100
,
0001
1000
0100
0000
1000
0001
0010
0000
,
0001
0101
1000
1010
,
2002
3003
0000
0000
;

//---------------dance-single - ----------------
#NOTEDATA:;
#CHARTNAME:;
#CHARTHASH:2334697391;
#STEPSTYPE:dance-single;
#BANNER:;
#DESCRIPTION:;
#CHARTSTYLE:;
#DIFFICULTY:Medium;
#METER:13;
#METERF:13.000000;
#LASTSECONDHINT:122.842102;
#RADARVALUES:0.590867,0.707050,0.153487,0.557400,0.084822,512.000000,493.000000,19.000000,69.000000,0.000000,0.000000,0.000000,0.000000,0.000000,0.590867,0.707050,0.153487,0.557400,0.084822,512.000000,493.000000,19.000000,69.000000,0.000000,0.000000,0.000000,0.000000,0.000000;
#CREDIT:Supra G.L.;
#DISPLAYBPM:*;
#NOTES:
0000
0000
0000
0000
,
0000
0000
0000
0000
,
0000
0000
0000
0000
,
0000
0000
0000
0000
,
0000
0000
0000
0000
,
1002
0000
0000
0203
0000
0000
0320
0000
,
0000
2030
0000
0000
3200
0000
0310
0000
,
2001
0000
0000
3020
0000
0000
0230
0000
,
0000
0302
0000
0000
0023
0000
0130
0000
,
1001
1000
0010
1000
,
0100
0010
0001
0100
,
1001
0001
0010
0001
,
0100
0010
1000
0100
,
1000
0010
1000
0010
0100
0001
0100
0001
,
0010
0100
1000
0100
0010
0001
0100
0010
,
1000
0000
0100
0010
0000
0001
0000
0001
,
0100
0000
0001
1000
0000
0010
0100
0010
,
1000
0000
0001
0000
0010
0100
1000
0100
,
1000
0000
0010
0100
0000
0100
0001
0010
,
0001
0000
1000
0000
0010
0100
0001
0100
,
0001
0000
0010
0100
0000
0100
1000
0010
,
1000
0000
0100
0000
0010
0000
0001
0000
1000
0000
0000
0010
0000
0000
1000
0000
,
0001
0000
0100
0000
0010
0000
1000
0000
0001
0000
0000
0010
0000
0000
0001
0000
,
1000
0000
0010
0000
0001
0000
0010
0000
1000
0000
0000
0100
0000
0000
1000
0000
,
0001
0010
1000
0010
0001
0000
1001
0000
,
1000
0100
1000
0000
0001
0010
0001
0000
,
0100
0010
0100
0000
0001
1000
0001
0000
,
0010
0100
1000
0010
0100
0001
1000
0100
,
1000
0001
1000
0001
1000
0000
0010
0000
0100
0000
0010
0100
0000
0000
0000
0000
,
0001
0010
0100
0000
1000
0010
0100
0010
,
1000
0000
0100
0010
0000
0010
0000
0000
0001
0000
0100
0000
0001
0000
1000
0000
,
0000
0000
0100
0000
0100
0000
0000
0000
1000
0000
0010
0100
0000
0001
0000
0100
,
0010
0000
0000
0000
0000
0000
2000
3000
,
2000
0000
0000
0000
0000
0000
0000
3200
0000
0000
0000
0000
0000
0000
0320
0000
,
0000
0000
0000
0000
0030
0000
0002
0003
,
0002
0000
0000
0000
0000
0000
0000
0203
0000
0000
0000
0000
0000
0000
0320
0000
,
0000
0000
0000
0000
0030
0000
0200
0300
,
0200
0000
0000
0000
0000
0000
0000
0302
0000
0000
0000
0000
0000
0000
2003
0000
,
0000
0000
3000
0200
,
0320
0000
0000
0000
0000
0000
0000
0032
0000
0000
0000
0000
0000
0000
2003
0000
,
0000
0000
0000
3020
,
1030
0001
1000
0100
,
0010
0000
0001
0000
0100
0000
0001
0001
,
0001
1000
0001
0010
,
0100
0000
1000
0000
0010
0000
1000
1000
,
1000
0100
0010
0100
1000
0010
1000
0000
,
0001
0010
0001
0100
0010
0100
0001
0000
,
1000
0100
0010
0001
0100
0010
0001
1000
,
0100
0010
1000
0100
0020
0000
0001
0000
,
0130
0000
1001
0000
1000
0100
0010
0001
,
0000
0100
0001
0000
1000
0010
0001
0010
,
1000
0000
1100
0000
0001
0100
0010
1000
,
0000
0100
1000
0000
0010
0100
0001
0010
,
0001
0000
0101
0000
0100
0010
1000
0001
,
0000
0020
0230
2300
3020
0230
0302
2003
,
3100
0000
0110
0000
0010
0001
1000
0100
,
0000
0010
0001
0100
1000
0100
0001
0010
,
0100
1000
0100
1000
0100
1000
0100
0000
,
1000
0010
1000
0000
0001
0100
0001
0000
,
0010
0001
0010
0001
0010
0001
0010
0000
,
0100
0010
0100
0010
0100
0000
1000
0000
,
0001
0100
0001
0100
0001
0100
0001
0000
,
1000
0010
1000
0000
0001
1000
0001
0000
,
0010
0100
0010
0100
0010
0100
0010
0000
,
0001
0000
0000
0000
0000
0000
0100
0010
,
1000
0000
0000
0001
0000
0000
0020
0000
0000
0000
0000
0000
0000
0000
0000
0000
,
0000
0031
0100
0001
0001
1000
0010
1000
,
1000
0000
0000
0001
0000
0000
0200
0000
0000
0000
0000
0000
0000
0000
0310
0000
,
2000
0000
0000
0000
0000
0000
3001
0010
,
0100
0000
0000
1000
0000
0000
0002
0000
0000
0000
0000
0000
0000
0000
0000
0000
,
0000
0103
0010
1000
0010
0100
0001
0001
,
0001
0010
0100
2000
0000
0000
0000
0000
,
0000
0000
0000
0000
0000
0000
3100
0010
,
0001
0000
0000
1000
0000
0000
0020
0000
0100
0000
0000
0000
1000
0000
0000
0000
,
0100
0130
0001
0100
0100
0010
1000
0010
,
0010
0000
0000
0100
0000
0000
0002
0000
1000
0000
0000
0000
0010
0000
0013
0000
,
0200
0000
1000
0000
0010
0000
1300
0001
,
0100
0000
0000
0010
0000
0000
2000
0000
0100
0000
0000
0000
0001
0000
0000
0000
,
0100
3100
0010
0001
0010
0100
1000
0010
,
2000
0010
3020
0100
,
0230
0001
0301
1001
,
2000
0000
3001
0200
0001
0300
0020
0000
,
1030
0002
1000
0003
0200
0000
0320
0000
,
0230
0000
0310
2000
0010
3000
0002
0000
,
0103
0020
0100
0030
0101
0000
1010
0000
,
0002
0000
0013
0002
1000
0003
0200
0000
,
0301
0200
0010
0300
0002
0000
2003
0000
,
3020
0000
0130
0020
1000
0030
2000
0000
,
3001
2000
0100
3000
1100
0000
0011
0000
,
1000
0010
0001
0000
0001
0010
1000
0000
,
1000
0100
0010
0001
0010
0100
1000
0000
,
0001
0010
1000
0000
1000
0010
0001
0000
,
0001
0100
0010
1000
0010
0100
0001
0000
,
1000
0100
0001
0100
1000
0010
0001
0010
,
1000
0100
0010
0001
0100
0010
1000
0001
,
0010
1000
0010
0001
0100
1000
0100
0001
,
0011
1100
1010
0101
,
2002
3003
0000
0000
;

//---------------dance-single - ----------------
#NOTEDATA:;
#CHARTNAME:;
#CHARTHASH:1626518338;
#STEPSTYPE:dance-single;
#BANNER:;
#DESCRIPTION:;
#CHARTSTYLE:;
#DIFFICULTY:Hard;
#METER:16;
#METERF:16.000000;
#LASTSECONDHINT:122.842102;
#RADARVALUES:0.811288,1.060575,0.533165,0.476617,0.585674,703.000000,637.000000,66.000000,59.000000,0.000000,0.000000,0.000000,0.000000,0.000000,0.811288,1.060575,0.533165,0.476617,0.585674,703.000000,637.000000,66.000000,59.000000,0.000000,0.000000,0.000000,0.000000,0.000000;
#CREDIT:Supra G.L.;
#DISPLAYBPM:*;
#NOTES:
0000
0000
0000
0000
,
0000
0000
0000
0000
,
0000
0000
0000
0000
,
0000
0000
0000
0000
,
0000
0000
0000
0000
,
2001
0000
0000
3020
0000
0000
0032
0000
,
0000
0000
0023
0000
0000
0000
0000
0000
2030
0000
0000
0000
3001
1000
0001
1000
,
0002
0000
0000
0023
0000
0000
2030
0000
,
0000
0000
3020
0000
0031
0000
0000
1000
0000
1000
0000
0000
0001
0000
0000
0000
,
1001
1000
0100
0001
,
1001
0001
0100
1000
,
0110
1000
0001
0010
,
0110
0000
0000
0000
0001
0000
0000
0000
1000
0000
0000
0000
0010
0000
1000
0001
,
1000
0100
0010
0001
1000
0100
0010
0001
,
0100
0001
0100
0000
0010
0100
0010
0000
1000
0010
1000
0000
0001
1000
0001
1000
,
0001
0000
0011
0010
0000
1100
0000
1001
,
1000
0000
0000
0000
1010
0000
0010
0000
0000
0000
0101
0000
0100
0010
0100
0010
,
1000
0000
0000
0100
0010
0000
0001
0000
0010
0000
0100
0000
1000
0010
1000
0010
,
1000
0000
0000
0001
0100
0000
0010
0000
0100
0000
0001
0010
0001
0000
0001
1000
,
0001
0000
0000
0100
0010
0000
1000
0000
0010
0000
0100
0000
0001
0010
0001
0010
,
0001
0000
0000
1000
0100
0000
0010
0000
0100
0000
1000
0010
1000
0000
1000
0001
,
1000
0000
0100
0000
0010
0000
0001
0000
0100
0000
0010
1000
0000
0010
1000
0000
,
0001
0000
0100
0000
0010
0000
1000
0000
0100
0000
0010
0001
0000
0010
0001
0000
,
1000
0000
0100
0000
0001
0000
0100
0000
1000
0000
0010
0100
0000
0010
1000
0000
,
0001
0010
1000
0010
0001
0001
1001
0000
,
1010
1000
1100
0000
0011
0001
0101
0000
,
1010
0010
0011
0000
1100
0100
0101
0000
,
1001
1000
0001
0010
0110
0100
0010
0001
,
1000
0010
0100
0010
1000
0000
0100
0000
0010
0000
0001
1000
0000
0000
0000
0000
,
1010
0010
0110
0000
0101
0100
0010
1000
,
1100
0000
0100
0010
0000
0010
0000
0000
0001
0000
0100
0000
0001
0000
1000
0000
,
0000
0000
1100
0000
0011
0000
0000
0000
0001
0000
0100
0010
0000
1000
0000
0010
,
0100
0000
0000
0000
0000
0000
0002
0003
,
2002
0000
0000
0000
0000
3000
0000
0200
0000
0000
0000
0000
0300
0000
0020
0000
,
0000
0000
0000
0000
0030
0000
0203
0300
,
0202
0000
0000
0000
0000
0003
0000
0020
0000
0000
0000
0000
0030
0000
2000
0000
,
0000
0000
0000
0000
3000
0000
0320
0030
,
2020
0000
0000
0000
0000
3000
0000
0200
0000
0000
0000
0000
0300
0000
0002
0000
,
0000
0000
0003
0230
,
0302
0000
0000
0000
0000
0000
0000
0020
0000
0000
0000
0000
0030
0000
0200
0000
,
0000
0000
0300
2003
,
3001
0011
0010
0110
,
0100
0000
0000
0000
1100
0000
0000
0000
1000
0000
0000
0000
0010
0100
0010
0100
,
0010
1010
0100
0101
,
0001
0000
0000
0000
0011
0000
0000
0000
1000
0000
0000
0000
1100
0000
0100
1000
,
0001
0000
0100
0000
0010
0000
1000
0000
0010
0000
0100
0000
0001
0000
1000
0100
,
1000
0000
0100
0000
0010
0000
0001
0100
0001
0000
1000
0010
1000
0000
0100
1000
,
0100
0100
0010
0010
0001
0001
1000
1000
,
0010
0100
0010
0100
0010
0100
0010
0100
0010
0000
0000
0000
0000
0000
1000
0001
,
1000
0000
1001
0000
0001
0100
0010
1010
,
0000
1000
1100
0000
0100
0001
1000
0010
,
0001
0000
0101
0000
0100
0010
1000
1100
,
0000
0000
0100
0010
0001
0000
0100
0010
1000
0000
0100
0010
0001
0000
0100
0010
,
1000
0000
1010
0000
0010
0100
0001
0011
,
0000
0020
0230
0302
2003
3020
0230
2300
,
3010
0000
0110
0000
0100
0010
1000
1001
,
0000
0001
0010
1000
0010
0100
0001
0100
,
1000
0001
1000
0001
1000
0001
1000
0001
1000
0001
1000
0001
1000
0000
0000
0000
,
0001
0100
0001
0100
0001
0000
0000
0000
0100
0010
0100
0010
0100
0000
0000
0000
,
0010
1000
0010
1000
0010
1000
0010
1000
0010
1000
0010
1000
0010
0000
0000
0000
,
1000
0100
1000
0100
1000
0100
1000
0100
1000
0000
0000
0000
0001
0000
0000
0000
,
0100
0010
0100
0010
0100
0010
0100
0010
0100
0010
0100
0010
0100
0000
0000
0000
,
0001
0010
0001
0010
0001
0000
0000
0000
1000
0100
1000
0100
1000
0000
0000
0000
,
0001
0100
0001
0100
0001
0100
0001
0100
0001
0100
0001
0100
0001
0000
0000
0000
,
1001
0000
0000
0000
0000
0000
0000
0000
0000
0000
0000
0000
1000
0010
0100
0001
,
1000
0000
0000
0100
0000
0000
0020
0000
0000
0000
0000
0000
0000
0000
0000
0000
,
0000
0000
0031
0000
0100
0000
0010
0000
0010
0000
1000
0000
0100
0000
0010
0100
,
0010
0000
0000
0100
0000
0000
2000
0000
0000
0000
0000
0000
0000
0000
3010
0100
,
0002
0000
0000
0000
0000
0000
0000
0000
0000
0000
0000
0000
0000
0000
0000
0000
0000
0000
0013
0000
0000
0100
0010
0100
,
0010
0000
0000
0001
0000
0000
0200
0000
0000
0000
0000
0000
0000
0000
0000
0000
,
0000
0000
0310
0000
1000
0000
0100
0000
1000
0000
0001
0000
0010
0100
0010
0100
,
0010
0001
1000
0020
0000
0000
0000
0000
,
0000
0000
0000
0000
0000
0000
0000
0000
0000
0000
0000
0000
1030
0100
0010
0001
,
1000
0000
0000
0010
0000
0000
0200
0000
0010
0000
0000
0000
0001
0000
0000
0000
,
0010
0301
0010
0100
0100
1000
0010
0100
,
0100
0000
0000
0010
0000
0000
2000
0000
0100
0000
0000
0000
0001
0000
3100
0010
,
0002
0000
0000
0000
0100
0000
0000
0000
1000
0000
0000
0000
0103
0010
1000
0001
,
0100
0000
0000
0001
0000
0000
0020
0000
0001
0000
0000
0000
0100
0000
0000
0000
,
0001
0130
1000
0010
1000
0001
0100
0010
,
0200
0000
0320
0000
,
1030
0001
1000
0001
1000
0001
1000
0001
1000
0000
0000
0000
1000
0000
0000
0000
,
2001
0000
3001
0010
0100
1000
1002
0000
,
1003
0010
0100
0001
0021
0000
0130
0000
,
0210
0000
0310
0001
1000
0010
0210
0000
,
0310
1000
0001
0010
0011
0000
1100
0000
,
1020
0000
0130
1000
0001
0010
2010
0000
,
3100
0001
1000
0010
0210
0000
0310
0000
,
0021
0000
0130
0001
1000
0010
0012
0000
,
0103
1000
0001
0010
0110
0000
1001
0000
,
0001
0000
1000
0000
0100
0010
0001
1000
0000
0000
0001
0000
0010
0100
1000
0001
,
0000
0000
0100
0000
0010
0100
0010
0000
1000
0010
1000
0000
0001
0100
0001
0000
,
0100
0000
0010
0000
1000
0010
0100
0001
0000
0000
0100
0000
0001
0100
0010
1000
,
0000
0000
0001
0000
0010
0001
0010
0000
0100
0010
0100
0000
1000
0100
1000
0000
,
0100
0000
0010
0000
0001
0010
0100
1000
0001
0000
0010
0000
0001
1000
0100
0010
,
0001
0000
0100
0000
0010
1000
0001
0100
0010
1000
0010
0000
0100
0001
0100
0000
,
0001
0000
1000
0000
0010
0100
0001
1000
0010
0000
0100
0000
0010
1000
0001
0000
,
0101
1100
1010
0011
,
2002
3003
0000
0000
;

//---------------dance-single - ----------------
#NOTEDATA:;
#CHARTNAME:;
#CHARTHASH:3469319370;
#STEPSTYPE:dance-single;
#BANNER:;
#DESCRIPTION:;
#CHARTSTYLE:;
#DIFFICULTY:Challenge;
#METER:18;
#METERF:18.000000;
#LASTSECONDHINT:122.842102;
#RADARVALUES:1.082487,1.296258,0.573557,0.379678,1.025939,938.000000,867.000000,71.000000,47.000000,0.000000,0.000000,0.000000,0.000000,0.000000,1.082487,1.296258,0.573557,0.379678,1.025939,938.000000,867.000000,71.000000,47.000000,0.000000,0.000000,0.000000,0.000000,0.000000;
#CREDIT:Supra G.L.;
#DISPLAYBPM:*;
#NOTES:
// measure 0
0000
0000
0000
0000
,  // measure 1
0000
0000
0000
0000
,  // measure 2
0000
0000
0000
0000
,  // measure 3
0000
0000
0000
0000
,  // measure 4
0000
0000
0000
0000
,  // measure 5
1002
1000
0000
0203
0001
0000
0320
0100
,  // measure 6
0000
0000
2030
0000
0010
0000
0000
0000
3001
1000
0001
1000
0001
0010
0001
0010
,  // measure 7
0002
0010
0000
2003
0001
0000
3200
1000
,  // measure 8
0000
0000
0320
0000
0130
0000
0000
0011
0000
1100
0000
0000
0101
0000
0000
0000
,  // measure 9
1001
0000
1000
0100
0010
0001
0100
0010
,  // measure 10
0110
0000
0100
0001
0010
0100
1000
0001
,  // measure 11
0101
0000
0001
0100
1000
0100
0010
1000
,  // measure 12
1100
0000
0000
0000
1000
0000
0100
0000
0001
0000
0100
0000
0010
0000
0001
1000
,  // measure 13
0001
0001
0100
0100
0010
0010
1000
1000
,  // measure 14
0001
0010
0100
0010
0001
0100
0010
1000
0001
0010
0100
1000
0010
0100
0010
1000
,  // measure 15
0001
0010
0011
0001
0100
0110
0010
1010
,  // measure 16
1000
0000
0100
0000
1100
0000
1000
0000
0010
0000
0110
0000
0100
0001
0100
0001
,  // measure 17
1000
0000
0000
0100
0010
0000
0001
0100
0010
0100
0001
0000
1000
0010
1000
0010
,  // measure 18
1000
0000
0000
0001
0010
0100
0010
0100
1000
0000
0001
0010
0100
0000
0100
0010
,  // measure 19
0001
0000
0000
0100
0010
0000
1000
0100
0010
0100
1000
0000
0001
0010
0001
0010
,  // measure 20
0001
0000
0000
1000
0010
0100
0010
0100
0001
0000
1000
0010
0100
0000
0100
0010
,  // measure 21
1000
0000
0100
0010
0001
1000
0001
0000
0010
0000
0100
1000
0000
0100
1000
0000
,  // measure 22
0001
0000
0100
0010
1000
0001
1000
0000
0010
0000
0100
0001
0000
0100
0001
0000
,  // measure 23
1000
0000
0001
0010
1000
0010
0001
0000
1000
0000
0100
0010
0000
0100
1000
0000
,  // measure 24
0001
0000
1000
0010
0001
0010
1000
0000
1010
0000
1010
0000
1001
0000
0000
0000
,  // measure 25
0011
0000
0001
0000
0101
0000
0100
0000
0010
1000
0001
0000
0010
0000
0100
0000
,  // measure 26
1100
0000
1000
0000
1010
0000
0010
0000
0100
0001
1000
0000
0100
0000
0010
0000
,  // measure 27
0011
1001
0101
0100
1010
1001
1100
0100
,  // measure 28
1000
0100
0001
0100
1000
0000
0010
0000
0110
0000
0001
1000
0000
0000
0000
0000
,  // measure 29
0101
0000
0100
0000
0110
0000
0010
0000
1000
0100
0010
0000
0001
0000
1000
0000
,  // measure 30
1100
0000
0100
0010
0000
0010
0100
0000
1000
0000
1000
0000
0001
0000
0001
0000
,  // measure 31
1010
0000
0010
0000
0110
0000
0100
0000
0001
0010
0100
0000
1000
0000
0001
0000
,  // measure 32
0010
0000
0000
0010
0000
0000
0000
0000
0000
0000
0010
0000
0000
0000
0000
0000
0001
0000
1000
0000
0001
0000
0000
0000
2000
0000
0000
0000
3000
0000
0000
0000
,  // measure 33
2001
0000
0000
0000
0001
0000
0000
3020
1000
0000
0000
0000
0100
0000
0230
0000
,  // measure 34
0010
0000
0001
0000
0010
0000
0302
0003
,  // measure 35
1002
0000
0000
0000
1000
0000
0000
0023
0001
0000
0000
0000
0100
0000
0230
0000
,  // measure 36
0010
0000
1000
0000
0010
0000
0320
0030
,  // measure 37
0120
0000
0000
0000
0100
0000
0000
0032
0010
0000
0000
0000
1000
0000
2003
0000
,  // measure 38
0001
0100
0001
3020
,  // measure 39
0230
0000
0000
0000
0010
0000
0000
0302
0100
0000
0000
0000
1000
0000
2003
0000
,  // measure 40
0001
0001
0000
3200
,  // measure 41
1300
1100
0011
0011
,  // measure 42
0101
0000
0000
0000
0101
0000
0000
0000
1010
0000
0000
0000
0010
0100
0010
0100
,  // measure 43
0010
0110
0101
0101
,  // measure 44
1100
0000
0000
0000
1100
0000
0000
0000
1001
0000
0000
0000
1001
0000
1000
0001
,  // measure 45
1000
0000
0010
0000
0100
0000
1000
0000
0001
0000
0010
0000
0100
0000
0001
1000
,  // measure 46
0001
0000
0010
0000
0100
0000
1000
0010
1000
0000
0001
0100
0001
0000
0010
0001
,  // measure 47
1000
0100
0010
0001
0100
0010
0100
0001
1000
0001
0100
0010
1000
0100
0010
0100
,  // measure 48
1000
0001
1000
0001
1000
0001
1000
0001
0100
0010
0100
0010
0100
0000
0000
0000
,  // measure 49
0001
1000
0001
1000
2001
0000
0000
0000
3010
0000
0100
0000
0001
0000
1010
0000
,  // measure 50
0000
0000
1000
0000
1100
0000
0100
0010
0001
0000
0100
0000
1000
0000
0100
0000
,  // measure 51
0001
0000
0012
0000
0103
0010
1000
0101
,  // measure 52
0000
0000
0001
1000
0100
1000
0010
0100
0001
0100
0010
1000
0100
1000
0001
0010
,  // measure 53
0100
0000
1200
0000
0310
0001
0100
1010
,  // measure 54
0000
0020
0230
2300
3002
0023
0230
0302
,  // measure 55
0013
0000
0021
0000
0130
1000
0010
0101
,  // measure 56
0000
0100
0110
0010
1010
1000
1001
0001
,  // measure 57
0010
0001
0010
0001
0010
0001
0010
0001
0010
0001
0010
0001
0010
0001
0010
0001
,  // measure 58
0010
0100
0010
0100
0010
0100
0010
0100
1000
0100
1000
0100
1000
0100
1000
0100
,  // measure 59
1000
0010
1000
0010
1000
0010
1000
0010
1000
0010
1000
0010
1000
0010
1000
0010
,  // measure 60
0100
0001
0100
0001
0100
0001
0100
0001
0100
0001
0100
0001
1000
0001
1000
0001
,  // measure 61
0010
0100
0010
0100
0010
0100
0010
0100
0010
0100
0010
0100
0010
0100
0010
0100
,  // measure 62
1000
0100
1000
0100
1000
0100
1000
0100
0010
0001
0010
0001
0010
0001
0010
0001
,  // measure 63
1000
0001
1000
0001
1000
0001
1000
0001
1000
0001
1000
0001
1000
0001
1000
0001
,  // measure 64
1000
0000
0000
0000
0000
0000
0000
0000
0000
0000
0000
0000
0001
0010
0100
1000
,  // measure 65
0001
0000
0000
0100
0000
0000
0020
0000
0000
0000
1000
0000
0000
0000
0100
0000
,  // measure 66
0000
0000
1030
0000
0100
0000
0010
0000
0010
0000
0001
0000
0100
0000
0010
0010
,  // measure 67
0010
0000
0000
0100
0000
0000
0002
0000
0000
0000
1000
0000
0000
0000
0013
0100
,  // measure 68
2000
0000
0000
0001
0000
0000
0000
0000
0000
0010
0000
0000
0000
0000
0000
0001
0000
0000
3010
0000
0000
1000
0010
0100
,  // measure 69
0001
0000
0000
0010
0000
0000
0200
0000
0000
0000
1000
0000
0000
0000
0010
0000
,  // measure 70
0000
0000
1300
0000
0010
0000
0001
0000
0010
0000
0100
0000
0001
0010
0100
1000
,  // measure 71
0001
0100
0001
0020
0000
0100
0000
0100
,  // measure 72
0000
0000
1000
0000
0000
0000
1000
0000
0000
0000
0001
0000
0031
0100
0010
1000
,  // measure 73
0001
0000
0010
0100
0000
0010
0002
0000
0010
0000
0010
0000
1000
0000
1000
0000
,  // measure 74
0010
0013
0100
1000
1000
0010
0100
0001
,  // measure 75
0001
0000
1000
0100
0000
0010
0200
0000
0010
0000
0010
0000
1000
0000
1300
0001
,  // measure 76
0020
0000
0001
0000
0001
0000
0100
0000
0100
0000
0001
0000
0031
1000
0100
0010
,  // measure 77
0001
0000
0100
0010
0000
1000
0020
0000
1000
0000
1000
0000
0100
0000
0100
0000
,  // measure 78
1000
1030
0100
0001
0100
0010
0001
1000
,  // measure 79
0001
0100
0001
0100
0001
0100
0010
0100
0010
0100
0010
0100
0010
0100
0010
0100
,  // measure 80
0010
1000
0010
1000
0010
1000
0010
1000
0000
0000
0000
0000
0000
0000
0000
0000
,  // measure 81
1001
0000
0001
0010
0001
0000
0100
0001
0100
0000
0010
0000
1000
0000
0100
1000
,  // measure 82
0100
0000
0010
0100
0010
0000
0001
0000
1000
0000
0010
0100
0001
0000
0100
0010
,  // measure 83
1000
0000
0100
0010
0100
0000
1000
0010
1000
0000
0001
0000
0010
0000
0100
1000
,  // measure 84
0100
0000
0010
0001
0010
0000
0100
0000
1100
0000
1000
0000
1010
0000
0010
0000
,  // measure 85
0110
0000
0100
0001
0100
0000
0001
0010
0001
0000
1000
0000
0010
0000
0100
0010
,  // measure 86
0100
0000
0010
1000
0010
0000
0100
0000
0001
0000
0010
0100
1000
0000
0100
0010
,  // measure 87
0001
0000
1000
0010
1000
0000
0100
0010
0100
0000
1000
0000
0010
0000
0100
0001
,  // measure 88
0100
0000
0010
1000
0010
0000
0100
0000
0110
0000
0001
1000
1001
0000
0000
0000
,  // measure 89
1000
0000
0001
0000
1000
0100
0010
0001
0000
0100
0010
0000
1000
0100
0010
0001
,  // measure 90
0000
0100
0010
0000
1000
0100
0010
0001
1000
0001
0010
0100
1000
0010
0100
0000
,  // measure 91
0001
0000
1000
0000
0001
0100
0010
1000
0000
0100
0010
0000
0001
0100
0010
1000
,  // measure 92
0000
0100
0010
0000
0001
0100
0010
1000
0001
1000
0010
0100
0001
0010
0100
0000
,  // measure 93
1000
0100
0010
0001
0010
0100
0010
0001
1000
0010
0100
0010
1000
0010
0100
0001
,  // measure 94
0010
0100
1000
0100
0010
0001
0010
0100
1000
0010
0100
0001
1000
0100
0010
0001
,  // measure 95
0100
0010
0100
0001
0100
0010
1000
0001
0010
0100
1000
0100
0010
0001
0010
0000
,  // measure 96
0011
0100
1100
1000
1010
0001
0101
0000
,  // measure 97
2002
3003
0000
0000
;
