#VERSION:0.83;
#TITLE:Cyber Space 1-5\: Dropaholic;
#SUBTITLE:;
#ARTIST:SEGA SOUND TEAM, Kanon Oguni;
#TITLETRANSLIT:;
#SUBTITLETRANSLIT:;
#ARTISTTRANSLIT:;
#GENRE:;
#ORIGIN:;
#TAGS:;
#CREDIT:;
#BANNER:Cyber Space 1-5 Dropaholic.png;
#BACKGROUND:Cyber Space 1-5 Dropaholic-bg.png;
#PREVIEWVID:;
#JACKET:Cyber Space 1-5 Dropaholic-jacket.png;
#CDIMAGE:;
#DISCIMAGE:;
#LYRICSPATH:;
#CDTITLE:cdtitle.png;
#MUSIC:Cyber Space 1-5 Dropaholic.ogg;
#OFFSET:-0.573000;
#SAMPLESTART:57.043999;
#SAMPLELENGTH:15.000000;
#SELECTABLE:YES;
#BPMS:0.000000=170.000000
;
#STOPS:;
#DELAYS:;
#WARPS:;
#TIMESIGNATURES:0.000000=4=4
;
#TICKCOUNTS:0.000000=4
;
#COMBOS:0.000000=1
;
#SPEEDS:0.000000=1.000000=0.000000=0
;
#SCROLLS:0.000000=1.000000
;
#LABELS:0.000000=Song Start
;
#BGCHANGES:;
#KEYSOUNDS:;
#ATTACKS:
;

//---------------dance-single - ----------------
#NOTEDATA:;
#CHARTNAME:;
#CHARTHASH:2110526203;
#STEPSTYPE:dance-single;
#BANNER:;
#DESCRIPTION:;
#CHARTSTYLE:;
#DIFFICULTY:Beginner;
#METER:4;
#METERF:4.000000;
#LASTSECONDHINT:169.984772;
#RADARVALUES:0.179335,0.267806,0.066952,0.044634,0.000000,225.000000,213.000000,12.000000,8.000000,0.000000,0.000000,0.000000,0.000000,0.000000,0.179335,0.267806,0.066952,0.044634,0.000000,225.000000,213.000000,12.000000,8.000000,0.000000,0.000000,0.000000,0.000000,0.000000;
#CREDIT:Supra the Hedgehog;
#NOTES:
// measure 0
0000
0000
0000
0000
,  // measure 1
0000
0000
0000
0000
,  // measure 2
0000
0000
0000
0000
,  // measure 3
0000
0000
0000
0000
,  // measure 4
1000
0000
0000
0000
,  // measure 5
0001
0000
0000
0000
,  // measure 6
0100
0000
0000
0000
,  // measure 7
0010
0010
0010
0010
,  // measure 8
1000
0000
1000
0000
,  // measure 9
0001
0000
0001
0000
,  // measure 10
0100
0000
0100
0000
,  // measure 11
0010
0000
0010
0000
,  // measure 12
1000
1000
1000
0000
,  // measure 13
0001
0001
0001
0000
,  // measure 14
0100
0100
0100
0000
,  // measure 15
0020
0000
0000
0030
,  // measure 16
1000
0000
0000
0000
,  // measure 17
0001
0000
0000
0000
,  // measure 18
0010
0000
0000
0000
,  // measure 19
0100
0000
1000
0000
,  // measure 20
0001
0000
0000
0000
,  // measure 21
0001
0000
0010
0000
,  // measure 22
1000
0000
0000
0000
,  // measure 23
1000
0000
0010
0000
,  // measure 24
0001
0000
1000
0000
,  // measure 25
0001
0000
1000
0000
,  // measure 26
0010
0000
0100
0000
,  // measure 27
0010
0000
0100
0000
,  // measure 28
0001
0000
1000
0000
,  // measure 29
0001
0000
0010
0000
,  // measure 30
0100
0000
0010
0000
,  // measure 31
0100
0000
1000
0000
,  // measure 32
1001
0000
0001
0000
,  // measure 33
0100
0000
0010
0000
,  // measure 34
0110
0000
0100
0000
,  // measure 35
0001
0000
1000
0000
,  // measure 36
1001
0000
0001
0000
,  // measure 37
0110
0000
0010
0000
,  // measure 38
1001
0000
0100
0000
,  // measure 39
1001
0000
0000
0000
,  // measure 40
0001
0000
0010
0000
,  // measure 41
1000
0000
0010
0000
,  // measure 42
0100
0100
0100
0000
,  // measure 43
1000
0000
0001
0000
,  // measure 44
1000
0000
0010
0000
,  // measure 45
0001
0000
0010
0000
,  // measure 46
0100
0100
0100
0000
,  // measure 47
0001
0000
1000
0000
,  // measure 48
0001
0000
0001
0000
,  // measure 49
1000
0000
1000
0000
,  // measure 50
0010
0010
0010
0000
,  // measure 51
0100
0000
0010
0000
,  // measure 52
1000
0000
1000
0000
,  // measure 53
0001
0000
0001
0000
,  // measure 54
0010
0010
0010
0000
,  // measure 55
0100
0000
0010
0000
,  // measure 56
0001
0000
0000
0000
,  // measure 57
1000
0000
0000
0000
,  // measure 58
0001
0000
0000
0000
,  // measure 59
1000
0000
0000
0000
,  // measure 60
0010
0000
0000
0000
,  // measure 61
0100
0000
0000
0000
,  // measure 62
0010
0000
0000
0000
,  // measure 63
0100
0000
0000
0000
,  // measure 64
0001
0000
0001
0000
,  // measure 65
1000
0000
1000
0000
,  // measure 66
0100
0000
0100
0000
,  // measure 67
0010
0000
0010
0000
,  // measure 68
0001
0001
0001
0000
,  // measure 69
1000
1000
1000
0000
,  // measure 70
0100
0100
0100
0000
,  // measure 71
0020
0000
0000
0030
,  // measure 72
0001
0000
0000
0000
,  // measure 73
1000
0000
0000
0000
,  // measure 74
0010
0000
0000
0000
,  // measure 75
0100
0000
0001
0000
,  // measure 76
1000
0000
0000
0000
,  // measure 77
1000
0000
0010
0000
,  // measure 78
0001
0000
0000
0000
,  // measure 79
0001
0000
0010
0000
,  // measure 80
2000
0000
0000
3000
,  // measure 81
0002
0000
0000
0003
,  // measure 82
0020
0000
0000
0030
,  // measure 83
0200
0000
0000
0300
,  // measure 84
2000
0000
0000
3000
,  // measure 85
0010
0000
1000
0000
,  // measure 86
0002
0000
0000
0003
,  // measure 87
0100
0000
0001
0000
,  // measure 88
1001
0000
1000
0000
,  // measure 89
0100
0000
0010
0000
,  // measure 90
0110
0000
0100
0000
,  // measure 91
1000
0000
0001
0000
,  // measure 92
1001
0000
1000
0000
,  // measure 93
0110
0000
0010
0000
,  // measure 94
1001
0000
0100
0000
,  // measure 95
1001
0000
0000
0000
,  // measure 96
1000
0000
0100
0000
,  // measure 97
0001
0000
0100
0000
,  // measure 98
0010
0010
0010
0000
,  // measure 99
0001
0000
1000
0000
,  // measure 100
0001
0000
0100
0000
,  // measure 101
1000
0000
0100
0000
,  // measure 102
0010
0010
0010
0000
,  // measure 103
1000
0000
0001
0000
,  // measure 104
1000
0000
1000
0000
,  // measure 105
0001
0000
0001
0000
,  // measure 106
0100
0100
0100
0000
,  // measure 107
0010
0000
0100
0000
,  // measure 108
0001
0000
0001
0000
,  // measure 109
1000
0000
1000
0000
,  // measure 110
0100
0100
0100
0000
,  // measure 111
0010
0000
0100
0000
,  // measure 112
1000
0000
0000
0000
,  // measure 113
1000
0000
0000
0000
,  // measure 114
0001
0000
0000
0000
,  // measure 115
0001
0000
0000
0000
,  // measure 116
0100
0000
0000
0000
,  // measure 117
0100
0000
0000
0000
,  // measure 118
0010
0000
0000
0000
,  // measure 119
0100
0100
0100
0100
,  // measure 120
0001
0000
0000
0000
;

//---------------dance-single - ----------------
#NOTEDATA:;
#CHARTNAME:;
#CHARTHASH:484135600;
#STEPSTYPE:dance-single;
#BANNER:;
#DESCRIPTION:;
#CHARTSTYLE:;
#DIFFICULTY:Easy;
#METER:7;
#METERF:7.000000;
#LASTSECONDHINT:169.984772;
#RADARVALUES:0.342728,0.401709,0.066952,0.228751,0.000000,430.000000,418.000000,12.000000,41.000000,0.000000,0.000000,0.000000,0.000000,0.000000,0.342728,0.401709,0.066952,0.228751,0.000000,430.000000,418.000000,12.000000,41.000000,0.000000,0.000000,0.000000,0.000000,0.000000;
#CREDIT:Supra the Hedgehog;
#NOTES:
0000
0000
0000
0000
,
0000
0000
0000
0000
,
0000
0000
0000
0000
,
0000
0000
0000
0000
,
0001
0000
1000
0000
,
0010
0000
0100
0000
,
0010
0000
1000
0000
,
0001
1000
0001
1001
,
0001
0000
0010
0001
0000
0000
0001
0000
,
1000
0000
0100
1000
0000
0000
1000
0000
,
0010
0000
1000
0010
0000
0000
0010
0000
,
0100
0000
0001
0100
0001
0000
0100
0000
,
0001
0010
0100
1000
,
1000
0010
0100
0001
,
0001
0010
0010
0100
,
0200
0000
0000
0310
,
0001
0000
0000
0001
0000
0000
0001
0000
,
1000
0000
0000
1000
0000
0000
1000
0000
,
0010
0000
0000
0010
0000
0000
0010
0000
,
0100
0000
0001
1000
,
0100
0000
0000
0100
0000
0000
0100
0000
,
1000
0000
0001
0000
,
0010
0000
0000
0010
0000
0000
0010
0000
,
0001
0000
1000
0000
,
0001
0001
1000
1000
,
0010
0010
0100
0100
,
0001
0001
0010
0010
,
0100
0000
0100
0000
1000
0001
1000
0000
,
0010
0010
0100
0100
,
0002
0013
2000
3010
,
0100
0100
0010
0010
,
2000
3100
0002
0103
,
1001
0001
0010
0100
,
1000
1000
0010
0100
,
0110
0010
1000
0001
,
0010
0010
0001
1000
,
1001
0001
0100
0010
,
1001
1000
0100
0010
,
0001
0100
0001
0000
1000
0010
1000
0000
,
0200
0000
0000
0300
,
1000
0100
0001
0100
,
1000
0010
0001
0010
,
1000
0000
0100
0010
0100
0000
0100
0000
,
2000
3000
0000
0002
0003
0000
2000
3000
,
0001
0100
1000
0100
,
0001
0010
1000
0010
,
0001
0000
0100
0010
0100
0000
0100
0000
,
0002
0003
0000
2000
3000
0000
0002
0003
,
1000
0100
0010
0010
,
0001
0100
0010
0010
,
0100
0000
0001
1000
0001
0000
0001
0000
,
0020
0030
0000
0200
0300
0000
0020
0030
,
0001
0100
0010
0010
,
1000
0100
0010
0010
,
0100
0000
1000
0001
1000
0000
1000
0000
,
0020
0030
0000
0200
0300
0000
0020
0030
,
1000
0000
0000
0100
0000
0000
1000
0000
,
0010
0000
0000
0100
0000
0000
0001
0000
,
0010
0000
0000
0001
0000
0000
0100
0000
,
0010
0000
1000
0001
,
0010
0000
0000
0100
0000
0000
0010
0000
,
0001
0000
0000
1000
0000
0000
0010
0000
,
0100
0000
0000
0010
0000
0000
1000
0000
,
0001
0000
0000
1001
,
1000
1000
0100
0100
,
0010
0000
0010
0000
0001
1000
0001
0000
,
0100
0100
0010
0010
,
1000
0000
1000
0000
0100
0010
0100
0000
,
1000
0010
0100
0001
,
0001
0010
0100
1000
,
1000
0010
0010
0100
,
0200
0000
0000
0310
,
1000
0000
0000
1000
0000
0000
1000
0000
,
0001
0000
0000
0001
0000
0000
0001
0000
,
0010
0000
0000
0010
0000
0000
0010
0000
,
0100
0000
1000
0001
,
0100
0000
0000
0100
0000
0000
0100
0000
,
0001
0000
1000
0000
,
0010
0000
0000
0010
0000
0000
0010
0000
,
1000
0000
0001
0000
,
2000
0100
0001
3100
,
0002
0100
1000
0103
,
0020
1000
0100
1030
,
0200
0000
0001
0000
0310
0100
0010
0000
,
2000
0100
0001
3010
,
0200
0301
0020
1030
,
0002
0100
1000
0013
,
0200
1300
0020
0031
,
1001
1000
0010
0100
,
0001
0001
0010
0100
,
0110
0010
0001
1000
,
0010
0010
1000
0001
,
1001
1000
0100
0010
,
1001
0001
0100
0010
,
1000
0100
1000
0000
0001
0010
0001
0000
,
0100
0100
0100
0100
,
0001
0010
1000
0010
,
0001
0100
1000
0100
,
0001
0000
0010
0100
0010
0000
0010
0000
,
0002
0003
0000
2000
3000
0000
0002
0003
,
1000
0010
0001
0010
,
1000
0100
0001
0100
,
1000
0000
0010
0100
0010
0000
0010
0000
,
2000
3000
0000
0002
0003
0000
2000
3000
,
0001
0010
0100
0100
,
1000
0010
0100
0100
,
0010
0000
1000
0001
1000
0000
1000
0000
,
0200
0300
0000
0020
0030
0000
0200
0300
,
1000
0010
0100
0100
,
0001
0010
0100
0100
,
0010
0000
0001
1000
0001
0000
0001
0000
,
0200
0300
0000
0020
0030
0000
0200
0300
,
0001
0000
0001
0000
,
1000
0000
1000
0000
,
0100
0000
0100
0000
,
0010
0000
0010
0000
,
0100
0000
0100
0000
,
1000
0000
1000
0000
,
0001
0000
0001
0000
,
0100
0010
0100
0110
,
1001
0000
0000
0000
;

//---------------dance-single - ----------------
#NOTEDATA:;
#CHARTNAME:;
#CHARTHASH:558245727;
#STEPSTYPE:dance-single;
#BANNER:;
#DESCRIPTION:;
#CHARTSTYLE:;
#DIFFICULTY:Medium;
#METER:10;
#METERF:10.000000;
#LASTSECONDHINT:169.984772;
#RADARVALUES:0.469458,0.502137,0.055793,0.340337,0.147851,589.000000,579.000000,10.000000,61.000000,0.000000,0.000000,0.000000,0.000000,0.000000,0.469458,0.502137,0.055793,0.340337,0.147851,589.000000,579.000000,10.000000,61.000000,0.000000,0.000000,0.000000,0.000000,0.000000;
#CREDIT:Supra the Hedgehog;
#NOTES:
0000
0000
0000
0000
,
0000
0000
0000
0000
,
0000
0000
0000
0000
,
0000
0000
0000
0000
,
1000
1000
0001
0001
,
0010
0010
0100
0100
,
0010
0010
0001
0001
,
0100
0010
0100
0000
0001
0000
1001
0000
,
1000
0000
0000
1000
0000
0000
0100
0000
0000
0100
0000
0000
1000
0000
0000
0000
,
0001
0000
0000
0001
0000
0000
0010
0000
0000
0010
0000
0000
0001
0000
0000
0000
,
0100
0000
0000
0100
0000
0000
0001
0000
0000
0001
0000
0000
0100
0000
0000
0000
,
0010
0000
0000
0010
0000
0000
0000
0000
1000
0000
0000
0000
0010
0000
0000
0000
,
1000
0000
0001
0000
0010
0100
0010
0000
,
0001
0000
1000
0000
0010
0100
0010
0000
,
1000
0000
0001
0010
0100
0000
1000
0010
,
0200
0000
0000
0310
,
1000
0000
0000
1000
0000
0000
1000
0000
0000
1000
0000
0000
1000
0000
0000
0000
,
0001
0000
0000
0001
0000
0000
0001
0000
0000
0001
0000
0000
0001
0000
0000
0000
,
0010
0000
0000
0010
0000
0000
0010
0000
0000
0010
0000
0000
0010
0000
0000
0000
,
0100
0000
0000
0100
0000
0000
0000
0000
1000
0000
0000
0000
0001
0000
0000
0000
,
0100
0000
0000
0100
0000
0000
0100
0000
0000
0100
0000
0000
0100
0000
0000
0000
,
0001
0000
0000
0001
0000
0000
0000
0000
1000
0000
0000
1000
0000
0000
0000
0000
,
0010
0000
0000
0010
0000
0000
0010
0000
0000
0010
0000
0000
0010
0000
0000
0000
,
1000
0000
0000
1000
0000
0000
0000
0000
0001
0000
0000
0001
0000
0000
0000
0000
,
1000
0000
0100
1000
0100
0000
0010
0000
,
0001
0000
0010
0001
0010
0000
0100
0000
,
1000
0000
0010
0100
0010
0000
0100
0000
,
0001
0000
0010
0100
0010
0100
1000
0000
,
0001
0000
0100
0010
1000
0000
0100
0000
,
1000
0000
1000
0010
0100
0000
0100
0001
,
1000
0000
0100
0010
0001
0000
0100
0000
,
0001
0000
0001
0010
0100
0000
0100
1000
,
0001
0000
0100
0000
0010
1000
0010
0000
,
0100
0000
0001
0000
1000
0100
1000
0000
,
1000
0000
0010
0000
0100
0001
0100
0000
,
0010
0000
1000
0000
0001
0010
0001
0000
,
0001
0100
0001
0000
0010
0100
1000
0000
,
1000
0010
1000
0000
0100
0010
0001
0000
,
0001
0100
0001
0100
0010
1000
0010
1000
,
0002
0000
0000
1003
,
0001
1000
0000
1000
0010
0100
0000
0100
,
0001
0010
0000
0010
0100
1000
0000
1000
,
0001
0100
0010
1000
0001
0000
0001
0000
,
0020
0000
0000
0100
0000
0000
0230
0000
0000
1000
0000
0000
1300
0000
0001
0000
,
1000
0001
0000
0001
0010
0100
0000
0100
,
1000
0010
0000
0010
0100
0001
0000
0001
,
1000
0100
0010
0001
1000
0000
1000
0000
,
0020
0000
0000
0100
0000
0000
0230
0000
0000
0001
0000
0000
0301
0000
1000
0000
,
0001
0000
0001
0000
1000
0100
2000
0000
,
3010
0000
0010
0000
0100
0001
0200
0000
,
0301
0010
0100
1000
0001
0000
0001
0000
,
0200
0000
0000
0010
0000
0000
0320
0000
0000
1000
0000
0000
1030
0000
0001
0000
,
1000
0000
1000
0000
0001
0100
0002
0000
,
0013
0000
0010
0000
0100
1000
0200
0000
,
1300
0010
0100
0001
1000
0000
1000
0000
,
0200
0000
0000
0010
0000
0000
0320
0000
0000
0001
0000
0000
0031
0000
1000
0000
,
0002
0100
1000
0010
,
2003
0100
0001
0010
,
3200
1000
0010
0001
,
0320
0000
0001
0000
0130
1000
0100
0000
,
2000
0010
0001
0100
,
3002
0010
1000
0100
,
0023
0001
0100
1000
,
0130
0000
0000
1001
,
0001
0101
1000
1010
,
0100
0000
1100
0000
0010
0001
0100
0000
,
0010
1010
0100
0101
,
0001
0000
0011
0000
1000
0100
0010
0000
,
0001
0000
1000
0000
0010
0100
0010
0000
,
1000
0000
0001
0000
0010
0100
0010
0000
,
0001
0000
1000
0010
0100
0000
0001
0010
,
0200
0000
0000
0310
,
0001
0000
0000
0001
0000
0000
0001
0000
0000
0001
0000
0000
0001
0000
0000
0000
,
1000
0000
0000
1000
0000
0000
1000
0000
0000
1000
0000
0000
1000
0000
0000
0000
,
0010
0000
0000
0010
0000
0000
0010
0000
0000
0010
0000
0000
0010
0000
0000
0000
,
0100
0000
0000
0100
0000
0000
0000
0000
0001
0000
0000
0000
1000
0000
0000
0000
,
0100
0000
0000
0100
0000
0000
0100
0000
0000
0100
0000
0000
0100
0000
0000
0000
,
1000
0000
0000
1000
0000
0000
0000
0000
0001
0000
0000
0001
0000
0000
0000
0000
,
0010
0000
0000
0010
0000
0000
0010
0000
0000
0010
0000
0000
0010
0000
0000
0000
,
0001
0000
0000
0001
0000
0000
0000
0000
1000
0000
0000
1000
0000
0000
0000
0000
,
0002
0203
0320
2030
,
3200
0320
0032
2003
,
3020
2030
3002
0203
,
0302
0000
0023
0000
0130
1000
0100
0000
,
0020
0032
0203
0320
,
2030
0000
3100
0010
0002
0000
1003
0010
,
0200
0302
2003
3200
,
0320
0000
0031
1000
0020
0000
0130
0001
,
1000
0000
0100
0000
0010
0001
0010
0000
,
0100
0000
1000
0000
0001
0100
0001
0000
,
0001
0000
0010
0000
0100
1000
0100
0000
,
0010
0000
0001
0000
1000
0010
1000
0000
,
1000
0100
1000
0000
0010
0100
0001
0000
,
0001
0010
0001
0000
0100
0010
1000
0000
,
1000
0100
1000
0100
0010
0001
0010
0001
,
2000
0001
0001
3001
,
1000
0001
0000
0001
0100
0010
0000
0010
,
1000
0100
0000
0100
0010
0001
0000
0001
,
1000
0010
0100
0001
1000
0000
1000
0000
,
0200
0000
0000
0010
0000
0000
0320
0000
0000
0001
0000
0000
0031
0000
1000
0000
,
0001
1000
0000
1000
0100
0010
0000
0010
,
0001
0100
0000
0100
0010
1000
0000
1000
,
0001
0010
0100
1000
0001
0000
0001
0000
,
0200
0000
0000
0010
0000
0000
0320
0000
0000
1000
0000
0000
1030
0000
0001
0000
,
1000
0000
1000
0000
0001
0010
0002
0000
,
0103
0000
0100
0000
0010
1000
0020
0000
,
1030
0100
0010
0001
1000
0000
1000
0000
,
0020
0000
0000
0100
0000
0000
0230
0000
0000
0001
0000
0000
0301
0000
1000
0000
,
0001
0000
0001
0000
1000
0010
2000
0000
,
3100
0000
0100
0000
0010
0001
0020
0000
,
0031
0100
0010
1000
0001
0000
0001
0000
,
0020
0000
0000
0100
0000
0000
0230
0000
0000
1000
0000
0000
1300
0000
0001
0000
,
1000
1000
0010
0010
,
0100
0100
0001
0001
,
0010
0010
0100
0100
,
1000
1000
0001
0001
,
0100
0100
0001
0001
,
1000
1000
0010
0010
,
1000
1000
0001
0001
,
0010
0100
0010
0000
0001
0000
1001
0000
,
0110
0000
0000
0000
;

//---------------dance-single - ----------------
#NOTEDATA:;
#CHARTNAME:;
#CHARTHASH:1827887650;
#STEPSTYPE:dance-single;
#BANNER:;
#DESCRIPTION:;
#CHARTSTYLE:;
#DIFFICULTY:Hard;
#METER:13;
#METERF:13.000000;
#LASTSECONDHINT:169.984772;
#RADARVALUES:0.633649,0.669516,0.200855,0.742047,0.535613,795.000000,759.000000,36.000000,133.000000,0.000000,0.000000,0.000000,0.000000,0.000000,0.633649,0.669516,0.200855,0.742047,0.535613,795.000000,759.000000,36.000000,133.000000,0.000000,0.000000,0.000000,0.000000,0.000000;
#CREDIT:Supra the Hedgehog;
#NOTES:
0000
0000
0000
0000
,
0000
0000
0000
0000
,
0000
0000
0000
0000
,
0000
0000
0000
0000
,
0002
0000
0000
0023
0000
0000
0032
0000
1000
0003
0000
0000
1000
0000
0000
0000
,
0100
0100
0010
0010
,
0200
0000
0000
2300
0000
0000
3200
0000
0010
0300
0000
0000
0010
0000
0000
0000
,
0001
0100
0001
0010
0001
0100
0010
0000
,
1000
0000
0000
0100
0000
0000
1000
0000
0000
0010
0000
0000
0100
0000
0001
0000
,
0010
0000
0000
0001
0000
0000
0100
0000
0000
0001
0000
0000
0010
0000
0100
0000
,
1000
0000
0000
0010
0000
0000
0100
0000
0000
0001
0000
0000
1000
0000
0100
0000
,
0010
0000
0000
0100
0000
0000
1000
0000
0001
0000
0100
0000
0010
0000
1000
0000
,
0001
0010
0001
0100
0001
0010
0001
0000
,
1000
0010
1000
0100
1000
0010
1000
0000
,
0100
1000
0100
0001
0100
1000
0100
0000
,
0020
0000
0000
0130
,
0001
0000
0000
0001
0000
0000
0001
0000
0000
0001
0000
0000
0100
0000
0100
0000
,
0010
0000
0000
0010
0000
0000
1000
0000
0000
1000
0000
0000
0001
0000
0010
0000
,
0100
0000
0000
0100
0000
0000
0010
0000
0000
0010
0000
0000
0001
0000
0001
0000
,
1000
0000
0000
1000
0000
0000
0010
0000
0100
0000
0001
0000
1000
0000
0000
0000
,
0100
0000
0000
0100
0000
0000
0100
0000
0000
0100
0000
0000
1000
0000
1000
0000
,
0010
0000
0000
0010
0000
0000
0200
0000
0301
0000
0000
0001
0000
0000
2000
0000
,
3010
0000
0000
0010
0000
0000
0010
0000
0000
0010
0000
0000
1000
0000
1000
0000
,
0001
0000
0000
0001
0000
0000
0020
0000
0130
0000
0000
0100
0000
0000
2000
0000
,
3001
0000
0000
0100
0001
0000
1000
0000
0010
1000
0000
0000
0100
0000
0100
0000
,
0010
0000
0000
0001
0010
0000
0100
0000
1000
0100
0000
0000
0010
0000
0001
0000
,
0100
0000
0000
0001
0100
0000
0010
0000
1000
0010
0000
0000
0100
0000
0100
0000
,
0001
0000
0000
0010
0001
0000
0100
0000
0010
0000
1000
0000
0001
0000
0000
0000
,
1000
0000
0000
0100
0010
0000
0100
0000
1000
0010
0000
0000
0100
0000
0100
0000
,
0001
0000
0000
0010
0100
0000
1000
0000
0010
0000
0000
0100
0001
0000
1000
0000
,
0001
0000
0000
0100
0010
0000
0100
0000
0001
0010
0000
0000
0100
0000
0100
0000
,
1000
0000
0000
0010
0100
0000
0001
0000
0010
0000
0000
0100
1000
0000
0001
0000
,
1000
0010
0100
0010
0001
0010
0100
0000
,
0001
0100
0010
0100
1000
0100
0010
0000
,
0100
0001
0010
0001
1000
0001
0010
0000
,
0100
1000
0010
1000
0001
1000
0010
0000
,
1000
0100
0010
1000
0010
0001
0100
0010
,
1000
0100
0001
0100
0010
0001
0100
0010
,
1000
0100
1000
0000
0010
0000
0100
0000
0001
0100
0001
0000
0010
0000
0100
0000
,
2000
0000
0000
3001
,
1001
0000
1000
0000
0000
0000
0100
0010
0000
0000
0010
0000
0000
0001
0000
0001
,
0000
0000
0100
0000
0000
0000
0010
1000
0000
0000
1000
0000
0000
0100
0000
0100
,
0010
0000
0001
0100
0000
0001
0100
0000
0010
0000
1000
0100
0000
1000
0100
0000
,
0020
0030
0000
0022
0033
0000
0200
0300
0000
2200
3300
0000
1000
0000
0001
0000
,
1001
0000
0001
0000
0000
0100
0000
0100
0000
0000
0010
0000
0000
1000
0000
1000
,
0000
0000
0100
0000
0000
0000
0010
0001
0000
0000
0001
0000
0000
0100
0000
0100
,
0010
0000
1000
0100
0000
1000
0100
0000
0010
0000
0001
0100
0000
0001
0100
0000
,
0020
0030
0000
2020
3030
0000
0200
0300
0000
0202
0303
0000
0001
0000
1000
0000
,
1001
1000
0100
0010
0001
0100
0020
0000
,
1030
0001
0100
0010
1000
0100
0020
0000
,
0130
0000
1000
0010
0000
1000
0010
0000
0100
0000
0001
0010
0000
0001
0010
0000
,
0200
0300
0000
2020
3030
0000
0200
0300
0000
0022
0033
0000
1000
0000
0001
0000
,
1001
0001
0010
1000
0001
0100
0020
0000
,
0031
1000
0010
0001
1000
0100
0020
0000
,
0130
0000
0001
0010
0000
0001
0010
0000
0100
0000
1000
0010
0000
1000
0010
0000
,
0200
0300
0000
0022
0033
0000
0200
0300
0000
2020
3030
0000
0001
0000
1000
0000
,
1001
0000
0000
0001
0000
0000
0100
0000
0000
0010
0000
0000
1000
0000
0100
0000
,
0010
0000
0000
1000
0000
0000
0010
0000
0000
0001
0000
0000
0100
0000
0010
0000
,
1000
0000
0000
0100
0000
0000
0001
0000
0000
0100
0000
0000
0010
0000
0001
0000
,
0100
0000
0000
0010
0000
0000
1000
0000
0100
0000
0001
0000
0100
0000
0010
0000
,
0001
0000
0000
1000
0000
0000
0100
0000
0000
0010
0000
0000
0001
0000
0100
0000
,
0010
0000
0000
0001
0000
0000
0010
0000
0000
1000
0000
0000
0100
0000
0010
0000
,
0001
0000
0000
0100
0000
0000
1000
0000
0000
0100
0000
0000
0010
0000
1000
0000
,
0100
0000
0000
1001
,
1000
1010
0001
0101
,
0010
0000
0000
0000
0011
0000
0000
0000
0100
1000
0000
0000
1001
0000
0000
0000
,
0001
0101
1000
1010
,
0100
0000
0000
0000
1100
0000
0000
0000
0010
0001
0000
0000
1001
0000
0000
0000
,
1000
0010
1000
0100
1000
0010
1000
0000
,
0001
0010
0001
0100
0001
0010
0001
0000
,
0100
0001
0100
1000
0100
0001
0100
0000
,
0020
0000
0000
0130
,
1000
0000
0000
1000
0000
0000
1000
0000
0000
1000
0000
0000
0100
0000
0100
0000
,
0010
0000
0000
0010
0000
0000
0001
0000
0000
0001
0000
0000
1000
0000
0010
0000
,
0100
0000
0000
0100
0000
0000
0010
0000
0000
0010
0000
0000
1000
0000
1000
0000
,
0001
0000
0000
0001
0000
0000
0010
0000
0100
0000
1000
0000
0001
0000
0000
0000
,
0100
0000
0000
0100
0000
0000
0100
0000
0000
0100
0000
0000
0001
0000
0001
0000
,
0010
0000
0000
0010
0000
0000
0200
0000
1300
0000
0000
1000
0000
0000
0002
0000
,
0013
0000
0000
0010
0000
0000
0010
0000
0000
0010
0000
0000
0001
0000
0001
0000
,
1000
0000
0000
1000
0000
0000
0020
0000
0130
0000
0000
0100
0000
0000
0002
0000
,
2003
0000
0000
3200
0000
0000
0320
0000
0000
0230
0000
0000
2300
0000
3002
0000
,
0203
0000
0000
0320
0000
0000
0230
0000
0000
0302
0000
0000
0023
0000
0230
0000
,
2300
0000
0000
3002
0000
0000
0023
0000
0000
0032
0000
0000
0203
0000
0320
0000
,
2030
0000
0000
3200
0000
0000
2300
0000
3002
0000
0203
0000
0320
0000
0030
0000
,
2000
0000
0000
3200
0000
0000
0320
0000
0000
0032
0000
0000
0023
0000
0230
0000
,
2300
0000
0000
3020
0000
0000
0230
0000
0302
0000
0000
0023
0000
0000
0230
0000
,
2300
0000
0000
3020
0000
0000
0230
0000
0000
0302
0000
0000
0203
0000
0320
0000
,
2030
0000
0000
3200
0000
0000
0320
0000
0032
0000
0000
0203
0000
0000
0320
0000
,
1030
0000
0100
0000
0010
0000
0001
0000
0100
0000
0010
1000
0010
0000
0000
0000
,
0100
0000
0001
0000
0010
0000
0100
0000
1000
0000
0010
0100
0010
0000
0000
0000
,
0100
0000
0001
0000
1000
0000
0100
0000
0010
0000
0001
0100
0001
0000
0000
0000
,
1000
0000
0010
0000
0100
0000
0001
0000
0010
0000
0100
1000
0100
0000
0000
0000
,
1000
0010
0100
1000
0100
0001
0010
0100
,
1000
0010
0001
0010
0100
0001
0010
0100
,
1000
0010
1000
0000
0100
0000
0010
0000
0001
0010
0001
0000
0100
0000
0010
0000
,
1000
0100
0010
0001
0100
0010
1000
0000
,
1001
0000
0001
0000
0000
0000
0010
0100
0000
0000
0100
0000
0000
1000
0000
1000
,
0000
0000
0010
0000
0000
0000
0100
0001
0000
0000
0001
0000
0000
0010
0000
0010
,
0100
0000
1000
0010
0000
1000
0010
0000
0100
0000
0001
0010
0000
0001
0010
0000
,
0200
0300
0000
2200
3300
0000
0020
0030
0000
0022
0033
0000
0001
0000
1000
0000
,
1001
0000
1000
0000
0000
0010
0000
0010
0000
0000
0100
0000
0000
0001
0000
0001
,
0000
0000
0010
0000
0000
0000
0100
1000
0000
0000
1000
0000
0000
0010
0000
0010
,
0100
0000
0001
0010
0000
0001
0010
0000
0100
0000
1000
0010
0000
1000
0010
0000
,
0200
0300
0000
0202
0303
0000
0020
0030
0000
2020
3030
0000
1000
0000
0001
0000
,
1001
0001
0010
0100
1000
0010
0200
0000
,
0301
1000
0010
0100
0001
0010
0200
0000
,
0310
0000
0001
0100
0000
0001
0100
0000
0010
0000
1000
0100
0000
1000
0100
0000
,
0020
0030
0000
0202
0303
0000
0020
0030
0000
2200
3300
0000
0001
0000
1000
0000
,
1001
1000
0100
0001
1000
0010
0200
0000
,
1300
0001
0100
1000
0001
0010
0200
0000
,
0310
0000
1000
0100
0000
1000
0100
0000
0010
0000
0001
0100
0000
0001
0100
0000
,
0020
0030
0000
2200
3300
0000
0020
0030
0000
0202
0303
0000
1000
0000
0001
0000
,
1002
0000
0000
0203
0000
0000
0302
0000
1000
0003
0000
0000
1000
0000
0000
0000
,
0010
0010
0100
0100
,
0020
0000
0000
2030
0000
0000
3020
0000
0100
0030
0000
0000
0100
0000
0000
0000
,
0001
0001
1000
1000
,
2000
0000
0000
3020
0000
0000
2030
0000
0001
3000
0000
0000
0001
0000
0000
0000
,
0100
0100
0010
0010
,
0200
0000
0000
0302
0000
0000
0203
0000
0010
0300
0000
0000
0010
0000
0000
0000
,
1000
0100
1000
0010
1000
0100
0010
0000
,
1001
0000
0000
0000
;

//---------------dance-single - ----------------
#NOTEDATA:;
#CHARTNAME:;
#CHARTHASH:2147483647;
#STEPSTYPE:dance-single;
#BANNER:;
#DESCRIPTION:;
#CHARTSTYLE:;
#DIFFICULTY:Challenge;
#METER:16;
#METERF:16.000000;
#LASTSECONDHINT:169.984772;
#RADARVALUES:0.796246,1.071225,0.334758,1.260921,1.012643,999.000000,939.000000,60.000000,226.000000,0.000000,0.000000,0.000000,0.000000,0.000000,0.796246,1.071225,0.334758,1.260921,1.012643,999.000000,939.000000,60.000000,226.000000,0.000000,0.000000,0.000000,0.000000,0.000000;
#CREDIT:Supra the Hedgehog;
#NOTES:
0000
0000
0000
0000
,
0000
0000
0000
0000
,
0000
0000
0000
0000
,
0000
0000
0000
0000
,
2000
0000
0000
3020
0000
0000
2030
0000
0001
3000
0000
0000
0001
0000
0000
0000
,
0100
0100
0010
0010
,
0200
0000
0000
0302
0000
0000
0203
0000
0010
0300
0000
0000
0010
0000
0000
0000
,
1000
0100
1000
0010
1000
0100
1000
0010
1000
0100
1000
0010
0100
0000
0000
0000
,
0001
0000
0010
0100
0000
0010
0001
0000
0010
0100
0000
0010
0001
0000
0100
0000
,
0010
0000
1000
0100
0000
1000
0010
0000
1000
0100
0000
1000
0010
0000
0100
0000
,
0001
0000
1000
0100
0000
0010
0001
0000
1000
0010
0000
0100
0001
0000
0010
0000
,
0100
0000
1000
0001
0000
0100
0010
0000
1000
0000
0100
0000
0010
0000
0001
0000
,
1000
0000
0010
0000
1000
0000
0100
0000
1000
0000
0010
0000
1000
0000
0100
0010
,
0001
0000
0100
0000
0001
0000
0010
0000
0001
0000
0100
0000
0001
0000
0010
0100
,
0010
0000
1000
0000
0010
0000
0001
0000
0010
0000
1000
0000
0010
0000
0001
1000
,
0010
0100
0010
0100
0001
1000
0001
1000
0100
0010
0001
1000
0010
0000
0000
0000
,
2000
0000
3000
2000
0000
3000
2000
0000
3000
2000
0000
3000
0200
0300
0200
0300
,
0020
0000
0030
0020
0000
0030
0002
0000
0003
0002
0000
0003
2000
3000
0020
0030
,
0200
0000
0300
0200
0000
0300
0020
0000
0030
0020
0000
0030
2000
3000
2000
3000
,
0002
0000
0003
0002
0000
0003
0020
0000
0230
0000
2300
0000
3002
0000
0003
0000
,
0200
0000
0300
0200
0000
0300
0200
0000
0300
0200
0000
0300
0002
0003
0002
0003
,
0020
0000
0030
0020
0000
0030
0200
0000
2300
0000
3000
2000
0000
3000
0002
0000
,
0023
0000
0030
0020
0000
0030
0020
0000
0030
0020
0000
0030
0002
0003
0002
0003
,
2000
0000
3000
2000
0000
3000
0020
0000
0230
0000
0300
0200
0000
0300
0002
0000
,
1003
0000
0000
0100
1000
0000
0010
0000
0001
0010
0000
0000
0100
0000
0100
0000
,
0001
0000
0000
0010
0001
0000
0100
0000
1000
0100
0000
0000
0010
0000
1000
0000
,
0100
0000
0000
0010
0001
0000
0100
0000
0010
0001
0000
0000
0010
0000
0010
0000
,
1000
0000
0000
0100
0010
0000
0001
0000
0100
0000
0010
0000
1000
0000
0000
0000
,
0100
0000
0000
0010
1000
0000
0010
0000
0001
0010
0000
0000
0100
0000
0100
0000
,
1000
0000
0000
0010
0100
0000
0001
0000
0010
0000
0000
0100
1000
0000
0001
0000
,
0100
0000
0000
0010
0001
0000
0010
0000
1000
0010
0000
0000
0100
0000
0100
0000
,
0001
0000
0000
0010
0100
0000
1000
0000
0010
0000
0000
0100
0001
0000
1000
0000
,
1001
0000
0001
1000
0100
0000
1000
0001
0100
0000
0001
1000
0010
0000
0100
0000
,
0001
0000
1000
0001
0010
0000
0001
1000
0010
0000
1000
0001
0100
0000
0010
0000
,
0110
0000
0100
0001
0010
0000
0100
1000
0010
0000
1000
0100
0010
0000
0001
0000
,
0100
0000
0010
1000
0100
0000
0010
0001
0100
0000
0001
0010
0100
0000
1000
0000
,
1001
0000
0001
0000
0100
0000
0100
0000
0010
0000
0010
0000
1000
0000
1000
0100
,
0010
0000
0010
0000
0001
0000
0001
0000
0100
0000
0100
0000
0010
0000
0010
1000
,
0001
0010
0001
0010
0100
1000
0100
1000
0001
0100
0001
0100
0010
1000
0010
1000
,
0002
0000
0000
1003
,
1001
0000
0001
0000
0100
0000
0010
1000
0010
0000
0100
0000
0001
0010
0000
0010
,
0001
0000
1000
0000
0100
0000
0010
0001
0010
0000
0100
0000
1000
0010
0000
0010
,
1000
0100
0010
0001
1000
0010
0100
0001
0010
0000
0100
1000
0000
0010
0100
0010
,
2000
3000
0000
2200
3300
0000
0022
0033
0000
0202
0303
0000
1010
0000
1000
0000
,
1001
0000
1000
0000
0010
0100
0000
0100
0001
0000
1000
0000
0001
0010
0000
0010
,
0100
0000
1000
0010
0000
0010
0100
0001
0000
0001
0010
0000
0100
1000
0000
1000
,
0001
0100
0010
1000
0001
0010
0100
1000
0010
0000
0100
0001
0000
0010
0100
0010
,
0002
0003
0000
0202
0303
0000
2020
3030
0000
2200
3300
0000
0011
0000
0001
0000
,
1001
0000
0001
0010
0001
0000
0100
1000
0100
0000
0010
0000
2000
0000
0000
0000
,
3001
0000
1000
0010
1000
0000
0100
0001
0100
0000
0010
0000
0002
0000
0000
0000
,
1003
0010
0100
0001
1000
0100
0010
0001
0100
0000
0010
1000
0000
0100
0010
0100
,
2000
3000
0000
2020
3030
0000
0022
0033
0000
0202
0303
0000
1100
0000
1000
0000
,
1001
0000
1000
0010
0001
0000
0010
1000
0100
0000
0010
0000
0002
0000
0000
0000
,
1003
0000
0001
0010
1000
0000
0010
0001
0100
0000
0010
0000
2000
0000
0000
0000
,
3001
0010
0100
1000
0001
0100
0010
1000
0100
0000
0010
0001
0000
0100
0010
0100
,
0002
0003
0000
0022
0033
0000
2020
3030
0000
2200
3300
0000
0101
0000
0001
0000
,
1001
0000
0000
1000
0000
0000
0100
0000
0000
0010
0000
0000
0001
0000
0100
0000
,
0010
0000
0000
0001
0000
0000
0010
0000
0000
1000
0000
0000
0100
0000
0010
0000
,
0001
0000
0000
0100
0000
0000
1000
0000
0000
0100
0000
0000
0010
0000
1000
0000
,
0100
0000
0000
0010
0000
0000
0001
0000
0100
0000
1000
0000
0100
0000
0010
0000
,
1000
0000
0000
0001
0000
0000
0100
0000
0000
0010
0000
0000
1000
0000
0100
0000
,
0010
0000
0000
1000
0000
0000
0010
0000
0000
0001
0000
0000
0100
0000
0010
0000
,
1000
0000
0000
0100
0000
0000
0001
0000
0000
0100
0000
0000
0010
0000
0001
0000
,
0100
0000
0000
1001
,
0001
0011
1000
1100
,
0010
0000
0000
0000
1010
0000
0000
0000
0100
0101
0000
0000
1001
0000
0000
0000
,
1000
1100
0001
0011
,
0100
0000
0000
0000
0101
0000
0000
0000
0010
1010
0000
0000
1001
0000
0000
0000
,
0001
0000
0010
0000
0001
0000
0100
0000
0001
0000
0010
0000
0001
0000
0100
0010
,
1000
0000
0100
0000
1000
0000
0010
0000
1000
0000
0100
0000
1000
0000
0010
0100
,
0010
0000
0001
0000
0010
0000
1000
0000
0010
0000
0001
0000
0010
0000
1000
0001
,
0010
0100
0010
0100
1000
0001
1000
0001
0100
0010
1000
0001
0010
0000
0000
0000
,
0002
0000
0003
0002
0000
0003
0002
0000
0003
0002
0000
0003
0200
0300
0200
0300
,
0020
0000
0030
0020
0000
0030
2000
0000
3000
2000
0000
3000
0002
0003
0020
0030
,
0200
0000
0300
0200
0000
0300
0020
0000
0030
0020
0000
0030
0002
0003
0002
0003
,
2000
0000
3000
2000
0000
3000
0020
0000
0230
0000
0302
0000
2003
0000
3000
0000
,
0200
0000
0300
0200
0000
0300
0200
0000
0300
0200
0000
0300
2000
3000
2000
3000
,
0020
0000
0030
0020
0000
0030
0200
0000
0302
0000
0003
0002
0000
0003
2000
0000
,
3020
0000
0030
0020
0000
0030
0020
0000
0030
0020
0000
0030
2000
3000
2000
3000
,
0002
0000
0003
0002
0000
0003
0020
0000
0230
0000
0300
0200
0000
0300
2000
0000
,
3002
0000
0000
0203
0000
0000
2300
0000
0000
3200
0000
0000
0302
0000
2003
0000
,
3200
0000
0000
0302
0000
0000
0203
0000
0000
2300
0000
0000
3020
0000
0230
0000
,
0302
0000
0000
0023
0000
0000
2030
0000
0000
3020
0000
0000
0032
0000
2003
0000
,
3020
0000
0000
0032
0000
0000
0023
0000
2030
0000
3200
0000
0320
0000
0030
0000
,
0002
0000
0000
0203
0000
0000
0320
0000
0000
0032
0000
0000
0023
0000
2030
0000
,
3002
0000
0000
0023
0000
0000
2030
0000
3002
0000
0000
0203
0000
0000
2300
0000
,
3002
0000
0000
0023
0000
0000
0230
0000
0000
0302
0000
0000
0203
0000
2300
0000
,
3002
0000
0000
0203
0000
0000
2300
0000
3002
0000
0000
0023
0000
0000
1030
0000
,
1001
0000
0001
1000
0001
0000
0010
0000
0100
1000
0100
1000
0100
0000
0010
0000
,
0001
0100
0001
0100
0001
0000
1000
0000
0010
1000
0010
1000
0010
0000
0100
0000
,
0110
0000
0100
0010
0100
0000
0001
0000
1000
0100
1000
0100
1000
0000
0010
0000
,
0100
0001
0100
0001
0100
0000
0010
0000
1000
0010
1000
0010
1000
0000
0001
0000
,
1001
0000
0001
0000
0010
0000
0010
0000
0100
0000
0100
0000
1000
0000
1000
0010
,
0100
0000
0100
0000
0001
0000
0001
0000
0010
0000
0010
0000
0100
0000
0100
1000
,
0001
0100
0001
0100
0010
1000
0010
1000
0001
0010
0001
0010
0100
1000
0100
1000
,
0001
0100
0010
1000
0100
0010
0001
0100
0010
1000
0100
0010
0001
0000
0000
0000
,
1001
0000
1000
0000
0010
0000
0100
0001
0100
0000
0010
0000
1000
0100
0000
0100
,
1000
0000
0001
0000
0010
0000
0100
1000
0100
0000
0010
0000
0001
0100
0000
0100
,
0001
0000
0001
0010
0000
0010
0100
0000
0100
0000
1000
0010
0000
0100
0010
1000
,
0002
0003
0000
0022
0033
0000
2200
3300
0000
2020
3030
0000
0101
0000
0001
0000
,
1001
0000
0001
0000
0100
0010
0000
0010
1000
0000
0001
0000
1000
0100
0000
0100
,
0010
0000
0001
0100
0000
0100
0010
1000
0000
1000
0100
0000
0010
0001
0000
0001
,
1000
0000
1000
0010
0000
0010
0100
0001
0010
0000
0100
1000
0000
0100
0010
0001
,
2000
3000
0000
2020
3030
0000
0202
0303
0000
0022
0033
0000
1100
0000
1000
0000
,
1001
0000
1000
0100
1000
0000
0010
0001
0010
0000
0100
0000
0002
0000
0000
0000
,
1003
0000
0001
0100
0001
0000
0010
1000
0010
0000
0100
0000
2000
0000
0000
0000
,
3001
0000
0001
0100
0000
0100
0010
0000
0010
0000
1000
0100
0000
0010
0100
1000
,
0002
0003
0000
0202
0303
0000
2200
3300
0000
2020
3030
0000
0011
0000
0001
0000
,
1001
0000
0001
0100
1000
0000
0100
0001
0010
0000
0100
0000
2000
0000
0000
0000
,
3001
0000
1000
0100
0001
0000
0100
1000
0010
0000
0100
0000
0002
0000
0000
0000
,
1003
0000
1000
0100
0000
0100
0010
0001
0100
0000
0010
1000
0000
0010
0100
0001
,
2000
3000
0000
2200
3300
0000
0202
0303
0000
0022
0033
0000
1010
0000
1000
0000
,
2001
0000
0000
3200
0000
0000
2300
0000
0001
3000
0000
0000
0001
0000
0000
0000
,
0010
0010
0100
0100
,
0020
0000
0000
0032
0000
0000
0023
0000
0100
0030
0000
0000
0100
0000
0000
0000
,
1000
1000
0001
0001
,
0002
0000
0000
0023
0000
0000
0032
0000
1000
0003
0000
0000
1000
0000
0000
0000
,
0100
0100
0010
0010
,
0200
0000
0000
2300
0000
0000
3200
0000
0010
0300
0000
0000
0010
0000
0000
0000
,
0001
0100
0001
0010
0001
0100
0001
0010
0001
0100
0001
0010
0100
0000
0000
0000
,
1001
0000
0000
0000
;
