#TITLE:Crazy Shuffle;
#SUBTITLE:;
#ARTIST:Yooh;
#TITLETRANSLIT:;
#SUBTITLETRANSLIT:;
#ARTISTTRANSLIT:;
#GENRE:;
#CREDIT:;
#BANNER:Crazy Shuffle.png;
#BACKGROUND:Crazy Shuffle-bg.png;
#LYRICSPATH:;
#CDTITLE:cdtitle.png;
#MUSIC:Crazy Shuffle.ogg;
#OFFSET:0.000000;
#SAMPLESTART:31.875000;
#SAMPLELENGTH:15.000000;
#SELECTABLE:YES;
#BPMS:0.000000=128.000000
;
#STOPS:
;
#BGCHANGES:;
#KEYSOUNDS:;
#ATTACKS:;

//---------------dance-single - ----------------
#NOTES:
     dance-single:
     :
     Hard:
     11:
     0.507150,0.517384,0.238793,0.103477,0.131336,446.000000,416.000000,30.000000,13.000000,0.000000,0.000000,0.507150,0.517384,0.238793,0.103477,0.131336,446.000000,416.000000,30.000000,13.000000,0.000000,0.000000:
0000
0000
0000
0000
,
0001
0010
0100
1000
,
0001
0100
0010
1000
,
0010
0100
0001
1000
,
0100
0010
0100
1000
,
0001
0101
0010
1010
,
1000
1100
0001
0011
,
0010
0110
1000
1001
,
0001
0011
1100
0011
,
1000
0000
0000
0100
0000
0000
0100
0000
0000
0100
0000
0000
0010
0000
0010
0000
,
0001
0000
0000
1000
0000
0000
1000
0000
0000
1000
0000
0000
0100
0000
0010
0000
,
0100
0000
0000
0010
0000
0000
0010
0000
0000
0010
0000
0000
0100
0000
0100
0000
,
1000
0000
0000
0001
0000
0000
0001
0000
0000
0001
0000
0000
0010
0000
0010
0000
,
0001
1000
0100
0010
0001
1000
0100
0010
,
0100
1000
0001
0100
0010
0100
0001
1000
,
0100
0100
0010
0010
0001
0001
1000
1000
,
0100
0000
0010
0000
0000
0010
0000
0000
0010
0001
0000
0000
1000
0000
0000
0001
0000
0000
1001
0000
0000
1001
0000
0000
,
1000
0010
0100
0010
0001
0010
0100
0001
,
1000
0100
0010
0100
1000
0001
1000
0000
,
0001
0100
0010
0100
0001
0010
1000
0010
,
0100
1000
0010
0100
0001
0010
0200
0000
,
1300
0001
1000
0010
0100
0001
0010
1000
,
0010
0100
0001
0100
1000
0010
0100
0000
,
0001
0010
0100
1000
0010
0100
0010
1000
,
0100
0000
0000
0100
0000
0000
0010
0000
0000
0010
0000
0000
0001
0000
0000
0000
,
0100
0100
1001
0001
0100
0010
1000
0001
,
0010
1000
0010
0001
1000
0100
0001
0000
,
0100
1000
0010
0001
0010
0100
0001
0010
,
0100
1000
0010
0100
0001
0100
0020
0000
,
1030
0100
0010
0100
1000
0010
0001
0010
,
0100
0001
0010
0010
0100
2000
3001
0001
,
0010
0010
1001
0100
1000
0010
0100
0001
,
0010
0000
0000
0010
0000
0000
0100
0000
0000
0100
0000
0000
1001
0000
0000
0000
,
0200
0000
0000
0000
0000
0000
0020
0330
,
1000
0000
0000
0000
0000
0000
1100
0000
0000
0000
0000
0100
0000
0000
0000
0100
0000
0000
0010
0000
0000
0000
0000
0000
,
0001
0000
0000
0000
0000
0000
0101
0000
0000
0000
0000
0010
0000
0000
0000
0010
0000
0000
1000
0000
0000
0000
0000
0000
,
0100
0000
0000
0000
0000
0000
0110
0000
0000
0000
0000
0001
0000
0000
0000
0001
0000
0000
0010
0000
0000
0010
0000
0000
,
0100
0000
0000
0000
0000
0000
1010
0000
0000
0000
0000
1000
0000
0000
0000
1000
0000
0000
0001
0000
0000
0000
0000
0000
,
0010
0000
0000
0000
0000
0000
0011
0000
0000
0000
0000
0100
0000
0000
0000
0100
0000
0000
1000
0000
0000
1000
0000
0000
,
0010
0000
0000
0000
0000
0000
1010
0000
0000
0000
0000
0001
0000
0000
0000
0001
0000
0000
0100
0000
0000
0100
0000
0000
,
0020
0130
0200
0301
0002
1003
2000
0000
,
3001
0000
0000
0000
0000
0010
0001
0000
0000
0010
0000
0000
0000
0000
0001
1000
0000
0000
0001
0000
0000
0001
0000
0000
,
0100
0000
0000
0000
0000
0010
1000
0000
0000
0010
0000
0000
0000
0000
0100
0001
0000
0000
0100
0000
0000
0100
0000
0000
,
0010
0000
0000
0000
0000
1000
0100
0000
0000
1000
0000
0000
0000
0000
0001
0010
0000
0000
0001
0000
0000
0001
0000
0000
,
0100
0000
0000
0000
0000
0010
1000
0000
0000
0010
0000
0000
0000
0000
1000
0100
0000
0000
1000
0000
0000
1000
0000
0000
,
0001
0010
0100
1000
0001
0010
0100
0010
,
0001
1000
0010
0100
0010
1000
0001
0010
,
0001
0001
0100
0100
0010
0010
1000
1000
,
0100
0100
0100
1001
,
1010
0000
0101
0000
,
0011
1100
0110
1001
,
0001
0010
0100
1000
0010
0001
0010
0100
,
0001
0010
0001
1000
0100
0010
0200
0000
,
1300
0001
0010
0001
1000
0100
0010
0001
,
0100
1000
0100
0010
1000
0001
0010
0000
,
0001
1000
0100
0010
0100
1000
0010
0100
,
0001
0000
0000
0001
0000
0000
0010
0000
0000
0010
0000
0000
0100
0000
0000
0000
,
1001
1000
0010
0100
0001
0010
0001
0100
,
1000
0100
0010
1000
0001
0010
1000
0000
,
0010
0001
1000
0100
0010
0100
1000
0010
,
0001
0010
0100
0010
1000
0001
0020
0000
,
0031
1000
0100
1000
0010
0100
0001
0010
,
1000
0010
0001
0100
0010
2000
3200
0000
,
0310
0010
1001
0100
1000
0010
0100
0001
,
1000
0000
0000
1000
0000
0000
0100
0000
0000
0100
0000
0000
0010
0000
0000
0000
,
0110
0000
0000
0000
;

//---------------dance-single - ----------------
#NOTES:
     dance-single:
     :
     Challenge:
     14:
     0.653837,0.724338,0.366149,0.334310,0.632801,575.000000,529.000000,46.000000,42.000000,0.000000,0.000000,0.653837,0.724338,0.366149,0.334310,0.632801,575.000000,529.000000,46.000000,42.000000,0.000000,0.000000:
// measure 0
0000
0000
0000
0000
,  // measure 1
1000
0010
0100
0001
,  // measure 2
0010
1000
0100
0001
,  // measure 3
0010
0001
0100
1000
,  // measure 4
0010
0100
0010
0001
,  // measure 5
1000
1010
0010
0110
,  // measure 6
0100
0101
0010
0011
,  // measure 7
0100
1100
1000
1001
,  // measure 8
0010
1010
0011
0101
,  // measure 9
1100
0000
0000
0000
0000
1000
0100
0000
0000
1000
0000
0000
0000
0000
0010
0100
0000
0000
0010
0000
0000
0100
0000
0100
,  // measure 10
0001
0000
0000
0000
0000
0010
0001
0000
0000
0010
0000
0000
0000
0000
0001
0100
0000
0000
0001
0000
0000
0100
0000
0001
,  // measure 11
1000
0000
0000
0000
0000
0010
1000
0000
0000
0010
0000
0000
0000
0000
1000
0001
0000
0000
1000
0000
0000
0001
0000
0001
,  // measure 12
0100
0000
0000
0000
0000
0010
0100
0000
0000
0010
0000
0000
0000
0000
1000
0100
0000
0000
1000
0000
0000
0100
0000
1000
,  // measure 13
0001
0010
0100
1000
0001
0100
0010
1000
,  // measure 14
0100
0010
0100
1000
0001
0010
0100
0010
,  // measure 15
0001
0000
0100
0001
0000
0100
0001
0000
0100
0001
0000
0100
0010
0000
1000
0010
0000
1000
0010
0000
1000
0010
0000
1000
,  // measure 16
0001
0000
1000
0000
0000
0010
0000
0000
0100
0010
0000
0000
1000
0000
0000
0100
0000
0000
0110
0000
0000
1001
0000
0000
,  // measure 17
0001
0000
0010
0001
0000
0000
0100
0000
0000
0010
0000
0000
0000
0000
1000
0100
0000
1000
0000
0000
0001
0000
0000
1000
,  // measure 18
0010
0000
0100
0010
0000
0000
1000
0000
0000
0100
0000
0000
0000
0000
0010
0001
0000
0010
0000
0000
1000
0000
0000
0000
,  // measure 19
0010
0000
0001
0010
0000
0000
0100
0000
0000
1000
0000
0000
0000
0000
0010
1000
0000
0010
0000
0000
0100
0000
0000
0001
,  // measure 20
1000
0000
0010
1000
0000
0000
0001
0000
0000
0100
0000
0000
0010
0000
1000
0100
0000
0010
0200
0000
0000
0000
0000
0000
,  // measure 21
0310
0000
0001
0010
0000
0000
0100
0000
0000
0010
0000
0000
0000
0000
0001
1000
0000
0001
0000
0000
0100
0000
0000
0001
,  // measure 22
0010
0000
0100
0010
0000
0000
0001
0000
0000
0100
0000
0000
0000
0000
0010
1000
0000
0010
0000
0000
0100
0010
0000
0000
,  // measure 23
2000
0000
0000
0100
0000
0000
3020
0000
0000
0032
0000
0000
0000
0000
0013
0100
0000
0000
0002
0000
0000
2003
0000
0000
,  // measure 24
3200
0000
0000
0010
0000
0000
2300
0000
0000
0010
0000
0000
0020
0000
3030
0000
,  // measure 25
0110
0000
0000
0110
0000
0000
1001
0000
0000
1000
0000
0000
0000
0000
0001
0010
0000
0100
0000
0000
0010
0000
0000
0001
,  // measure 26
1000
0000
0010
0100
0000
0000
0010
0000
0000
1000
0000
0000
0000
0000
0100
0010
0000
0100
1000
0000
0100
0000
0000
0000
,  // measure 27
0010
0000
0001
0100
0000
0000
0001
0000
0000
1000
0000
0000
0000
0000
0010
0100
0000
0001
0000
0000
0010
0000
0000
0001
,  // measure 28
1000
0000
0100
0010
0000
0000
0001
0000
0000
0100
0000
0000
0001
0000
0000
0010
0100
0010
0200
0000
0000
0000
0000
0000
,  // measure 29
0310
0000
0001
1000
0000
0000
0100
0000
0000
0010
0000
0000
0000
0000
0001
0010
0000
0100
0000
0000
0010
0000
0000
0001
,  // measure 30
1000
0000
0100
1000
0000
0000
1100
0000
0000
0001
0000
0000
0011
0000
0000
0020
0000
0000
0130
0000
0000
0100
0000
0000
,  // measure 31
0110
0000
0000
0110
0000
0000
1001
0000
0000
0002
0000
0000
0000
0000
0103
0010
0000
0000
2000
0000
0000
3200
0000
0000
,  // measure 32
0320
0000
0000
0100
0000
0000
0032
0000
0000
0100
0000
0000
0200
0000
0303
0000
,  // measure 33
2000
0000
0000
0000
0000
0000
0000
0000
0000
0000
0000
0000
0000
0000
0000
0000
0000
3001
0100
0000
0001
0100
0000
0010
,  // measure 34
0100
0000
0000
0000
0000
0000
0101
0000
0000
0000
0000
0001
0000
0000
0000
0010
0000
0000
1100
0000
0000
0000
0000
0000
,  // measure 35
1000
0000
0000
0000
0000
0000
0110
0000
0000
0000
0000
0010
0000
0000
0000
1000
0000
0000
0011
0000
0000
0000
0000
0000
,  // measure 36
0010
0000
0000
0000
0000
0000
1100
0000
0000
0000
0000
1000
0000
0000
0000
0010
0000
0000
0100
0000
0000
0100
0000
0000
,  // measure 37
0001
0000
0000
0000
0000
0000
1010
0000
0000
0000
0000
0010
0000
0000
0000
0100
0000
0000
0011
0000
0000
0000
0000
0000
,  // measure 38
0010
0000
0000
0000
0000
0000
1001
0000
0000
0000
0000
0001
0000
0000
0000
0010
0000
0000
1100
0000
0000
1000
0000
0000
,  // measure 39
0010
0000
0000
0000
0000
0000
0101
0000
0000
0000
0000
0100
0000
0000
0000
0001
0000
0000
1010
0000
0000
1000
0000
0000
,  // measure 40
0200
0000
0000
0310
0000
0000
0020
0000
0000
0031
0000
0001
2000
0000
0000
3100
0000
0000
0100
0010
0100
0010
0100
0010
,  // measure 41
0100
0000
0000
0000
0000
0010
0001
0000
0000
0010
0000
0000
0000
0000
0100
1000
0000
0000
0100
0000
0000
0010
0000
0001
,  // measure 42
1000
0000
0000
0000
0000
0100
0010
0000
0000
0100
0000
0000
0000
0000
1000
0010
0000
0000
2020
0000
0000
3030
0000
0000
,  // measure 43
0101
0000
0000
0000
0000
0001
0100
0000
0000
0001
0000
0000
0000
0000
0010
0100
0000
0000
0010
0000
0000
0100
0000
1000
,  // measure 44
0100
0000
0000
0000
0000
1000
0010
0000
0000
1000
0000
0000
0000
0000
0001
1000
0000
0000
0001
0000
0000
0002
0000
0000
,  // measure 45
1003
0000
0100
1000
0000
0000
0010
0000
0000
0100
0000
0000
0001
0000
0010
0001
0000
0000
1000
0000
0000
0010
0000
0000
,  // measure 46
0100
0000
0001
0100
0000
0000
0010
0000
0000
1000
0000
0000
0001
0000
1000
0001
0000
0000
0100
0000
0000
0010
0000
0000
,  // measure 47
1000
0000
0000
0100
0000
0000
0010
0000
0000
0001
0000
0000
1000
0000
0100
1000
0000
0100
1000
0000
0100
1000
0000
0100
,  // measure 48
1000
0010
0100
0001
0010
0100
1001
0000
,  // measure 49
1010
0000
1000
0100
0000
0000
1000
0000
0000
0000
0000
0000
0101
0000
0001
0010
0000
0000
0001
0000
0000
0000
0000
0000
,  // measure 50
1100
0000
0100
0010
0000
0000
0011
0000
0010
0100
0000
0000
1001
0000
0001
1000
0000
0000
0100
0000
0000
0200
0000
0000
,  // measure 51
0310
0000
0001
0100
0000
0000
0001
0000
0000
1000
0000
0000
0000
0000
0010
0100
0000
0001
0000
0000
0010
0000
0000
0001
,  // measure 52
1000
0000
0100
0010
0000
0000
0100
0000
0000
1000
0000
0000
0001
0000
0010
0100
0000
0010
0002
0000
0000
0000
0000
0000
,  // measure 53
1003
0000
0001
0100
0000
0000
0001
0000
0000
0010
0000
0000
0000
0000
0100
1000
0000
0010
0000
0000
0001
0000
0000
0010
,  // measure 54
0100
0000
0001
0010
0000
0000
0100
0000
0000
1000
0000
0000
0000
0000
0010
0100
0000
0010
0000
0000
1000
0001
0000
0000
,  // measure 55
0200
0000
0000
0010
0000
0000
0302
0000
0000
2003
0000
0000
0000
0000
3100
0010
0000
0000
0200
0000
0000
2300
0000
0000
,  // measure 56
3002
0000
0000
0100
0000
0000
0023
0000
0000
0100
0000
0000
0200
0000
0330
0000
,  // measure 57
0001
0000
0010
0001
0000
0000
0001
0000
0010
0001
0000
0000
1000
0000
0100
1000
0000
0000
1000
0000
0100
1000
0000
0000
,  // measure 58
0010
0000
0100
0010
0000
0000
0010
0000
0100
0010
0000
0000
0100
0000
0001
0100
0000
0001
0010
0000
0000
0000
0000
0000
,  // measure 59
0100
0000
1000
0100
0000
0000
0100
0000
1000
0100
0000
0000
0010
0000
0001
0010
0000
0000
0010
0000
0001
0010
0000
0000
,  // measure 60
0001
0000
1000
0001
0000
0000
0001
0000
1000
0001
0000
0000
0100
0000
0000
0010
1000
0010
2000
0000
0000
0000
0000
0000
,  // measure 61
3001
0000
0100
0010
0000
0000
0100
0000
0001
1000
0000
0000
0100
0000
1000
0010
0000
0000
1000
0000
0001
0100
0000
0000
,  // measure 62
0101
0000
0000
0010
0000
0000
1010
0000
0000
1000
0000
0000
1100
0000
0000
0002
0000
0000
0013
0000
0100
0000
0010
0000
,  // measure 63
0110
0000
0000
0110
0000
0000
1001
0000
0000
0002
0000
0000
0000
0000
0000
0103
1000
0000
0200
0000
0000
0320
0000
0000
,  // measure 64
2030
0000
0000
0010
0000
0000
3200
0000
0000
0010
0000
0000
0020
0000
0330
0000
,  // measure 65
1001
0000
0000
0000
;

//---------------dance-single - ----------------
#NOTES:
     dance-single:
     :
     Beginner:
     3:
     0.138727,0.181084,0.015920,0.039799,0.000000,122.000000,120.000000,2.000000,5.000000,0.000000,0.000000,0.138727,0.181084,0.015920,0.039799,0.000000,122.000000,120.000000,2.000000,5.000000,0.000000,0.000000:
0000
0000
0000
0000
,
0100
0000
0000
0000
,
0010
0000
0000
0000
,
1000
0000
0000
0000
,
0001
0000
0000
0000
,
1000
0000
0000
0000
,
0010
0000
0000
0000
,
0100
0000
0000
0000
,
0001
0000
0001
0000
,
0010
0010
0000
0000
,
0100
0100
0000
0000
,
1000
1000
0000
0000
,
0001
0001
0000
0000
,
1000
0000
0001
0000
,
1000
0000
0001
0000
,
0010
0010
0010
0010
,
0000
0000
0000
0000
,
0001
0000
1000
0000
,
0100
0000
1000
0000
,
0010
0000
0100
0000
,
0001
0000
0010
0000
,
0010
0000
0001
0000
,
0100
0000
0010
0000
,
1000
0000
0100
0000
,
0020
0000
0000
0030
,
0100
0100
0100
0000
,
0010
0000
0001
0000
,
0100
0000
0001
0000
,
1000
0000
0100
0000
,
0100
0000
1000
0000
,
0010
0010
0010
0000
,
1000
1000
1000
0000
,
0200
0000
0000
0300
,
0020
0000
0000
0030
,
0000
0001
0000
0001
,
0000
1000
0000
1000
,
0000
0100
0000
0100
,
0000
0010
0000
0010
,
0000
0100
0000
0100
,
0000
1000
0000
1000
,
0001
0001
0001
0000
,
1001
0000
0000
0000
,
0010
0000
0000
0000
,
0110
0000
0000
0000
,
1000
0000
0000
0000
,
0001
0000
1000
0000
,
0001
0000
1000
0000
,
0100
0100
0100
0100
,
0000
0000
0000
0000
,
0010
0000
0100
0000
,
0010
0010
0010
0000
,
0001
0000
0100
0000
,
0010
0000
1000
0000
,
1000
0000
0010
0000
,
0100
0000
0001
0000
,
0010
0000
0100
0000
,
0020
0000
0000
0030
,
0100
0000
1000
0000
,
0001
0000
0010
0000
,
0001
0000
1000
0000
,
0010
0000
0100
0000
,
0100
0000
0001
0000
,
0010
0010
0010
0000
,
0001
0001
0001
0000
,
0200
0000
0000
0300
,
0010
0000
0000
0000
;

//---------------dance-single - ----------------
#NOTES:
     dance-single:
     :
     Easy:
     5:
     0.245615,0.258692,0.047759,0.127356,0.000000,216.000000,210.000000,6.000000,16.000000,0.000000,0.000000,0.245615,0.258692,0.047759,0.127356,0.000000,216.000000,210.000000,6.000000,16.000000,0.000000,0.000000:
0000
0000
0000
0000
,
1000
0000
1000
0000
,
0010
0000
0010
0000
,
0100
0000
0100
0000
,
0001
0000
0001
0000
,
0010
0000
0010
0000
,
0100
0000
0100
0000
,
1000
0000
1000
0000
,
0001
0001
0001
0000
,
0010
0001
0010
0000
,
0100
1000
0100
0000
,
1000
0010
1000
0000
,
0001
0100
0001
0000
,
1000
0000
0001
0000
,
1000
0000
0001
0000
,
0010
0100
0010
0100
,
0010
0000
0000
0000
,
1000
0001
0100
0001
,
0010
0100
1000
1000
,
0010
1000
0100
1000
,
0001
0100
0010
0200
,
0301
0010
0100
0010
,
1000
0010
0001
0001
,
0100
0010
1000
0001
,
0020
0100
0100
0030
,
0010
1001
0100
1000
,
0010
0001
0010
0010
,
1000
0001
0010
0100
,
0010
0001
0100
0002
,
1003
0010
0100
1000
,
0100
0001
0001
0020
,
0130
1001
1000
0001
,
0200
0010
0010
0300
,
2002
0000
0000
3003
,
0010
0001
0000
0001
,
0010
1000
0000
1000
,
0010
0001
0000
1000
,
1000
0100
0000
1000
,
0100
0001
0000
0001
,
0100
1000
0000
0001
,
0010
0100
0010
0100
,
0020
0001
0001
0031
,
0200
1000
1300
0100
,
2000
0010
0010
3010
,
0002
0100
0103
0001
,
0100
0000
0010
0000
,
1000
0000
0001
0000
,
0100
0010
1000
0001
,
0100
0000
0000
1001
,
0010
0000
0100
0000
,
0010
0100
0010
0100
,
0001
1000
0010
1000
,
0100
0010
0001
2000
,
3010
0100
0001
0100
,
1000
0001
0100
0100
,
1000
0001
0100
0010
,
2000
0001
0001
3000
,
0100
0010
1000
0010
,
0001
0100
0010
0010
,
0100
0001
0010
0001
,
1000
0100
0010
0200
,
1300
0001
0100
0010
,
1000
1000
1000
0200
,
0310
1001
0010
0100
,
0002
1000
1000
0003
,
1001
0000
0000
0000
;

//---------------dance-single - ----------------
#NOTES:
     dance-single:
     :
     Medium:
     7:
     0.358189,0.388038,0.151235,0.143276,0.000000,315.000000,296.000000,19.000000,18.000000,0.000000,0.000000,0.358189,0.388038,0.151235,0.143276,0.000000,315.000000,296.000000,19.000000,18.000000,0.000000,0.000000:
0000
0000
0000
0000
,
0010
0100
0001
1000
,
0100
0010
0001
1000
,
0100
0010
0100
1000
,
0001
0100
0010
1000
,
0001
0011
0010
0110
,
0100
1100
1000
1010
,
0001
0101
0010
0110
,
1000
1001
0110
1001
,
0001
0000
0010
0100
0000
0100
0010
0000
,
0001
0000
1000
0100
0000
0100
1000
0000
,
0010
0000
0100
0001
0000
0001
0010
0000
,
0100
0000
1000
0010
0000
0010
0100
0000
,
0001
0001
1000
1000
,
0010
0010
0100
0100
,
0001
0010
0001
0010
0100
1000
0100
1000
,
0010
0100
0001
1001
,
1000
0100
0010
0000
0100
0000
1000
0000
,
0010
0100
0001
0000
0010
0000
0001
0000
,
0100
0010
1000
0000
0100
0000
0010
0000
,
0001
1000
0001
0000
1000
0000
0200
0000
,
0310
0001
1000
0000
0100
0000
0010
0000
,
0100
1000
0001
0000
0100
0000
0010
0000
,
2000
0000
3100
0020
0000
0030
0001
0100
,
0020
1000
0001
1030
,
0100
0100
0100
0000
0010
0000
1000
0000
,
0100
0010
0001
0000
0010
0000
1000
0000
,
0010
0001
1000
0000
0010
0000
0100
0000
,
0001
0010
0001
0000
1000
0000
0020
0000
,
0130
0001
1000
0000
0100
0000
0001
0000
,
0100
1000
0010
0000
0100
0000
0001
0000
,
0010
0010
0010
0000
0100
0000
1000
0010
,
0200
0001
1000
0301
,
0020
0000
0000
0130
,
1000
0000
1100
0000
0000
0100
0100
0000
,
0010
0000
0011
0000
0000
0001
0001
0000
,
0100
0000
0110
0000
0000
0010
0100
0100
,
0010
0000
0101
0000
0000
0001
0010
0000
,
0100
0000
1010
0000
0000
1000
0010
0000
,
0100
0000
1001
0000
0000
0001
1000
0000
,
0200
0320
0032
2003
,
3001
0000
1000
0100
0000
1000
0100
0000
,
0010
0000
0001
0100
0000
0001
0100
0000
,
0010
0000
1000
0001
0000
0100
0001
0000
,
0010
0000
0100
1000
0000
0010
0100
0000
,
0001
0001
0000
0000
1000
1000
0000
0000
,
0010
0010
0000
0000
0100
0100
0000
0000
,
0001
0000
0010
0000
0100
1000
0100
1000
,
0100
0100
0100
1001
,
1000
0000
0001
0000
,
1000
0001
1000
1001
,
0010
0100
0001
0000
0010
0000
0001
0000
,
1000
0100
1000
0000
0010
0000
0200
0000
,
0301
0010
0100
0000
1000
0000
0010
0000
,
1000
0001
0010
0000
0100
0000
1000
0000
,
0020
0000
0130
0002
0000
0003
0010
0100
,
2000
0001
0100
3001
,
0100
0010
0000
0001
0000
1000
0000
0001
,
0100
0010
0000
1000
0000
0100
1000
0000
,
0100
0010
0000
0100
0000
1000
0000
0001
,
0100
0010
0000
0100
0000
0001
0020
0000
,
0130
1000
0000
0010
0000
0100
0000
0001
,
0010
0100
0000
1000
0000
0001
0200
0000
,
0310
0010
0010
0000
1000
0000
0100
0010
,
0002
1000
0010
1003
,
1001
0000
0000
0000
;
