#TITLE:Come With Me Now;
#SUBTITLE:;
#ARTIST:Simon Morin;
#TITLETRANSLIT:;
#SUBTITLETRANSLIT:;
#ARTISTTRANSLIT:;
#GENRE:;
#CREDIT:;
#BANNER:Come With Me Now.png;
#BACKGROUND:Come With Me Now-bg.png;
#LYRICSPATH:;
#CDTITLE:cdtitle.png;
#MUSIC:Come With Me Now.ogg;
#OFFSET:-0.449000;
#SAMPLESTART:9.680000;
#SAMPLELENGTH:12.000000;
#SELECTABLE:YES;
#BPMS:0.000000=104.000000
;
#STOPS:84.000000=0.577000
;
#BGCHANGES:;
#KEYSOUNDS:;
#ATTACKS:;

//---------------dance-single - ----------------
#NOTES:
     dance-single:
     :
     Hard:
     12:
     0.468136,0.519006,0.342591,0.320248,0.212257,440.000000,394.000000,46.000000,43.000000,0.000000,0.000000,0.468136,0.519006,0.342591,0.320248,0.212257,440.000000,394.000000,46.000000,43.000000,0.000000,0.000000:
// measure 0
0000
0000
0000
0000
,  // measure 1
0000
0000
0000
0000
,  // measure 2
1001
1001
1002
1000
1000
1000
1000
1003
,  // measure 3
1001
1001
2001
0001
0001
0001
0002
3003
,  // measure 4
0020
0000
1030
0100
0010
0001
0010
0000
,  // measure 5
0100
2000
0000
3001
0100
0010
1000
0000
,  // measure 6
2200
0000
3300
0100
1000
0010
0100
0000
,  // measure 7
0010
0002
0000
0103
0010
1000
0001
0000
,  // measure 8
0201
0000
0301
0010
0100
1000
0100
0000
,  // measure 9
1000
0002
0000
0103
0010
1000
0001
0000
,  // measure 10
0022
0000
0033
0010
0001
0100
0010
0000
,  // measure 11
0100
2000
0000
3010
0100
0001
0100
0010
,  // measure 12
1000
0000
0000
0000
1000
0000
0000
0000
1000
0000
0000
0000
0100
0000
0000
0000
0100
0020
0000
0000
0000
0000
0000
0000
0000
0000
0000
0000
0030
0000
0100
0000
,  // measure 13
1000
0000
0100
1000
0010
0000
0100
0000
0002
0000
0000
0000
0003
0000
0100
0000
,  // measure 14
0010
0010
0000
0100
0000
0000
0001
0000
2000
0000
0000
0000
3000
0000
0100
0000
,  // measure 15
1000
0000
0010
0100
0000
0000
0010
0000
0001
0000
0100
0010
0000
0000
0100
0000
,  // measure 16
1000
0010
0000
0000
0100
0000
0010
0000
1000
0000
0001
0100
0000
0000
0010
1000
,  // measure 17
0001
0000
0000
0010
0001
0000
0010
0000
0200
0000
0000
0000
0300
0000
1000
0000
,  // measure 18
0010
0000
0100
0010
0000
0001
0000
0000
0020
0000
0000
0000
0030
0000
0100
0000
,  // measure 19
0001
0000
0010
1000
0000
0000
0100
0000
1000
0000
0100
0001
0000
0000
0010
0000
,  // measure 20
0100
0000
1000
0100
0000
0000
0010
0000
0011
0000
0110
0000
1100
0000
0000
0000
,  // measure 21
2002
3003
0000
0000
0001
0000
0000
0000
0100
0000
0000
0000
0010
0000
0000
0000
1010
0000
0000
0000
0000
0000
0000
0000
0100
0000
0000
0000
0120
0000
0000
0000
,  // measure 22
0000
0000
0100
0000
1000
0000
1000
0000
1030
0000
0100
1000
0002
0000
0000
0000
,  // measure 23
1003
0100
1000
0001
0101
0000
0010
0210
,  // measure 24
0000
0000
0010
0000
0001
0000
0001
0000
0301
0000
0010
0100
0010
1000
0100
0000
,  // measure 25
1000
0000
0100
1000
0000
0010
0100
0000
0010
0000
0000
0100
0001
0010
0001
0000
,  // measure 26
0100
0000
0010
1000
0000
0100
0010
0000
0001
0000
0000
0000
0010
0001
1000
0000
,  // measure 27
0010
0000
0100
0010
0000
1000
0100
0000
1000
0000
0100
0010
0001
0100
0001
0010
,  // measure 28
0000
0100
0010
0001
0100
0010
1000
0100
0000
0000
0000
0100
0001
0010
0001
0000
,  // measure 29
1000
0000
0100
0010
0000
0100
1000
0000
0100
0000
0000
0010
0001
1000
0100
0000
,  // measure 30
0010
0000
0001
0100
0000
0010
1000
0000
0100
0000
0000
0010
0100
0000
1000
0010
,  // measure 31
0000
0000
0100
0000
0001
0000
0001
0000
0002
0000
0003
0000
1000
0010
0100
0010
,  // measure 32
1000
0001
0010
0100
0010
0000
0001
0200
0010
0000
0310
0000
1001
0000
2001
0000
,  // measure 33
0001
0001
0001
0001
0010
3010
0101
0102
,  // measure 34
0100
0100
1000
1000
1000
1003
1100
1200
,  // measure 35
1000
1000
1000
0010
0010
0310
0110
0120
,  // measure 36
0100
0001
0001
0001
0001
0130
1010
2010
,  // measure 37
0100
0100
0001
0001
0100
3100
0011
0021
,  // measure 38
0100
0100
1000
1000
0100
0130
0101
0102
,  // measure 39
1000
0103
2000
0010
0001
3010
1100
1100
,  // measure 40
1000
0100
1000
0001
0101
0000
2001
0000
,  // measure 41
0100
0000
0100
0000
0000
0010
0010
0000
,  // measure 42
0001
0000
0001
0000
3000
0001
0200
0000
,  // measure 43
0010
0000
0010
0000
0000
1000
1000
0000
,  // measure 44
0001
0001
0001
0001
0301
0000
0020
0000
,  // measure 45
1000
0000
1000
0000
0000
0001
0001
0000
,  // measure 46
0100
0000
0100
0000
0030
0100
0002
0000
,  // measure 47
1003
0000
0020
0130
0020
0130
2002
0000
,  // measure 48
3003
1001
1001
1001
1001
0000
1000
0010
,  // measure 49
0100
0000
0001
1000
0100
0000
1000
0000
0010
0000
0100
0000
0010
0000
1000
0000
,  // measure 50
0001
0000
0100
0010
1000
0000
0100
0000
1000
0000
0001
0000
0010
0000
0001
0000
,  // measure 51
1000
0000
0010
0100
0001
0000
1000
0000
0100
0000
0010
0000
0001
0000
0100
0000
,  // measure 52
0001
0000
0010
0001
1000
0000
1100
0000
0110
0000
0010
0100
0010
0000
0100
0000
,  // measure 53
0001
0000
0010
0100
1000
0000
0010
0000
0100
0000
0010
0000
1000
0000
0001
0000
,  // measure 54
0010
0000
0001
1000
0010
0000
0011
0000
1010
0000
0000
0000
1001
0000
0000
0000
,  // measure 55
0000
0001
1000
0001
2002
0000
3003
0000
;

//---------------dance-single - ----------------
#NOTES:
     dance-single:
     :
     Medium:
     8:
     0.304289,0.332164,0.096819,0.104267,0.059581,286.000000,273.000000,13.000000,14.000000,0.000000,0.000000,0.304289,0.332164,0.096819,0.104267,0.059581,286.000000,273.000000,13.000000,14.000000,0.000000,0.000000:
0000
0000
0000
0000
,
0000
0000
0000
0000
,
0020
0000
0000
0100
0100
0100
0130
0000
,
2000
0000
0000
0001
0001
0001
3001
0000
,
0100
0000
1000
0000
0010
0100
0001
0000
,
0010
0000
0001
0000
0100
0010
1000
0000
,
0010
0000
0100
0000
0010
1000
0100
0000
,
1000
0000
0001
0000
0010
0100
1000
0000
,
1001
0000
0010
0000
0100
0010
0001
0000
,
0010
0000
0100
0000
0010
0001
0100
0000
,
0010
0000
1000
0000
0001
1000
0010
0000
,
0100
0000
0001
0000
0010
0001
1000
0000
,
0100
0100
0100
0100
0200
0000
0000
0300
,
1000
0000
0000
0000
0001
0000
0000
0000
1000
0000
0000
0000
0010
0010
0000
0000
,
0100
0000
0000
0000
0001
0000
0000
0000
0100
0000
0000
0000
1000
1000
0000
0000
,
0010
0000
0000
0000
1000
0000
0000
0000
0010
0000
0000
0000
0100
0100
0000
0000
,
0010
0000
0000
0000
0100
0000
0000
0000
0010
0000
0000
0000
0001
0001
0000
0000
,
0010
0000
0000
0000
1000
0000
0000
0000
0100
0000
0000
0000
1000
1000
0000
0000
,
0001
0000
0000
0000
0100
0000
0000
0000
0010
0000
0000
0000
0100
0100
0000
0000
,
1000
0000
0000
0000
0001
0000
0000
0000
0100
0000
0000
0000
0001
0001
0000
0000
,
0010
0000
1000
0000
0100
0010
0110
0000
,
1001
0000
0100
1000
0001
0000
0010
0000
,
0001
0000
1000
0100
0010
0000
0110
0000
,
1000
0000
0010
0100
0001
0000
0100
0000
,
0010
0000
1000
0001
0100
0001
0010
0000
,
0100
0000
0000
0000
0010
0000
0000
0000
0001
1000
0000
0000
0100
0000
0000
0000
,
1000
0000
0000
0000
0100
0000
0000
0000
0010
0001
0000
0000
0100
0000
0000
0000
,
0001
0000
0000
0000
0100
0000
0000
0000
0010
1000
0000
0000
0001
0000
0000
0000
,
0010
0000
0000
0000
0001
0000
0000
0000
1000
0100
0000
0000
0010
0000
0000
0000
,
0001
0000
0000
0000
0100
0000
0000
0000
0001
0010
0000
0000
0100
0000
0000
0000
,
1000
0000
0000
0000
0010
0000
0000
0000
0100
0001
0000
0000
1000
0000
0000
0000
,
0001
0000
0000
0000
0010
0000
0000
0000
0100
1000
0000
0000
0001
0000
0000
0000
,
0100
0000
0010
0000
0100
0000
0001
0000
1000
0001
1000
0000
0100
0000
0200
0000
,
1000
0000
1000
0000
1300
0000
0100
0200
,
0010
0000
0010
0000
0310
0000
0001
0002
,
1000
0000
1000
0000
1003
0000
0001
0002
,
0100
0000
0103
0010
0100
0000
0010
0020
,
0001
0000
0001
0000
0031
0000
0010
0020
,
1000
0000
1000
0000
1030
0000
1000
2000
,
0001
0000
0001
0000
3001
0000
1000
2000
,
0010
0000
3010
0100
0010
0000
0100
0000
,
0100
0000
0100
0000
0000
0001
0100
0000
,
0100
0000
0100
0000
0000
0100
0010
0000
,
0010
0000
0010
0000
0000
1000
0010
0000
,
0010
0100
0010
0010
0010
0000
1000
0000
,
1000
0000
1000
0000
0000
0100
1000
0000
,
1000
0000
1000
0000
0000
1000
0001
0000
,
0001
0000
0001
0001
0000
0001
0200
0000
,
0000
0010
0010
0010
0310
0000
1001
0000
,
1010
0000
1000
0100
0001
0000
0010
0000
,
0011
0000
0001
0010
1000
0000
1100
0000
,
1001
0000
0001
0010
0100
0000
0010
0000
,
1010
0000
0000
0000
1000
0000
0001
0000
1000
0000
0010
0100
0010
0000
0000
0000
,
0110
0000
0100
0010
1000
0000
0001
0000
,
0101
0000
0100
0001
1000
0000
2001
0000
,
0000
0001
0001
0001
0002
0000
3003
0000
;

//---------------dance-single - ----------------
#NOTES:
     dance-single:
     :
     Easy:
     4:
     0.195766,0.207603,0.074476,0.052133,0.000000,184.000000,174.000000,10.000000,7.000000,0.000000,0.000000,0.195766,0.207603,0.074476,0.052133,0.000000,184.000000,174.000000,10.000000,7.000000,0.000000,0.000000:
0000
0000
0000
0000
,
0000
0000
0000
0000
,
0110
0000
0100
0100
,
1001
0000
1000
1000
,
0110
0000
0100
1000
,
0100
0000
0010
0001
,
0010
0000
0100
0010
,
0100
0000
1000
0001
,
1001
0000
0100
0001
,
0100
0000
0010
1000
,
0010
0000
1000
0100
,
1000
0000
0001
0100
,
0010
0000
0010
0000
0020
0000
0000
0030
,
0100
0010
1000
0000
,
0001
1000
0100
0000
,
1000
0010
0100
0001
,
0010
0100
0010
0010
,
0100
1000
0001
0000
,
0100
0001
1000
0000
,
0010
1000
0100
1000
,
0001
0010
0100
0100
,
0110
1000
0001
1000
,
0000
0100
0010
1001
,
0000
0010
0100
0010
,
0000
1000
0001
0100
,
0100
1000
1000
0010
,
0010
0001
0001
0010
,
0010
0100
0100
1000
,
1000
0001
0001
0002
,
0003
0001
0001
2000
,
3000
1000
1000
0020
,
0030
0010
0010
0200
,
0300
0100
0100
1000
,
1000
1000
1000
1000
,
1000
1000
1000
0001
,
0001
0001
0001
0001
,
0001
0001
0001
0100
,
0100
0100
0100
0100
,
0100
0100
0100
0010
,
0010
0010
0010
0010
,
0010
0010
0010
0100
,
0100
0000
0000
0100
,
0100
0000
0000
1000
,
1000
0000
0000
1000
,
1000
1000
1000
0001
,
0001
0000
0000
0001
,
0001
0000
0000
0010
,
0010
0000
0010
0020
,
0000
0100
0130
1001
,
0000
1000
0100
0010
,
0000
0001
1000
1001
,
0000
0010
0100
0001
,
0000
0010
0100
0110
,
0000
0010
0100
1000
,
0000
0001
0100
0110
,
0000
0010
0020
0030
;

//---------------dance-single - ----------------
#NOTES:
     dance-single:
     :
     Beginner:
     2:
     0.078732,0.142715,0.037238,0.044686,0.000000,74.000000,69.000000,5.000000,6.000000,0.000000,0.000000,0.078732,0.142715,0.037238,0.044686,0.000000,74.000000,69.000000,5.000000,6.000000,0.000000,0.000000:
0000
0000
0000
0000
,
0000
0000
0000
0000
,
1001
0000
0000
0000
,
1001
0000
0000
0000
,
0100
0000
1000
0000
,
0100
0000
0010
0000
,
0001
0000
0010
0000
,
0100
0000
1000
0000
,
0001
0000
0100
0000
,
0010
0000
1000
0000
,
0010
0000
0100
0000
,
0010
0000
1000
0000
,
0200
0000
0000
0300
,
1000
0000
0000
0000
,
0010
0000
0000
0000
,
1000
0000
0000
0000
,
0100
0000
0000
0000
,
0010
0000
0000
0000
,
0001
0000
0000
0000
,
0100
0000
0000
0000
,
0001
0000
0001
0000
,
1001
0000
0000
0001
,
0000
0100
0000
0010
,
0000
1000
0000
0010
,
0000
0100
0000
0001
,
0000
0000
0000
0010
,
0000
0000
0000
0001
,
0000
0000
0000
0100
,
0000
0000
0000
1000
,
0000
0000
0000
0010
,
0000
0000
0000
1000
,
0000
0000
0000
0100
,
0000
0100
0000
0002
,
0000
0000
0000
0000
,
0000
0003
0000
2000
,
0000
0000
0000
0000
,
0000
3000
0000
0020
,
0000
0000
0000
0000
,
0000
0030
0000
0200
,
0000
0000
0000
0000
,
0000
0300
0000
0100
,
0000
0000
0000
0100
,
0000
0000
0000
0010
,
0000
0000
0000
0010
,
0000
0000
0000
0001
,
0000
0000
0000
0001
,
0000
0000
0000
1000
,
0000
0000
0000
2000
,
0000
0000
3000
0100
,
0000
1000
0000
0010
,
0000
0001
0000
0010
,
0000
1000
0000
0001
,
0000
1000
0000
0110
,
0000
1000
0000
0100
,
0000
0001
0000
1001
;
