#VERSION:0.83;
#TITLE:Chronoxia;
#SUBTITLE:;
#ARTIST:DJ Totoriott;
#TITLETRANSLIT:;
#SUBTITLETRANSLIT:;
#ARTISTTRANSLIT:;
#GENRE:;
#ORIGIN:;
#CREDIT:;
#BANNER:Chronoxia.png;
#BACKGROUND:Chronoxia-bg.png;
#PREVIEWVID:;
#JACKET:Chronoxia-jacket.png;
#CDIMAGE:;
#DISCIMAGE:;
#LYRICSPATH:;
#CDTITLE:cdtitle.png;
#MUSIC:Chronoxia.ogg;
#OFFSET:-0.095000;
#SAMPLESTART:80.928001;
#SAMPLELENGTH:15.000000;
#SELECTABLE:YES;
#BPMS:0.000=180.000,
196.000=90.000,
212.000=180.000,
226.000=90.000,
227.000=180.000;
#STOPS:;
#DELAYS:;
#WARPS:;
#TIMESIGNATURES:0.000=4=4;
#TICKCOUNTS:0.000=4;
#COMBOS:0.000=1;
#SPEEDS:0.000=1.000=0.000=0;
#SCROLLS:0.000=1.000;
#FAKES:;
#LABELS:0.000=Song Start;
#BGCHANGES:;
#KEYSOUNDS:;
#ATTACKS:
;

//---------------dance-single - ----------------
#NOTEDATA:;
#CHARTNAME:;
#STEPSTYPE:dance-single;
#DESCRIPTION:;
#CHARTSTYLE:;
#DIFFICULTY:Challenge;
#METER:18;
#RADARVALUES:1.028386,1.216196,0.419017,0.536341,1.315712,859.000000,809.000000,50.000000,64.000000,0.000000,0.000000,0.000000,0.000000,0.000000,1.028386,1.216196,0.419017,0.536341,1.315712,859.000000,809.000000,50.000000,64.000000,0.000000,0.000000,0.000000,0.000000,0.000000;
#CREDIT:;
#NOTES:
// measure 0
0000
0000
0000
0000
,  // measure 1
0000
0000
0000
0000
,  // measure 2
0000
0000
0000
0000
,  // measure 3
0000
0000
0000
0000
,  // measure 4
0000
0000
0000
0000
,  // measure 5
1001
0000
0000
1000
0010
1000
0010
0000
0000
0100
0001
0100
,  // measure 6
0001
0000
0000
0010
0001
0010
0001
0010
0100
1000
0010
0100
,  // measure 7
0001
0000
0000
1000
0100
1000
0010
0000
0000
0100
0001
0010
,  // measure 8
0001
0000
0000
0100
0010
0100
0001
1000
0100
0010
0001
1000
,  // measure 9
1001
0000
0000
0001
0100
0001
0101
0000
0000
1000
0100
1000
,  // measure 10
1100
0000
0000
0100
0010
0100
0110
0010
0001
1000
0010
0100
,  // measure 11
0101
0000
0000
0001
0100
0010
1010
0000
0000
1000
0100
0010
,  // measure 12
0011
0000
0000
0001
1000
0100
1100
1000
0010
0100
0001
0010
,  // measure 13
0110
0000
0000
1100
1000
0001
0011
0000
0000
0101
0100
0010
,  // measure 14
1010
0000
0000
1001
1000
0010
0100
1000
0100
0010
0001
0010
,  // measure 15
0110
0000
0000
0100
0001
0010
0100
0100
0100
0100
0100
0100
,  // measure 16
0100
0000
0000
0000
1000
0000
0010
0100
0001
0100
1000
0100
0001
0000
0010
0000
,  // measure 17
0110
0110
0000
0000
1100
1100
0000
0000
,  // measure 18
0011
0000
0011
0000
0000
0000
0000
0000
0101
0000
0100
0010
0100
0010
0100
0010
,  // measure 19
0100
0110
0000
0000
1010
1010
0000
0000
,  // measure 20
0101
0101
0000
0000
0011
0000
1100
0000
,  // measure 21
1001
0000
0001
0010
0001
0000
1000
0010
1000
0000
0100
1000
0100
0000
0010
0001
,  // measure 22
0010
0000
0001
0100
0001
0000
1000
0100
1000
0010
1000
0010
0100
0000
0001
0100
,  // measure 23
0001
0000
1000
0100
0010
0000
0001
0100
0010
0000
0100
0010
1000
0000
0100
0010
,  // measure 24
0001
0000
1000
0000
0001
0000
1000
0000
0010
0100
0010
0100
0010
0000
0010
0000
,  // measure 25
1000
0000
0000
0100
0000
0000
0010
0000
0000
0100
0000
0000
1000
0000
0000
0000
0000
0000
0001
0000
0000
0010
0000
0000
1000
0000
0000
0000
0000
0000
0010
0000
0000
0000
0000
0000
0100
0000
1000
0000
0100
0000
1000
0000
0000
0000
0000
0000
,  // measure 26
0020
0000
0130
0010
2000
0000
0000
0000
0100
0000
0000
0000
3020
0000
0000
0000
,  // measure 27
0130
0001
0010
0001
0100
0000
1000
0100
0001
0000
1000
0000
0100
0000
0010
0000
,  // measure 28
0002
0000
1003
0100
0001
0100
1000
0010
0200
0000
0301
0010
1000
0010
0001
0000
,  // measure 29
1000
0000
0000
0010
0000
0000
0100
0000
0000
0001
0000
0000
0010
0000
0000
0000
0000
0000
1000
0000
0000
0010
0000
0000
0100
0000
0000
0000
0000
0000
1000
0000
0000
0000
0000
0000
0010
0000
0100
0000
0010
0000
1000
0000
0000
0000
0000
0000
,  // measure 30
0002
0000
0013
0001
0200
0000
0000
0000
0010
0000
0000
0000
0302
0000
0000
0000
,  // measure 31
1003
0000
0100
0010
0001
0000
0010
0001
1000
0000
0001
1000
0010
0000
1000
0010
,  // measure 32
0100
0000
0000
0001
0000
0000
0010
0000
0000
0200
0000
0000
0010
0000
0000
0010
0000
0000
1300
0001
1000
0001
1000
0001
,  // measure 33
1000
0000
0000
0010
0000
0000
0100
0000
0000
0010
0000
0000
1000
0000
0000
0000
0000
0000
0001
0000
0000
0100
0000
0000
1000
0000
0000
0000
0000
0000
0100
0000
0000
0000
0000
0000
0010
0000
1000
0000
0100
0000
0010
0000
0000
0000
0000
0000
,  // measure 34
0200
0000
0310
0001
2000
0000
0100
0000
0010
0000
0100
0000
3002
0000
0100
0000
,  // measure 35
0013
0100
1000
0100
0010
0000
1000
0010
0001
0000
0100
0000
0010
0000
1000
0000
,  // measure 36
0200
0000
0310
0001
0100
1000
0100
0001
0020
0000
0130
1000
0010
0001
0010
1000
,  // measure 37
0002
0000
0100
0000
0013
0100
1000
0010
0200
0000
0001
0000
0320
0000
2030
0000
,  // measure 38
3200
1000
0010
2300
0001
0100
3002
0203
,  // measure 39
0320
0000
0001
0000
1000
0000
0100
0000
0001
0000
0100
0000
1030
0001
1000
0001
,  // measure 40
1000
0010
0011
0000
0001
0010
1010
0000
,  // measure 41
1000
0001
0100
0010
0001
0010
1000
0100
0010
1000
0010
0001
,  // measure 42
0100
0010
1000
0100
0001
0100
1000
0010
0100
0101
0000
0000
,  // measure 43
0001
1000
0100
0010
1000
0010
0001
0100
0010
0001
0010
1000
,  // measure 44
0100
0010
0001
0100
1000
0100
0001
0010
0100
1100
0000
1000
,  // measure 45
0010
0100
0001
0010
1000
0010
0100
1000
0010
0001
0010
0100
,  // measure 46
0001
0010
1000
0001
0100
1000
0001
0010
0100
0110
0000
0000
,  // measure 47
0010
0100
1000
0010
0001
0010
0100
0001
0010
1000
0010
0100
,  // measure 48
1000
0010
0001
1000
0100
0001
1000
0010
0100
0001
0010
0100
,  // measure 49
2000
0001
0010
0001
3020
1000
0100
1000
0230
0010
0001
0010
0302
0100
1000
0100
,  // measure 50
2003
0010
0001
0010
3002
0100
0023
1000
0230
1000
0320
0001
0230
0001
2300
0010
,  // measure 51
3002
0000
1000
0000
0010
0000
1000
0000
0203
0000
1000
0000
0010
0000
0001
0000
0320
0000
0100
0000
0001
0000
0100
0000
2030
0000
3001
0010
0001
0010
0001
0010
,  // measure 52
0001
0002
1000
0010
1000
0100
1000
0010
2003
0001
0100
0001
0010
0001
0100
0001
,  // measure 53
3010
0000
0010
0100
0010
0000
0010
0100
0010
0000
0010
0100
0010
0000
0010
0100
,  // measure 54
0010
0000
0010
0100
0010
0000
0010
0100
0010
0000
0010
0100
0010
0000
0010
0100
,  // measure 55
0001
0010
0001
0010
0100
1000
0100
1000
0010
1000
0010
1000
0001
0100
0001
0100
,  // measure 56
0001
0000
0000
0000
0010
0000
0000
0000
0100
0000
0000
0000
1000
0000
0000
0000
0010
0000
0000
0000
0100
0000
0000
0000
0001
0000
0000
0000
0010
0000
0000
0000
0100
0000
0000
0000
1000
0010
0000
0000
0100
0000
0000
0000
0001
0000
0000
0000
2001
0000
0000
0000
0000
0000
0000
0000
0000
0000
0000
0000
0000
0000
0000
0000
,  // measure 57
3100
0010
0001
1000
0200
0000
0000
0000
1300
0001
0010
0100
1000
0010
1000
0010
,  // measure 58
0100
0001
0100
0001
0020
0000
0000
0000
0130
0000
1000
0000
0020
0000
0000
0000
,  // measure 59
1000
0000
0130
0001
0010
0000
0100
0000
0001
0000
0100
0000
1000
0000
0010
0000
,  // measure 60
0100
0000
0002
0000
0000
0000
0013
0100
1000
0000
0010
0000
0210
0000
0000
0000
,  // measure 61
0310
1000
0100
0010
0002
0000
0000
0000
0013
0100
1000
0010
0100
0001
0100
0001
,  // measure 62
1000
0010
1000
0010
0200
0000
0000
0000
0301
0000
0010
0000
0200
0000
0000
0000
,  // measure 63
0001
0000
1300
0010
0100
0001
2000
0000
,  // measure 64
3100
0010
0001
0000
0101
0000
1010
0000
0011
0000
0100
0000
1002
0000
0010
0000
,  // measure 65
1003
0100
0010
0001
0200
0000
0010
0000
0301
0010
0100
1000
0001
0010
0001
0100
,  // measure 66
0010
1000
0100
1000
0020
0000
0100
0000
1030
0000
0100
0000
0020
0000
0001
0000
,  // measure 67
0100
0000
0031
1000
0100
0000
0010
0000
1000
0000
0010
0000
0001
0000
0100
0000
,  // measure 68
0010
0000
2000
0000
0001
0000
3100
0010
0001
0000
0100
0000
0120
0000
1000
0000
,  // measure 69
0130
0001
0010
0100
2000
0000
0001
0000
3010
1000
0100
0010
0001
1000
0100
1000
,  // measure 70
0010
0100
0001
0010
0002
0000
0100
0000
1003
0000
0010
0000
0201
0000
0010
0000
,  // measure 71
0010
0000
0010
0000
0301
0010
0100
1000
0010
0100
0001
0010
0200
0000
0000
0000
,  // measure 72
1300
0001
0010
0000
0002
0000
0203
0000
2300
0000
3020
0000
0031
0100
0001
0100
,  // measure 73
0001
0000
0000
0000
0000
0000
0010
0000
0000
0100
0000
0000
1000
0000
0000
0000
0000
0000
0010
0000
0000
0000
0000
0000
0100
0000
0001
0000
0100
0000
0001
0000
0000
0000
0000
0000
1000
0000
0000
0100
0000
0000
0010
0000
0000
0100
0000
0000
,  // measure 74
1000
0000
0000
0000
0000
0000
0010
0000
0000
0100
0000
0000
0001
0000
0000
0000
0000
0000
0010
0000
0000
0000
0000
0000
0100
0000
1000
0000
0100
0000
1000
0000
0000
0000
0000
0000
0010
0000
0000
0100
0000
0000
0001
0000
0000
1000
0000
0000
,  // measure 75
0100
0000
0000
0000
0000
0000
0001
0000
0000
0100
0000
0000
0010
0000
0000
0000
0000
0000
0001
0000
0000
0000
0000
0000
1000
0000
0010
0000
1000
0000
0100
0000
0000
0000
0000
0000
1000
0000
0000
0000
0000
0000
0010
0000
0000
0100
0000
0000
,  // measure 76
0001
0000
0100
0001
0010
0000
1000
0000
0010
0000
0100
0000
1000
0010
0001
0010
,  // measure 77
0100
0000
0000
0000
0000
0000
0001
0000
0000
0010
0000
0000
1000
0000
0000
0000
0000
0000
0010
0000
0000
0000
0000
0000
0100
0000
1000
0000
0010
0000
0100
0000
0000
0000
0000
0000
0001
0000
0000
0010
0000
0000
1000
0000
0000
0010
0000
0000
,  // measure 78
0100
0000
0000
0000
0000
0000
1000
0000
0000
0010
0000
0000
0001
0000
0000
0000
0000
0000
0010
0000
0000
0000
0000
0000
0100
0000
0001
0000
0010
0000
0100
0000
0000
0000
0000
0000
1010
0000
0000
0000
0000
0000
1000
0000
0000
0000
0000
0000
,  // measure 79
0001
0000
0100
0000
0011
0000
0001
0000
1000
0000
0010
0000
0100
0001
0010
0100
,  // measure 80
0001
0100
1000
0001
0101
0000
1010
0000
1100
0000
0011
0000
0000
0000
0000
0000
;
