#TITLE:Chaoz Lyth3ro;
#SUBTITLE:;
#ARTIST:ParagonX9;
#TITLETRANSLIT:;
#SUBTITLETRANSLIT:;
#ARTISTTRANSLIT:;
#GENRE:;
#CREDIT:;
#BANNER:Chaoz Lyth3ro.png;
#BACKGROUND:Chaoz Lyth3ro-bg.png;
#LYRICSPATH:;
#CDTITLE:cdtitle.png;
#MUSIC:Chaoz Lyth3ro.ogg;
#OFFSET:-0.029500;
#SAMPLESTART:102.029999;
#SAMPLELENGTH:15.000000;
#SELECTABLE:YES;
#DISPLAYBPM:100.000000:200.000000;
#BPMS:0.000000=200.000000
,195.000000=400.000000
,196.000000=200.000000
,260.000000=100.000000
,291.000000=200.000000
,304.000000=100.000000
,306.000000=200.000000
,370.000000=100.000000
,374.000000=200.000000
;
#STOPS:195.000000=0.150000,
291.000000=0.300000
;
#BGCHANGES:;
#KEYSOUNDS:;
#ATTACKS:;

//---------------dance-single - ----------------
#NOTES:
     dance-single:
     :
     Beginner:
     5:
     0.191382,0.335786,0.083296,0.208239,0.000000,193.000000,181.000000,12.000000,30.000000,0.000000,0.000000,0.191382,0.335786,0.083296,0.208239,0.000000,193.000000,181.000000,12.000000,30.000000,0.000000,0.000000:
0000
0000
0000
0000
,
0000
0000
0000
0000
,
0000
0000
0000
0000
,
0000
0000
0000
0000
,
0000
0000
0000
0000
,
0000
0000
0000
0000
,
0000
0000
0000
0000
,
0000
0000
0000
0000
,
0000
0000
0000
0000
,
0000
0000
0000
0000
,
0000
0000
0000
0000
,
0000
0000
0000
0000
,
0000
0000
0000
0000
,
0000
0000
0000
0000
,
0000
0000
0000
0000
,
0000
0000
0000
0000
,
0000
0000
0000
0000
,
1000
0000
0000
0000
,
0001
0000
0000
0000
,
1000
0000
0000
0000
,
0001
0000
0000
0000
,
0100
0000
0000
0000
,
0010
0000
0000
0000
,
0100
0000
0000
0000
,
0010
0010
0010
0000
,
1001
0000
0000
0000
,
1001
0000
0000
0000
,
0110
0000
0000
0000
,
0110
0000
0000
0000
,
1001
0000
0000
0000
,
0110
0000
0000
0000
,
0100
0000
0010
0000
,
0100
0100
0100
0000
,
1000
0000
1000
0000
,
1000
0000
1000
0000
,
0001
0000
0001
0000
,
0010
0000
0010
0000
,
0001
0000
0001
0000
,
0001
0000
0001
0000
,
1000
0000
1000
0000
,
0010
0000
0010
0000
,
0100
0000
0100
0000
,
0100
0000
0100
0000
,
0010
0000
0010
0000
,
1000
0000
1000
0000
,
0100
0000
0100
0000
,
0100
0000
0100
0000
,
0020
0000
0000
0030
,
0200
0000
0000
0300
,
2001
0000
0000
0000
,
0000
3000
0020
0030
,
0200
0000
0000
0000
,
0300
0000
0002
0003
,
0020
0000
0000
0000
,
0000
0030
0200
0300
,
2000
0000
0000
3000
,
0001
0001
0001
0000
,
1002
0000
0000
0000
,
0000
0003
0020
0030
,
0200
0000
0000
0000
,
0000
0300
2000
3000
,
0020
0000
0000
0030
,
0200
0000
0000
0300
,
0002
0000
0000
0003
,
1000
1000
1000
0000
,
0001
0000
1000
0000
,
0010
0000
0100
0000
,
0010
0000
1000
0000
,
0001
0000
0100
0000
,
0002
0000
0000
0003
,
2000
0000
0000
3000
,
0200
0000
0000
0300
,
0010
0010
0010
0000
,
0001
0000
0000
0001
0000
0000
0000
0000
,
1000
0000
0000
1000
0000
0000
0000
0000
,
0100
0000
0000
0100
0000
0000
0100
0000
,
0010
0000
1001
0000
,
0001
0100
0001
0000
,
1000
0010
1000
0000
,
0100
1000
0100
0000
,
0010
0001
0010
0000
,
0001
1000
0001
0000
,
0100
0010
0100
0000
,
0001
1000
0001
0001
,
0001
0000
1001
0000
,
1000
0100
0010
0000
,
0001
0100
0010
0000
,
0100
0001
1000
0000
,
0100
1000
0001
0000
,
0100
0010
1000
0000
,
0100
0010
0001
0000
,
1000
0001
1000
1000
,
1000
0000
2002
0000
,
0000
3003
0002
0000
,
2003
0000
3010
0100
,
0010
0100
0020
0000
,
0000
0000
0000
0030
,
1000
0001
2000
0000
,
3100
0010
0100
0100
,
0100
0000
2000
0000
,
3020
0000
0230
0000
,
0301
1000
0002
0000
,
0023
0000
0000
0000
0130
0000
0000
0100
,
0000
0100
1000
0010
,
1000
0000
0001
0100
,
0001
0000
0010
0100
,
0010
0100
0010
0010
,
0010
0000
1001
0000
;

//---------------dance-single - ----------------
#NOTES:
     dance-single:
     :
     Easy:
     9:
     0.384747,0.522334,0.208239,0.520598,0.000000,388.000000,358.000000,30.000000,75.000000,0.000000,0.000000,0.384747,0.522334,0.208239,0.520598,0.000000,388.000000,358.000000,30.000000,75.000000,0.000000,0.000000:
0000
0000
0000
0000
,
0000
0000
0000
0000
,
0000
0000
0000
0000
,
0000
0000
0000
0000
,
0000
0000
0000
0000
,
0000
0000
0000
0000
,
0000
0000
0000
0000
,
0000
0000
0000
0000
,
0000
0000
0000
0000
,
0000
0000
0000
0000
,
0000
0000
0000
0000
,
0000
0000
0000
0000
,
0000
0000
0000
0000
,
0000
0000
0000
0000
,
0000
0000
0000
0000
,
0000
0000
0000
0000
,
0000
0000
0000
0000
,
1010
1000
0010
1000
,
0101
0001
0100
0001
,
0011
0010
0001
0010
,
1100
0100
1000
0100
,
0110
0010
0100
0010
,
0011
0001
0100
0010
,
1010
1000
0100
0010
,
0001
1000
0001
0000
0011
0000
1100
0000
,
0101
0001
1000
0100
,
0110
0010
0001
1000
,
1010
0010
0100
0001
,
1001
1000
0100
0010
,
0011
0001
1100
1000
,
1010
0010
0101
0100
,
0020
0000
0230
0000
,
0301
1000
0001
0000
0010
0000
0110
0000
,
1002
0100
2003
0100
,
3002
0010
2003
0010
,
3002
0100
1000
0100
,
2003
0010
0001
0010
,
3200
1000
0320
1000
,
0230
0001
0320
0001
,
0230
1000
0010
1000
,
0320
0001
0100
0031
,
2001
3020
0230
0302
,
0023
0230
2300
3002
,
0203
0001
0320
1000
,
2030
0100
3002
0010
,
2003
3200
0320
0032
,
0203
0320
2030
3002
,
0023
0000
0000
0000
,
0230
0000
0000
0310
,
2001
0000
0010
0000
,
0001
0000
3020
0000
,
0230
0000
0001
0000
,
0010
0000
0302
0000
,
0023
0000
0100
0000
,
0001
0000
0230
0000
,
2300
0000
0010
0000
,
3001
1000
0001
0000
1001
0000
0110
0000
,
1002
0000
0010
0000
,
1000
0000
0023
0000
,
0230
0000
1000
0000
,
0010
0000
2300
0000
,
3020
0000
1000
0000
,
0230
0000
0001
0000
,
0302
0000
0013
0100
,
0010
0100
0010
0000
0001
0000
1000
0001
,
1000
0010
1000
0001
,
0010
0001
0010
0000
0100
1000
0100
0000
,
0010
0001
0010
0100
,
1000
0010
1000
0000
0001
0100
0001
0000
,
2000
0010
0001
0010
,
3002
1000
0100
1000
,
0203
0001
0010
0001
,
0320
2030
3200
0310
,
0001
0000
0000
0001
0000
0000
1001
0000
,
1000
0000
0000
1000
0000
0000
1001
0000
,
0001
0000
0100
0010
0000
0100
0010
0000
,
2000
0000
3001
0100
,
0001
0010
0001
0000
1000
0000
0100
0000
,
1000
0010
1000
0000
0001
0000
0010
0000
,
0100
1000
0100
0000
1000
0000
0010
0000
,
0100
0001
0100
0000
0001
0000
1000
0000
,
0010
1000
0010
0000
1000
0000
0001
0000
,
0010
0001
0010
0000
0100
0000
1000
0000
,
0010
0100
0010
0000
1000
0001
1000
0000
,
1010
0101
1000
0100
,
1000
0010
0100
0000
0001
0000
0010
0000
,
0001
0100
0010
0000
0100
0000
0001
0000
,
0010
0100
1000
0000
0010
0000
1000
0000
,
0100
0010
0001
0000
1000
0000
0010
0000
,
0100
0001
0010
0000
0001
0000
0100
0000
,
0010
1000
0100
0000
0010
0000
0001
0000
,
0100
0010
1000
0000
0100
0010
0100
0000
,
1000
0000
0001
1000
0002
0000
1000
0000
,
1000
1000
2003
0100
,
3002
0010
2003
3020
,
0230
0302
2003
0100
,
0100
0001
0001
0010
,
3020
2030
3002
1000
,
0023
0000
0230
0000
1300
0001
1000
0000
,
1100
0000
0011
0000
1000
0000
0000
0001
,
0000
1000
0000
0000
0020
0000
0100
0000
,
2030
3002
0023
0001
,
0230
0000
1000
0000
0310
0000
0000
0100
,
0000
0000
0010
0000
0100
1000
0100
0000
,
0010
0000
0001
0000
0100
0001
0100
0000
,
0010
0000
1000
0000
0001
0010
0001
0000
,
1000
0100
1000
0000
0010
0100
0010
0000
,
1000
0000
0001
1000
0001
0000
0000
0000
;

//---------------dance-single - ----------------
#NOTES:
     dance-single:
     :
     Medium:
     12:
     0.542414,0.634262,0.284594,0.638601,0.024295,547.000000,506.000000,41.000000,92.000000,0.000000,0.000000,0.542414,0.634262,0.284594,0.638601,0.024295,547.000000,506.000000,41.000000,92.000000,0.000000,0.000000:
0000
0000
0000
0000
,
0000
0000
0000
0000
,
0000
0000
0000
0000
,
0000
0000
0000
0000
,
0000
0000
0000
0000
,
0000
0000
0000
0000
,
0000
0000
0000
0000
,
0000
0000
0000
0000
,
0000
0000
0000
0000
,
0000
0000
0000
0000
,
0000
0000
0000
0000
,
0000
0000
0000
0000
,
0000
0000
0000
0000
,
0000
0000
0000
0000
,
0000
0000
0000
0000
,
0000
0000
0000
0000
,
0000
0000
0000
0000
,
1010
0000
1000
0000
0100
1000
0100
0000
,
0011
0000
0001
0000
0100
0001
0100
0000
,
0101
0000
0100
0000
0001
0010
0001
0000
,
1100
0000
0100
0000
1000
0010
1000
0000
,
0110
0000
0010
0000
0100
0001
0010
0000
,
0110
0000
0010
0000
0100
1000
0010
0000
,
1001
0000
1000
0000
0100
0001
0100
0000
,
1000
0001
0001
1000
1001
0000
0110
0000
,
1010
0000
0010
1000
0100
1000
0100
0000
,
0011
0000
0010
0001
0100
0001
0100
0000
,
0101
0000
0001
0100
0010
1000
0010
0000
,
1100
0000
1000
0100
0010
0001
0010
0000
,
1001
0000
0001
0100
1000
0100
0001
0000
,
1001
0000
1000
0010
0001
0010
1000
0000
,
0200
0000
0320
0000
,
0031
1000
1000
0001
0100
0010
0110
0000
,
2001
0000
3001
0010
0002
0000
0203
0000
,
0320
0000
1030
0100
2000
0000
3020
0000
,
0130
0002
0000
0013
0002
0000
2003
0000
,
3100
1000
0200
0000
0310
0001
0020
0000
,
0032
0000
1003
0010
2000
0000
3200
0000
,
0320
0000
0031
0100
0002
0000
0023
0000
,
0130
2000
0000
3010
2000
0000
3002
0000
,
0103
0001
0200
0000
0310
1000
0010
0000
,
1002
0000
0103
0010
2000
0000
3001
0010
,
0200
0000
1300
0001
0020
0000
0130
1000
,
0010
0200
0000
0301
0200
0000
0320
0000
,
1030
0100
1000
0100
0010
0001
0010
0001
,
2000
0000
3100
0010
0002
0000
1003
0010
,
0200
0000
0301
1000
0020
0000
0130
0001
,
0020
0000
0000
0000
,
0230
0000
0000
0000
0000
0310
0100
0000
,
2000
0000
0001
0000
0001
0000
0000
0010
,
0000
3001
1010
0101
,
0002
0000
1000
0000
1000
0000
0000
0010
,
0000
1003
0011
1100
,
0200
0000
0010
0000
0010
0000
0000
1000
,
0000
0310
0110
0011
,
0020
0000
0100
0000
0100
0000
0000
0001
,
0031
1000
1000
0001
1001
0000
0110
0000
,
1000
0000
1010
0000
0001
0010
0000
0011
,
0000
0010
0001
0000
0200
0000
0010
0000
,
0301
0000
0101
0000
1000
0100
0000
1100
,
0000
0100
1000
0000
0020
0000
0100
0000
,
2030
0100
0001
0010
,
3002
0100
1000
0010
,
0203
0000
0010
0000
0301
1000
0001
1000
,
0100
0010
0010
0100
1000
0001
1000
1000
,
1000
0010
1000
0100
0010
0001
0100
0001
,
1000
0000
0000
1000
0000
0000
1000
0000
0010
0000
0010
0000
0100
0000
0100
0000
,
0001
0010
0001
0100
0010
1000
0100
1000
,
0001
0000
0000
0001
0000
0000
0001
0000
0010
0000
0010
0000
0100
0000
0100
0000
,
2000
0001
0001
0000
0010
0010
0010
0000
,
3002
0000
0000
0100
0000
0000
0100
0000
1000
0000
1000
0000
1000
0000
0000
0000
,
0203
0010
0010
0000
0001
0001
0001
0000
,
0320
2030
3200
0310
,
0001
0000
0000
0001
0000
0010
0100
0000
,
1000
0000
0000
1000
0000
0010
0100
0000
,
0001
0010
0010
0100
1000
1000
0010
0100
,
0001
0000
1000
0000
0000
0010
0000
0000
1000
0000
0000
0100
0000
0000
1000
0000
0002
0000
0000
0000
0000
0000
0000
0000
0100
0000
0000
0000
0000
0000
0000
0000
,
1003
0100
0010
0100
2000
0000
0100
0000
,
3001
0100
0010
0100
0020
0000
1000
0000
,
0130
0001
1000
0001
0200
0000
0001
0000
,
0310
1000
0001
1000
0002
0000
0100
0000
,
1003
0100
0001
0100
2000
0000
0100
0000
,
3001
0100
1000
0100
0020
0000
1000
0000
,
0130
1000
0100
0001
0100
0010
0010
0100
,
0101
1010
0001
0012
,
1003
0010
0100
0001
1000
0000
2010
0000
,
3001
0010
0100
1000
0100
0000
1200
0000
,
0310
0001
1000
0100
0010
0000
0021
0000
,
0130
1000
0001
0010
0001
0000
1002
0000
,
1003
0010
0001
0010
1000
0000
2001
0000
,
3001
0010
1000
0010
0100
0000
0210
0000
,
0310
1000
0010
0001
0010
0100
0100
0010
,
0001
1000
0001
0001
0002
0203
0320
0032
,
2003
3200
0320
2030
3002
0000
0100
0000
,
2003
0010
3200
0320
,
0031
0100
0010
1000
0002
0000
0013
0100
,
2000
0000
3010
0100
0002
0000
1003
0100
,
0010
0001
0010
0100
2000
0000
0001
0000
,
3200
0000
0320
0000
0130
0010
0010
0100
,
1100
0000
0011
0000
2000
0000
0001
3002
,
0000
0203
0010
0000
0320
0000
0100
0000
,
1030
0100
0010
0001
0200
0000
0310
1000
,
0200
0000
0310
0001
2000
0000
0010
3020
,
0000
0100
0230
0000
0301
0010
0100
1000
,
0010
0100
0001
0000
1000
0100
0010
0001
,
0100
0010
1000
0000
0100
0100
0010
0010
,
0001
0001
1000
1000
0010
0100
0100
0010
,
1000
0001
1000
1000
1000
0000
0000
0000
;

//---------------dance-single - ----------------
#NOTES:
     dance-single:
     :
     Hard:
     15:
     0.728838,1.044667,0.451185,1.207788,0.183945,735.000000,670.000000,65.000000,174.000000,0.000000,0.000000,0.728838,1.044667,0.451185,1.207788,0.183945,735.000000,670.000000,65.000000,174.000000,0.000000,0.000000:
// measure 0
0000
0000
0000
0000
,  // measure 1
0000
0000
0000
0000
,  // measure 2
0000
0000
0000
0000
,  // measure 3
0000
0000
0000
0000
,  // measure 4
0000
0000
0000
0000
,  // measure 5
0000
0000
0000
0000
,  // measure 6
0000
0000
0000
0000
,  // measure 7
0000
0000
0000
0000
,  // measure 8
0000
0000
0000
0000
,  // measure 9
0000
0000
0000
0000
,  // measure 10
0000
0000
0000
0000
,  // measure 11
0000
0000
0000
0000
,  // measure 12
0000
0000
0000
0000
,  // measure 13
0000
0000
0000
0000
,  // measure 14
0000
0000
0000
0000
,  // measure 15
0000
0000
0000
0000
,  // measure 16
0000
0000
0000
0000
,  // measure 17
1010
1000
0010
1000
0100
1000
0100
0000
,  // measure 18
0011
0001
0010
0001
0100
0001
0100
0000
,  // measure 19
0101
0100
0001
0100
0010
1000
0010
0000
,  // measure 20
1100
0100
1000
0100
0010
0001
0010
0000
,  // measure 21
0110
0010
0100
0010
0001
0100
0010
0000
,  // measure 22
0110
0010
0100
0010
1000
0100
0010
0000
,  // measure 23
1001
1000
0100
0001
0100
1000
0001
0000
,  // measure 24
1001
0000
0001
1000
0001
0000
1000
0000
1001
0000
0000
0000
0110
0000
0000
0000
,  // measure 25
1010
0010
1000
0010
1010
1000
0010
0000
,  // measure 26
0101
0100
0001
0100
0101
0001
0100
0000
,  // measure 27
0011
0001
0010
0001
0101
0100
0001
0000
,  // measure 28
1100
1000
0100
1000
1010
0010
1000
0000
,  // measure 29
1100
0100
0010
0001
1100
1000
0010
0000
,  // measure 30
0101
0100
0010
1000
0101
0001
0010
0000
,  // measure 31
0200
0000
0320
0000
,  // measure 32
0031
0000
1000
0001
1000
0000
0001
0000
0100
0000
0010
0000
0110
0000
0000
0000
,  // measure 33
2001
3010
2000
3001
2000
3100
2000
3001
,  // measure 34
0002
0103
0002
1003
0002
0013
0002
1003
,  // measure 35
2000
0010
3010
0002
0010
0013
0200
0310
,  // measure 36
2000
0010
0001
3010
0002
0100
1000
0103
,  // measure 37
0002
0013
0002
1003
0002
0103
0002
1003
,  // measure 38
2000
3100
2000
3001
2000
3010
2000
3001
,  // measure 39
0002
0010
0013
2000
0010
3010
0200
0310
,  // measure 40
0002
0010
1000
0013
2000
0100
0001
3100
,  // measure 41
1002
0013
2000
3010
0002
0203
0320
2030
,  // measure 42
3002
0103
2000
3100
0002
0023
0230
2300
,  // measure 43
3020
0100
0130
0200
0001
0301
0002
1003
,  // measure 44
2000
3010
2000
3001
2000
3100
2000
3001
,  // measure 45
2000
3010
0002
0013
2000
3200
0320
0032
,  // measure 46
2003
3100
0002
0103
2000
3020
0230
0302
,  // measure 47
0023
0000
0000
0000
,  // measure 48
0230
0000
0000
0000
0000
0000
0000
0000
0000
0000
0000
0000
0000
0000
0000
0000
0000
0000
0000
0000
0000
0000
0000
0000
0000
0000
0000
0000
0000
0000
0000
0000
0000
0000
0000
0000
0000
0000
0000
0000
0000
0000
0000
0000
0000
0000
0000
0000
0000
0000
0000
0000
0000
0000
0000
0000
0000
0000
0000
0000
0000
0000
0000
0000
0000
0000
0000
0000
0000
0000
0000
0000
0000
0000
0000
0000
0000
0000
0000
0000
0000
0000
0000
0000
0000
0000
0000
0000
0000
0000
0000
0000
0000
0000
0000
0000
0000
0000
0000
0000
0000
0000
0000
0000
0000
0000
0000
0000
0000
0000
0000
0000
0000
0000
0000
0000
0000
0000
0000
0000
0310
0000
0000
0000
0000
0000
0000
0000
0000
0000
0000
0000
0000
0000
0000
0000
0000
0000
0000
0000
0000
0000
0000
0000
2002
3003
0000
0000
0000
0000
0000
0000
0000
0000
0000
0000
0000
0000
0000
0000
0000
0000
0000
0000
0000
0000
0000
0000
0000
0000
0000
0000
0000
0000
0000
0000
0000
0000
0000
0000
0000
0000
0000
0000
0000
0000
0000
0000
0000
0000
0000
0000
,  // measure 49
2000
0000
0001
0000
0010
0010
0000
0001
,  // measure 50
0000
0100
0100
3000
1010
0000
0101
0000
,  // measure 51
0002
0000
1000
0000
0010
0010
0000
1000
,  // measure 52
0000
0100
0100
0003
0011
0000
1100
0000
,  // measure 53
0200
0000
0010
0000
1000
1000
0000
0010
,  // measure 54
0000
0001
0301
0000
0110
0000
0011
0000
,  // measure 55
0020
0000
0100
0000
0001
0001
0000
0100
,  // measure 56
0130
0000
0010
0100
0010
0000
0100
0000
0110
0000
0000
0000
1001
0000
0000
0000
,  // measure 57
1000
0000
1010
0000
0101
0001
0000
0011
,  // measure 58
0000
0001
0101
0000
0200
0000
1000
0000
,  // measure 59
0301
0000
0011
0000
1100
1000
0000
1010
,  // measure 60
0000
1000
1100
0000
0200
0000
0001
0000
,  // measure 61
2300
0000
0001
0000
0100
0100
0000
0001
,  // measure 62
3002
1000
1000
0000
0010
0000
1000
0000
,  // measure 63
0023
0000
0100
0000
0031
0100
0010
1000
,  // measure 64
0100
0000
0010
0100
0010
0000
0100
0000
1000
0000
0001
0000
1000
0001
1000
0001
,  // measure 65
1000
0000
0010
0000
0100
0001
0100
0000
0001
0000
0010
0000
0100
1000
0100
0000
,  // measure 66
1000
0010
0000
1000
0010
0000
0100
0000
0001
0010
0100
0000
1000
0010
0100
0000
,  // measure 67
0010
0000
1000
0000
0001
0100
0001
0000
0010
0000
0001
0000
1000
0100
1000
0000
,  // measure 68
0010
0100
0000
0010
0100
0000
0001
0000
0010
0100
1000
0000
0010
0100
0001
0000
,  // measure 69
2000
0010
0001
0100
0001
0010
0001
0100
,  // measure 70
3002
1000
0010
1000
0100
1000
0010
1000
,  // measure 71
0203
0001
0010
1000
0010
0001
0010
1000
,  // measure 72
0320
0000
0000
0000
0000
0000
0000
0000
0000
0000
0000
0000
0000
0000
0000
0000
0000
0000
0000
0000
0000
0000
0000
0000
0000
0000
0000
0000
0000
0000
0000
0000
0000
0000
0000
0000
0000
0000
0000
0000
0000
0000
0000
0000
0000
0000
0000
0000
2030
0000
0000
0000
0000
0000
0000
0000
0000
0000
0000
0000
0000
0000
0000
0000
0000
0000
0000
0000
0000
0000
0000
0000
0000
0000
0000
0000
0000
0000
0000
0000
0000
0000
0000
0000
0000
0000
0000
0000
0000
0000
0000
0000
0000
0000
0000
0000
3200
0000
0000
0000
0000
0000
0000
0000
0000
0000
0000
0000
0000
0000
0000
0000
0000
0000
0000
0000
0000
0000
0000
0000
0000
0000
0000
0000
0000
0000
0000
0000
0000
0000
0000
0000
0000
0000
0000
0000
0000
0000
0000
0000
0000
0000
0000
0000
0020
0330
0000
0000
0000
0000
0000
0000
0000
0000
0000
0000
0000
0000
0000
0000
0000
0000
0000
0000
0000
0000
0000
0000
0000
0000
0000
0000
0000
0000
0000
0000
0000
0000
0000
0000
0000
0000
0000
0000
0000
0000
0000
0000
0000
0000
0000
0000
,  // measure 73
0001
0000
0000
0001
0000
0001
0010
0100
,  // measure 74
1000
0000
0000
1000
0000
1000
0010
0100
,  // measure 75
0001
0000
1000
0100
1000
0000
0001
0000
1000
0100
1000
0000
0001
0000
0100
0000
,  // measure 76
0010
0000
1000
0000
0001
0010
0000
0001
0010
0000
0100
1000
0000
0100
1000
0000
0001
0000
0000
0000
0000
0000
0000
0000
0101
0000
0000
0000
0001
0000
0000
0000
,  // measure 77
2000
3200
0320
0230
2300
3000
1100
1000
,  // measure 78
0002
0203
0320
0230
0302
0003
1010
0010
,  // measure 79
0200
0302
0023
0032
2003
3000
0011
0010
,  // measure 80
0200
2300
3020
2030
3002
0003
0101
0001
,  // measure 81
2000
3200
0302
0203
2300
3000
1100
1000
,  // measure 82
0002
0203
2300
3200
0302
0003
1010
0010
,  // measure 83
0200
0000
2300
0000
3200
0000
0302
0000
0203
0000
0310
0100
0010
0000
0100
0000
,  // measure 84
0101
0000
1010
0000
0001
0010
0011
0001
,  // measure 85
2000
3020
0230
0302
2003
3010
1010
1000
,  // measure 86
0002
0023
0230
2300
3002
1003
1100
0100
,  // measure 87
0020
0032
0203
0320
2030
3001
0101
0100
,  // measure 88
0020
2030
3200
0320
0032
1003
1001
0001
,  // measure 89
2000
3020
0032
0023
2030
3001
1001
1000
,  // measure 90
0002
0023
2030
3020
0032
0013
0110
0100
,  // measure 91
0020
0000
2030
0000
3020
0000
0032
0000
0023
0000
0130
0010
0100
0000
0010
0000
,  // measure 92
0001
0000
1000
0000
0001
1000
0001
1000
0001
0100
0010
0100
0001
0010
0100
0010
,  // measure 93
0001
0100
1000
0100
0001
0010
1000
0010
0002
0000
0100
0000
0103
0000
0001
0000
,  // measure 94
2000
0010
3010
1000
0002
0010
2003
0100
,  // measure 95
3001
0200
0320
2030
3001
0010
0011
0001
,  // measure 96
0100
0010
1010
1000
0100
0010
0110
0100
,  // measure 97
2000
3002
0203
0320
2030
0001
0001
0100
,  // measure 98
3200
0000
1000
0000
0320
0000
0001
0000
0130
0000
0010
0100
0010
0000
0100
0000
,  // measure 99
1100
0000
0011
0000
2000
0010
0010
3002
,  // measure 100
1000
0203
0001
0001
0320
0100
0100
1000
,  // measure 101
2030
3200
0320
0032
1003
0010
1010
1000
,  // measure 102
0001
0010
0011
0001
0200
0001
0001
0320
,  // measure 103
0100
0000
0100
0000
2030
0000
0010
0000
3010
1000
0010
0000
0100
0000
0001
0000
,  // measure 104
0010
0001
0010
0000
0100
0000
1000
0000
0100
1000
0100
0000
0010
0000
0001
0000
,  // measure 105
0100
0001
0100
0000
0010
0000
1000
0000
0001
0010
0001
0000
1000
0010
1000
0000
,  // measure 106
0001
0100
0001
0000
1000
0100
1000
0000
0010
0000
0100
0010
0100
0000
0010
0000
,  // measure 107
1000
0000
0001
0000
1000
0001
1000
0001
1000
0000
0000
0000
0000
0000
0000
0000
;
