#TITLE:Buoy Base Galaxy;
#SUBTITLE:(Remix);
#ARTIST:Video Game Remixes;
#TITLETRANSLIT:;
#SUBTITLETRANSLIT:;
#ARTISTTRANSLIT:;
#GENRE:;
#CREDIT:;
#BANNER:Buoy Base Galaxy (Remix).png;
#BACKGROUND:Buoy Base Galaxy (Remix)-bg.png;
#LYRICSPATH:;
#CDTITLE:cdtitle.png;
#MUSIC:Buoy Base Galaxy (Remix).ogg;
#OFFSET:-0.044000;
#SAMPLESTART:79.244003;
#SAMPLELENGTH:15.000000;
#SELECTABLE:YES;
#BPMS:0.000000=133.332993
;
#STOPS:
;
#BGCHANGES:;
#KEYSOUNDS:;
#ATTACKS:;

//---------------dance-single - ----------------
#NOTES:
     dance-single:
     :
     Hard:
     15:
     0.643238,0.714400,0.257042,0.655900,1.165553,508.000000,479.000000,29.000000,74.000000,0.000000,0.000000,0.643238,0.714400,0.257042,0.655900,1.165553,508.000000,479.000000,29.000000,74.000000,0.000000,0.000000:
0000
0000
0000
0000
,
0000
0000
0000
0000
,
0000
0000
0000
0000
,
0000
0000
0100
0100
,
0010
0010
1010
0010
,
0100
0000
0000
0100
0000
0000
1100
0000
0000
0100
0000
1000
,
0001
0001
0101
0001
,
1000
0000
0000
0000
0000
0000
1000
0000
0000
0000
0000
0000
1000
0000
0100
0000
0010
0100
0010
0000
0000
0000
0100
0000
,
2002
0000
0000
0000
,
0000
0000
3003
0100
,
0102
0000
1000
0000
,
1000
0000
0000
1000
0000
0000
1000
1000
1000
1003
0001
1000
,
0001
0100
0100
1000
0000
0000
0100
0010
0010
0001
0000
0001
,
0010
0001
0001
1000
0000
0000
0001
1000
0001
1000
0100
0010
,
0100
1000
1000
0010
0000
0000
1000
0100
0100
0001
0000
0100
,
0010
0001
0001
0010
0100
0010
1000
0000
0000
0100
0100
0100
,
0010
1000
1000
0100
0000
0000
1000
0010
0010
0001
0000
0010
,
0100
0001
0001
1000
0000
0000
0010
1000
0010
1000
0001
0100
,
0001
0010
0010
1000
0000
0000
0100
0010
0010
0001
0000
1000
,
0001
0000
0100
0000
0100
0000
1000
0000
0000
0000
1000
0010
1000
0000
0100
0000
0000
0000
0010
0000
0000
0000
0001
0000
,
0200
0000
0300
2002
0000
3003
2000
0000
3000
2002
0000
3003
,
0200
0000
0300
0202
0000
0303
0020
0001
0130
0002
1000
0103
,
2000
0000
0000
0000
3000
0000
2200
0000
0000
0000
3300
0000
0020
0000
0000
0000
0030
0000
2002
0000
0003
0000
3000
0010
,
0100
0000
0001
1000
0001
0000
0100
0000
0010
0000
0010
0000
0010
0000
0100
0001
0100
0000
0001
0000
0010
1000
0010
0000
,
2000
0000
3000
2200
0000
3300
0200
0000
0300
0220
0000
0330
,
0002
0000
0003
0202
0000
0303
0002
0100
1003
0200
1000
0301
,
0020
0000
0030
0012
0010
0013
0100
0000
1000
0001
1000
0010
,
0100
0000
0000
0000
0000
0000
0100
0000
0000
0000
0000
0000
0100
0000
0010
0000
0001
1000
0001
0000
0000
0000
1000
0000
,
0100
1000
0100
0010
0001
0010
0100
0001
0100
1000
0100
0010
,
0001
0010
0001
0100
0010
1000
0100
0010
0001
0010
1000
0100
,
1000
0001
0100
1000
0100
0010
0100
0010
0001
0100
0001
0010
,
0100
1000
0100
0001
0100
1000
0010
0001
0010
1000
0001
0100
,
0010
0100
0001
0010
0100
1000
0100
0001
0010
0001
0100
0010
,
0100
1100
1010
0011
,
0101
0001
0010
1000
0010
0001
1000
0010
0100
0001
0010
0001
,
0100
0010
1000
0100
1000
0010
0200
0310
2000
3100
0020
1030
,
0002
0000
0010
0010
0000
0100
0203
0000
1000
1000
0000
0001
,
0001
0000
1000
1000
0000
0010
0310
0000
0001
1000
0100
1000
,
0020
0000
0001
0001
0000
1000
2030
0000
0100
0100
0000
0001
,
0001
0000
0100
0100
0000
0010
3010
0100
0001
1000
0001
0010
,
0200
0000
1000
1000
0000
0001
0302
0000
0100
0100
0000
0010
,
0010
0000
1000
1000
0000
1000
0013
0001
0100
0001
1000
0100
,
0020
0000
0000
0030
,
2002
0000
0000
3003
,
0100
0000
0000
2100
0010
3010
0100
0000
0000
1000
0100
0100
,
0010
0000
0000
0210
0001
0301
0010
0000
0001
0010
0001
1000
,
0010
0000
0000
0012
1000
1003
0010
0000
0000
0001
0010
0010
,
1000
0000
0000
2001
0100
3100
0001
0000
0100
0001
0010
0100
,
2000
0100
3100
0002
0010
0013
0001
0010
0001
1000
0100
0010
,
0200
1000
1300
0020
0001
0031
0100
0010
1000
0100
0010
0001
,
0020
0100
0130
2000
3001
1000
0002
0013
2000
3010
0002
0103
,
2000
3100
0020
0031
2000
3100
0020
1030
0200
0301
0010
1000
,
0100
0000
0000
1100
0100
0010
0001
0000
0000
0011
0000
0000
,
0001
0000
0000
1001
0001
0100
0010
0000
0000
1010
0000
0000
,
0100
0000
0000
1100
0100
1000
0200
0010
0320
0001
0032
0100
,
0203
0010
0320
1000
2030
0001
3002
0010
0023
0100
0230
0000
,
1300
0100
0010
1000
0100
0010
0100
0010
0001
0100
0010
0001
,
0010
0001
1000
0010
0001
1000
0001
1000
0100
0001
1000
0100
,
0010
0100
1000
0010
0100
1000
0100
1000
0001
0100
1000
0001
,
1000
0001
0010
1000
0001
0010
0001
0010
0100
0001
0010
0100
,
2200
0000
0000
0000
,
0000
0000
0000
0000
,
3300
0000
0000
0000
;

//---------------dance-single - ----------------
#NOTES:
     dance-single:
     :
     Medium:
     12:
     0.455838,0.549538,0.221588,0.460903,0.638173,360.000000,335.000000,25.000000,52.000000,0.000000,0.000000,0.455838,0.549538,0.221588,0.460903,0.638173,360.000000,335.000000,25.000000,52.000000,0.000000,0.000000:
0000
0000
0000
0000
,
0000
0000
0000
0000
,
0000
0000
0000
0000
,
0000
0000
0010
0010
,
0100
0100
1100
0100
,
0010
0000
0000
0010
0000
0000
1010
0000
0000
0010
0000
1000
,
0001
0001
0011
0001
,
1000
0000
0000
1000
0000
0000
1000
0001
1000
0001
0000
1000
,
2002
0000
0000
0000
,
0000
0000
3003
0100
,
0210
0000
0010
0000
,
0010
0000
0000
0010
0000
0000
0310
1000
0001
1000
0001
1000
,
0100
0000
0100
1000
0000
0000
0100
0000
0100
0001
0000
0001
,
0010
0000
0010
0001
0000
0000
0010
0000
0010
0001
1000
0001
,
1000
0000
1000
0100
0000
0000
1000
0000
1000
0001
0000
0001
,
0100
0000
0100
0010
0000
0010
1000
0000
0000
0100
0010
0100
,
0010
0000
0010
1000
0000
0000
0010
0000
0010
0001
0000
0001
,
0100
0000
0100
1000
0000
0000
0001
0000
0001
1000
0001
1000
,
0100
0000
0100
1000
0000
0000
0010
0000
0010
0001
0000
0001
,
0010
0000
0010
1000
0000
1000
0100
1000
0000
0001
0000
1000
,
0010
1001
0100
1001
,
1000
0000
0000
1001
0000
0000
2000
0000
3200
0000
0320
0000
,
0031
0110
1000
0110
,
0001
0010
0001
0100
0010
1000
0001
1000
0100
0010
0100
1000
,
0001
0011
0100
0011
,
0100
0000
0000
1100
0000
0000
0020
0000
2030
0000
3200
0000
,
0310
0000
0000
0001
0010
0001
0010
0000
0200
0000
2300
0000
,
3001
0000
0000
0001
0000
0000
0001
1000
0001
1000
0000
0001
,
0100
0000
0100
1000
0000
1000
0100
0000
0100
0001
0000
0001
,
0010
0000
0010
0001
0000
0001
1000
0000
1000
0100
0000
0100
,
0010
0000
0010
0001
0000
0001
0010
0000
0010
1000
0000
1000
,
0010
0000
0010
0001
0000
0001
0020
0000
0032
0000
2003
0000
,
3100
0000
0100
1000
0000
1000
0010
0000
0010
0001
0000
0001
,
0010
0101
1010
0011
,
1100
0000
0100
1000
0000
1000
0010
0000
0010
0100
0000
0100
,
0001
0000
0001
0010
0000
0010
0200
0000
2300
0000
3020
0000
,
0230
0001
0320
1000
,
0100
0000
0000
1000
0000
0000
0130
0000
0010
0000
1000
0000
,
0200
0010
2300
0100
,
0001
0000
0000
0100
0000
0000
3001
0000
1000
0000
0100
0000
,
0020
0100
0032
0010
,
1000
0000
0000
0010
0000
0000
1003
0000
0100
0000
0010
0000
,
0220
0000
0000
0330
,
2002
0000
0000
3003
,
0200
0000
0000
0300
1000
0100
0020
0000
0000
0030
0000
0000
,
0002
0000
0000
0003
0010
0100
2000
0000
0000
3000
0000
0000
,
0020
0000
0000
0030
1000
0001
0100
0000
0010
0000
1000
0000
,
0100
0000
0010
0000
0001
0000
0200
0000
0000
0300
0000
0000
,
0001
0000
0001
1000
0000
1000
0100
0000
0100
1000
0100
0010
,
0001
0000
0001
0010
0000
0010
0100
0000
0100
0010
0001
0010
,
0100
0000
0100
1000
0001
1000
0200
0000
0320
0000
0032
0000
,
0203
0000
0320
0000
2030
0000
3200
0000
0320
0000
0032
0000
,
0013
1010
0100
1100
,
0010
0011
0100
0101
,
1000
0000
0000
1001
0001
1000
0002
0000
0023
0000
0032
0000
,
2003
0000
3200
0000
0310
0000
0020
0000
0230
0000
2300
0000
,
3100
0000
1000
1000
0000
0100
0100
0000
0001
0001
0000
0010
,
0010
0000
0001
0001
0000
0010
0010
0000
1000
1000
0000
0100
,
0100
0000
0001
0001
0000
0100
0100
0000
0010
0010
0000
1000
,
1000
0000
0001
0001
0000
1000
1000
0001
1000
0001
1000
0001
,
2002
0000
0000
0000
,
0000
0000
0000
0000
,
3003
0000
0000
0000
;

//---------------dance-single - ----------------
#NOTES:
     dance-single:
     :
     Beginner:
     4:
     0.172206,0.219815,0.053181,0.062045,0.000000,136.000000,130.000000,6.000000,7.000000,0.000000,0.000000,0.172206,0.219815,0.053181,0.062045,0.000000,136.000000,130.000000,6.000000,7.000000,0.000000,0.000000:
// measure 0
0000
0000
0000
0000
,  // measure 1
0000
0000
0000
0000
,  // measure 2
0000
0000
0000
0000
,  // measure 3
0000
0000
0000
0000
,  // measure 4
0010
0000
1001
0000
,  // measure 5
0100
0000
1001
0000
,  // measure 6
0001
0000
0110
0000
,  // measure 7
1000
0000
1000
1000
,  // measure 8
0200
0000
0000
0000
,  // measure 9
0000
0000
0000
0300
,  // measure 10
0020
0000
0000
0000
,  // measure 11
0000
0000
0000
0030
,  // measure 12
0100
0000
1000
0000
,  // measure 13
0100
0000
0001
0000
,  // measure 14
0100
0000
1000
0000
,  // measure 15
0010
0000
0001
0000
,  // measure 16
0010
0000
1000
0000
,  // measure 17
0100
0000
0001
0000
,  // measure 18
0100
0000
1000
0000
,  // measure 19
0001
0000
1000
1000
,  // measure 20
0000
0010
0000
0100
,  // measure 21
0000
0010
0000
1000
,  // measure 22
0000
0001
0000
1000
,  // measure 23
1000
1000
1000
1000
,  // measure 24
1000
1000
0000
0001
,  // measure 25
0000
0010
0000
0100
,  // measure 26
0000
1000
0000
0100
,  // measure 27
0200
0300
0200
0300
,  // measure 28
0001
0001
0001
0000
,  // measure 29
1000
1000
1000
0000
,  // measure 30
0100
0100
0100
0000
,  // measure 31
0010
0010
0010
0000
,  // measure 32
0001
0001
0001
0000
,  // measure 33
0010
0010
0010
0010
,  // measure 34
0010
0000
1000
0000
,  // measure 35
0100
0100
0100
0100
,  // measure 36
0100
0000
1000
0000
,  // measure 37
0100
0000
0010
0010
,  // measure 38
0010
0000
0001
0000
,  // measure 39
0100
0000
1000
1000
,  // measure 40
1000
0000
0100
0000
,  // measure 41
1000
0000
0010
0010
,  // measure 42
0020
0000
0000
0030
,  // measure 43
0200
0000
0000
0300
,  // measure 44
0000
0010
0000
1001
,  // measure 45
0000
0100
0000
1001
,  // measure 46
0000
0010
0000
1001
,  // measure 47
0000
0010
0000
1000
,  // measure 48
0100
0000
0100
1000
,  // measure 49
0100
0000
0100
0001
,  // measure 50
0100
0000
0100
0010
,  // measure 51
0100
0100
0100
0100
,  // measure 52
0100
0000
1000
0000
,  // measure 53
0100
0000
0001
0000
,  // measure 54
0100
0000
0010
0000
,  // measure 55
1000
0000
0100
0100
,  // measure 56
0100
0000
0100
0000
,  // measure 57
0100
0000
0100
1000
,  // measure 58
0010
0000
0010
0000
,  // measure 59
0010
0000
0010
0010
,  // measure 60
0200
0000
0000
0000
,  // measure 61
0000
0000
0000
0000
,  // measure 62
0300
0000
0000
0000
;

//---------------dance-single - ----------------
#NOTES:
     dance-single:
     :
     Easy:
     7:
     0.254510,0.384677,0.088635,0.319087,0.163975,201.000000,191.000000,10.000000,36.000000,0.000000,0.000000,0.254510,0.384677,0.088635,0.319087,0.163975,201.000000,191.000000,10.000000,36.000000,0.000000,0.000000:
0000
0000
0000
0000
,
0000
0000
0000
0000
,
0000
0000
0000
0000
,
0000
0000
0100
0100
,
0100
0000
1001
0000
,
0010
0000
0000
0000
0000
0000
1001
0000
0000
0000
0000
0100
,
1000
0000
0110
0000
,
0001
0001
0100
0100
,
0200
0000
0000
0000
,
0000
0000
0300
0100
,
0020
0000
0100
0000
,
0100
0100
0100
0130
,
0010
1000
0010
0000
,
0100
0001
0100
0010
,
1000
0100
1000
0000
,
0100
0010
0100
0001
,
0001
0100
0001
0000
,
0010
0001
0010
0100
,
0010
1000
0010
0000
,
0100
1000
0100
0010
,
0200
0300
2000
3000
,
0020
0000
0000
0030
0000
0000
0001
0000
0010
0000
0100
0000
,
2000
3000
0002
0003
,
0100
1000
0001
1000
,
0020
0030
0200
0300
,
0002
0000
0000
0003
0000
0000
0010
0000
0001
0000
1000
0000
,
0200
0000
0000
1000
0000
0000
1300
0000
0001
0000
1000
0000
,
0200
0300
0100
0100
,
0100
1000
0010
0100
,
0001
0010
0100
0010
,
0100
1000
0001
1000
,
0100
0001
0010
0001
,
0100
1000
0010
0001
,
0010
0010
0010
0010
,
0010
0001
0100
1000
,
0010
0000
0000
0100
0000
0000
0010
0000
0001
0000
1000
0000
,
0020
0000
0230
0000
,
0010
0000
0000
0000
0000
0000
0310
0000
1000
0000
0100
0000
,
2000
0000
3002
0000
,
1000
0000
0000
0000
0000
0000
1003
0000
0100
0000
0010
0000
,
0200
0000
0320
0000
,
0100
0000
0000
0000
0000
0000
0130
0000
1000
0000
0001
0000
,
0200
0000
0000
0300
,
0220
0000
0000
0330
,
0020
0000
0000
0030
0000
1000
0200
0000
0000
0300
0000
0000
,
2000
0000
0000
3000
0000
0001
0020
0000
0000
0030
0000
0000
,
0002
0000
0000
0003
0000
0100
0010
0000
1000
0000
1000
0000
,
0100
0000
0001
0000
0001
0000
0020
0000
0000
0030
0000
0000
,
1000
1010
1000
1010
,
0100
0101
0100
0101
,
0001
0000
0000
0011
0000
0000
0001
0000
0010
0000
0001
0000
,
0100
0000
0010
0000
0100
0000
0010
0000
1000
0000
0010
0000
,
2000
0000
0000
3000
0000
0001
0020
0000
0000
0030
0000
0000
,
0002
0000
0000
0000
0003
1000
0200
0000
0000
0300
0000
0000
,
0020
0000
0000
0030
0000
0001
0100
0000
0010
0000
1000
0000
,
0001
0000
1000
0000
0100
0000
0100
0000
1000
0000
0001
0000
,
0200
0000
0010
0000
,
0010
0000
0310
0001
,
0020
0000
0100
0000
,
0130
0100
0010
0100
,
0220
0000
0000
0000
,
0000
0000
0000
0000
,
0330
0000
0000
0000
;
