#VERSION:0.83;
#TITLE:Beyond The Heart;
#SUBTITLE:(Broken Heart Mix);
#ARTIST:Lena Raine;
#TITLETRANSLIT:;
#SUBTITLETRANSLIT:;
#ARTISTTRANSLIT:;
#GENRE:;
#ORIGIN:;
#CREDIT:;
#BANNER:Beyond The Heart (Broken Heart Mix).png;
#BACKGROUND:Beyond The Heart (Broken Heart Mix)-bg.png;
#PREVIEWVID:;
#JACKET:Beyond The Heart (Broken Heart Mix)-jacket.png;
#CDIMAGE:;
#DISCIMAGE:;
#LYRICSPATH:;
#CDTITLE:cdtitle.png;
#MUSIC:Beyond The Heart (Broken Heart Mix).ogg;
#OFFSET:0.390000;
#SAMPLESTART:63.096001;
#SAMPLELENGTH:15.000000;
#SELECTABLE:YES;
#BPMS:0.000=130.422;
#STOPS:;
#DELAYS:;
#WARPS:;
#TIMESIGNATURES:0.000=4=4;
#TICKCOUNTS:0.000=4;
#COMBOS:0.000=1;
#SPEEDS:0.000=1.000=0.000=0;
#SCROLLS:0.000=1.000;
#FAKES:;
#LABELS:0.000=Song Start;
#LASTSECONDHINT:18.932373;
#BGCHANGES:;
#KEYSOUNDS:;
#ATTACKS:
;

//---------------dance-single - ----------------
#NOTEDATA:;
#CHARTNAME:;
#STEPSTYPE:dance-single;
#DESCRIPTION:;
#CHARTSTYLE:;
#DIFFICULTY:Hard;
#METER:12;
#RADARVALUES:0.499668,0.559688,0.179675,0.203632,0.347372,292.000000,277.000000,15.000000,17.000000,0.000000,0.000000,0.000000,0.000000,0.000000,0.499668,0.559688,0.179675,0.203632,0.347372,292.000000,277.000000,15.000000,17.000000,0.000000,0.000000,0.000000,0.000000,0.000000;
#CREDIT:;
#NOTES:
// measure 0
0000
0000
0000
0000
,  // measure 1
1000
0000
0000
0001
0000
0000
1000
0001
0000
1000
0000
0000
0001
0000
1000
0001
,  // measure 2
0000
0000
0000
0000
,  // measure 3
0100
0000
0000
0010
0000
0000
0100
0010
0000
0100
0000
0000
0010
0000
0100
0010
,  // measure 4
0000
0000
0000
0000
0000
0000
0000
0000
0100
0000
0000
0100
0000
0000
0100
0000
,  // measure 5
0001
0000
0000
0100
0000
0000
0001
0100
0000
0001
0000
0000
0100
0000
0001
0100
,  // measure 6
0010
0000
0000
1000
0000
0000
0010
1000
0000
0010
0000
0000
1000
0000
0010
1000
,  // measure 7
0100
0000
0000
1000
0000
0000
0100
1000
0000
0100
0000
0000
1000
0000
0100
1000
,  // measure 8
0010
0000
1010
0000
0101
0000
1001
2000
,  // measure 9
3010
0000
0000
0000
0100
0000
0001
0000
1000
0000
0000
0010
1000
0000
0100
0000
,  // measure 10
1100
0000
0000
0000
0011
0000
0000
0000
2000
0000
0000
0001
0000
0000
0001
0000
,  // measure 11
0000
0001
0000
0000
0001
0000
0001
0000
0100
0000
0000
0100
0000
0000
0100
0000
,  // measure 12
0000
0000
3100
0000
0000
1000
0000
0000
0002
0000
0000
0100
0000
0000
0100
0000
,  // measure 13
0000
0100
0000
0000
0100
0000
0100
0000
0010
0000
0000
0010
0000
0000
0013
0001
,  // measure 14
0010
0000
0000
0100
0000
0000
1000
0000
0020
0000
0000
1000
0000
0000
1000
0000
,  // measure 15
0000
1000
0000
0000
1000
0000
1000
0000
0100
0000
0000
0100
0000
0000
0130
0010
,  // measure 16
0100
0000
0000
0010
0000
0000
1000
0000
0002
0000
0000
1000
0000
0000
1000
0000
,  // measure 17
0000
1000
0000
0000
1000
0000
1003
0000
0200
0000
0000
1000
0000
0000
1000
0000
,  // measure 18
0000
0000
1000
0000
0000
0000
0000
0000
0000
1300
0000
0000
0000
0000
0000
0000
0000
0001
0000
0000
0000
0000
0000
0000
0000
1000
0000
0000
0000
0000
0000
0000
,  // measure 19
0000
1001
0000
0000
0000
0000
0000
0000
0000
0001
0000
0000
0000
0000
0000
0000
0000
0100
0000
0000
0000
0000
0000
0000
0000
0010
0000
0000
0000
0000
0000
0000
,  // measure 20
0000
0110
0000
0000
0000
0000
0000
0000
0100
0000
0000
0000
0000
0000
0000
0000
0001
0000
0000
0000
1000
0000
0000
0000
1001
0000
0000
0000
0001
0000
0000
0000
,  // measure 21
1000
0001
1001
1000
0010
0100
0110
0010
,  // measure 22
0100
0000
0010
0000
0110
0000
0100
0000
0001
0000
1000
0001
0000
0000
1000
0000
,  // measure 23
0010
0000
0100
0000
0001
0000
1000
0000
0001
0000
1000
0010
0000
0000
1000
0000
,  // measure 24
0100
0010
0001
1000
0010
0100
0001
0000
,  // measure 25
0010
0001
0100
0001
0010
0100
1000
0000
,  // measure 26
0010
1000
0100
1000
0001
0000
1000
0000
,  // measure 27
0020
2030
3002
1000
,  // measure 28
0100
0000
1003
0100
0020
0000
0001
0000
,  // measure 29
0100
0001
0230
1000
,  // measure 30
0010
0000
0000
0000
1000
0000
0000
0000
0300
1000
0000
0000
0001
0000
1000
0001
,  // measure 31
0000
0000
1000
0000
0000
0000
0000
0000
0000
0010
0000
0000
0100
0000
0010
0100
,  // measure 32
0000
0000
0010
0000
0000
0000
0000
0000
0000
1000
0000
0000
0100
0000
1000
0100
,  // measure 33
0000
0000
1000
0000
0000
0000
0000
0000
0000
0001
0000
0000
0010
0000
0001
0010
,  // measure 34
0000
0001
0000
0000
1000
0010
0100
0001
,  // measure 35
0001
0010
0001
0100
0010
1000
0100
1000
,  // measure 36
1000
0010
0100
0001
1000
0100
0010
0100
,  // measure 37
0100
1000
0010
1000
0001
0010
0100
0010
,  // measure 38
0010
0001
1000
0010
1000
0100
0010
0001
,  // measure 39
0002
0100
2003
0100
3020
0100
0100
0100
,  // measure 40
0100
0130
0010
1000
0001
0010
0100
1000
,  // measure 41
2000
0010
3002
0010
0203
0010
0010
0010
,  // measure 42
0010
0310
0100
0001
1000
0010
1000
1000
,  // measure 43
0001
0010
0001
0001
0101
0100
0110
0010
,  // measure 44
1010
1000
1001
0001
0100
0000
0000
0000
;

//---------------dance-single - ----------------
#NOTEDATA:;
#CHARTNAME:;
#STEPSTYPE:dance-single;
#DESCRIPTION:;
#CHARTSTYLE:;
#DIFFICULTY:Medium;
#METER:10;
#RADARVALUES:0.388441,0.426429,0.143740,0.119783,0.161708,227.000000,215.000000,12.000000,10.000000,0.000000,0.000000,0.000000,0.000000,0.000000,0.388441,0.426429,0.143740,0.119783,0.161708,227.000000,215.000000,12.000000,10.000000,0.000000,0.000000,0.000000,0.000000,0.000000;
#CREDIT:;
#NOTES:
0000
0000
0000
0000
,
1000
0000
0000
1000
0000
0000
1000
0000
0000
1000
0000
0000
1000
0000
1000
0000
,
0000
0000
0000
0000
,
0001
0000
0000
0001
0000
0000
0001
0000
0000
0001
0000
0000
0001
0000
0001
0000
,
0000
0000
0000
0000
0000
0000
0000
0000
0100
0000
0000
0100
0000
0000
0000
0000
,
1000
0000
0000
1000
0000
0000
1000
0000
0000
1000
0000
0000
1000
0000
1000
0000
,
0001
0000
0000
0001
0000
0000
0001
0000
0000
0001
0000
0000
0001
0000
0001
0000
,
0100
0000
0000
0100
0000
0000
0100
0000
0000
0100
0000
0000
0100
0000
0100
0000
,
0010
0000
0010
0000
0010
0000
0010
0010
,
0000
0000
0000
0000
,
1000
0001
2000
0001
,
0001
0001
0001
0000
0100
0000
0100
0000
,
0100
0100
3100
0000
0020
0000
0001
0000
,
0001
0001
0001
0000
0100
0000
0100
0100
,
0130
0000
0000
1000
0000
0000
0001
0000
0200
0000
0000
0000
0010
0000
0000
0000
,
0010
0010
0010
0000
0001
0000
0001
0001
,
0301
0000
0000
0010
0000
0000
0001
0000
2000
0000
0000
0000
0001
0000
0000
0000
,
0001
0001
3001
0000
0020
0000
0001
0000
,
0001
0000
0000
0000
0001
0000
0000
0000
0031
0000
0000
0000
0000
0000
0000
0000
0000
1000
0000
0000
0000
0000
0000
0000
0000
0001
0000
0000
0000
0000
0000
0000
,
0000
0100
0000
0000
0000
0000
0000
0000
0000
0000
0000
0000
0000
0000
0000
0000
0000
0001
0000
0000
0000
0000
0000
0000
0000
1000
0000
0000
0000
0000
0000
0000
,
0000
0100
0000
0000
0000
0000
0000
0000
0000
0000
0000
0000
0000
0000
0000
0000
1000
0000
0000
0000
0010
0000
0000
0000
0100
0000
0000
0000
0000
0000
0000
0000
,
0001
0010
0100
0000
1000
0100
0010
0000
,
0001
0100
0010
0000
1000
0000
1000
0000
,
1000
0100
0010
0001
0100
0000
0100
0000
,
0100
0001
0010
0100
1000
0100
1000
0000
,
0000
1000
0010
0100
0001
0010
0001
0000
,
0000
0001
0100
0010
1000
0000
0001
0000
,
0200
0320
2030
0001
,
0001
0000
3001
0010
0200
0000
1000
0000
,
1000
1300
0020
0001
,
0001
0000
0000
0000
0031
0000
0000
0000
0000
1000
0000
0000
1000
0000
0000
1000
,
0000
0000
1000
0000
0000
0000
0000
0000
0000
0001
0000
0000
0001
0000
0000
0001
,
0000
0000
0001
0000
0000
0000
0000
0000
0000
0100
0000
0000
0100
0000
0000
0100
,
0000
0000
0100
0000
0000
0000
0000
0000
0000
0010
0000
0000
0010
0000
0000
0010
,
0000
0010
0000
0000
1000
0000
1001
0000
,
0001
0100
0010
0100
0001
0000
1001
0000
,
1000
0100
0010
0100
1000
0000
1010
0000
,
0010
0100
0001
0010
0001
0000
0011
0000
,
0010
0100
1000
0010
1000
0000
0110
0000
,
0001
0010
0100
1000
0001
0000
0110
0000
,
1000
0100
0010
0001
1000
0000
0101
0000
,
0010
1000
0100
0010
0001
0000
1100
0000
,
0010
0001
0100
0010
1000
0100
1000
0000
,
0001
0010
0001
0000
0101
0000
1010
0000
,
0110
1001
0100
0000
;

//---------------dance-single - ----------------
#NOTEDATA:;
#CHARTNAME:;
#STEPSTYPE:dance-single;
#DESCRIPTION:;
#CHARTSTYLE:;
#DIFFICULTY:Challenge;
#METER:16;
#RADARVALUES:0.780303,0.879510,0.874419,0.227589,0.838484,456.000000,383.000000,73.000000,19.000000,0.000000,0.000000,0.000000,0.000000,0.000000,0.780303,0.879510,0.874419,0.227589,0.838484,456.000000,383.000000,73.000000,19.000000,0.000000,0.000000,0.000000,0.000000,0.000000;
#CREDIT:;
#NOTES:
0000
0000
0000
0000
,
1100
0000
0000
0101
0000
0000
1001
1000
0000
1010
0000
0000
0011
0000
0100
0010
,
0000
0000
0000
0000
,
0101
0000
0000
1010
0000
0000
0011
0010
0000
0110
0000
0000
1100
0000
0001
1000
,
0000
0000
0000
0000
0000
0000
0000
0000
0110
0000
0000
0110
0000
0000
0110
0000
,
0011
0000
0000
1100
0000
0000
1001
0001
0000
0011
0000
0000
1010
0000
0100
0001
,
0101
0000
0000
1100
0000
0000
0110
0010
0000
0011
0000
0000
1001
0000
0010
1000
,
1010
0000
0000
0011
0000
0000
1100
1000
0000
1001
0000
0000
0101
0000
1000
0100
,
1100
0001
0011
0100
0101
0010
0110
1001
,
1000
0000
0010
0000
0100
0000
0001
0000
0010
0000
0100
0000
0010
0000
0001
0000
1000
0000
0100
0000
1000
0000
0001
0010
0001
0000
0100
0000
0010
0000
1000
0000
,
0100
0010
0100
0010
0100
1000
0100
1000
0002
0000
0000
1000
0000
0000
1000
1000
,
0000
1000
0000
0000
1000
0000
1000
0000
0100
0000
0000
0100
0000
0000
0100
0100
,
0000
0100
0203
0000
0000
0320
0000
0000
2030
0000
0000
0100
0000
0000
0100
0100
,
0000
0100
0000
0000
0100
0000
0100
0000
0001
0000
0000
0001
0000
0000
3001
0010
,
0200
0000
0000
0000
0000
0000
0000
0000
0000
2300
0000
0000
0000
0000
0000
0000
0000
0000
3020
0000
0000
0000
0000
0000
0130
0000
0001
0000
0200
0000
0000
0000
0000
0001
0000
0000
0000
0000
0000
0000
0000
0000
0001
0000
0000
0001
0000
0000
,
0000
0001
0000
0000
0001
0000
0001
0000
0010
0000
0000
0010
0000
0000
0310
1000
,
0200
0000
0000
0000
0000
0000
0000
0000
0000
2300
0000
0000
0000
0000
0000
0000
0000
0000
3002
0000
0000
0000
0000
0000
0013
0000
0100
0000
0020
0000
0000
0000
0000
0100
0000
0000
0000
0000
0000
0000
0000
0000
0100
0000
0000
0100
0000
0000
,
0000
0000
0000
0100
0000
0000
0000
0000
0000
0000
0000
0000
0100
0000
0000
0000
0000
0000
0130
0000
1000
0000
0100
0000
2000
0000
0000
0000
0000
0000
0000
0000
0000
0001
0000
0000
0000
0000
0000
0000
0000
0000
0001
0000
0000
0001
0000
0000
,
0000
0000
0000
0000
0000
0000
0000
0000
0000
0000
0000
0000
0001
0000
0000
0000
0000
0000
0000
0000
0000
0000
0000
0000
0000
0000
0000
0000
0000
0000
0000
0000
0000
0000
0000
0000
0000
0000
3001
0000
0000
0000
0000
0000
0000
0000
0000
0000
0000
0000
0000
0000
0000
0000
0100
0000
0000
0000
0000
0000
0000
0000
0000
0000
0000
0000
0000
0000
0000
0000
0010
0000
0000
0000
0000
0000
0000
0000
0000
0000
0000
0000
0000
0000
0000
0000
1000
0000
0000
0000
0000
0000
0000
0000
0000
0000
0000
0000
0000
0000
0000
0000
0001
0000
0000
0000
0000
0000
0000
0000
0000
0000
0000
0000
0000
0000
0000
0000
0000
0000
0000
0000
0000
0000
0000
0000
0000
0000
0000
0000
0000
0000
0000
0000
0000
0000
0000
0000
0000
0000
0000
0000
0000
0000
0000
0000
0000
0000
0000
0000
1000
0000
0000
0000
0000
0000
0000
0000
0000
0000
0000
0000
0000
0000
0000
0000
0000
0000
0000
0000
0000
0000
0000
0000
0000
0000
0000
0000
0000
0000
0000
0000
0000
0000
0000
0000
0000
0000
0000
0000
0000
0000
,
0000
1100
0000
0000
0000
0000
0000
0000
0000
0100
0000
0000
0000
0010
0000
0000
0000
0001
0000
0000
0000
0000
0000
0000
0000
1000
0000
0000
0000
0010
0000
0000
,
0000
0110
0000
0000
0000
0000
0000
0000
0100
0000
0000
0000
0001
0000
0000
0000
1000
0000
0000
0000
0001
0000
0000
0000
1001
0000
0000
0000
1000
0000
0010
0000
,
0100
0010
0000
1000
1001
0000
0001
0000
0100
0000
0010
0000
1010
0000
1000
0100
,
0010
0001
0000
0100
0101
0000
0001
0000
1000
0000
0001
0100
0100
0000
0001
0001
,
0010
0100
1000
0001
0010
0000
0001
0100
0001
0000
1000
0100
0100
0000
1000
1000
,
0001
0010
0100
0010
0001
0000
0100
0010
1000
0000
0001
0000
0011
0000
0000
0000
,
0100
0000
0000
1000
0000
0000
0001
0100
0010
1000
0000
0000
0001
0000
0000
1000
0000
0000
1010
0000
0000
0000
0000
0000
,
0100
0000
0000
0001
0000
0000
0010
0100
1000
0001
0000
0000
1000
0000
0000
0001
0000
0000
0010
0000
0000
0001
0000
0000
,
2000
0100
3002
0010
0203
0001
0010
0001
,
0010
0000
0000
0001
0000
0000
0310
1000
0010
1000
0000
0000
0020
0000
0000
0100
0000
0000
1000
0000
0000
0100
0000
0000
,
1000
0100
1000
0100
2030
0100
0001
0100
,
0001
0000
0100
0000
0001
0000
0100
0000
3000
1100
0000
0000
1010
0000
0011
0011
,
0000
0000
0101
0000
0000
0000
0000
0000
0000
0110
0000
0000
1100
0000
1001
1001
,
0000
0000
0011
0000
0000
0000
0000
0000
0000
0101
0000
0000
1010
0000
0110
0110
,
0000
0000
1100
0000
0000
0000
0000
0000
0000
1010
0000
0000
0011
0000
1001
1001
,
0000
0000
0110
0000
0020
0000
0000
0000
0031
0000
0001
0000
1001
0000
1000
0100
,
0010
0100
1000
0000
0010
0100
0010
0000
1000
0000
1000
0000
1001
0000
0001
0100
,
0010
0100
0001
0000
0010
0100
1000
0000
0001
0000
0001
0000
0011
0000
0010
0100
,
1000
0001
0100
0000
0010
0100
0010
0000
1000
0000
1000
0000
1010
0000
0010
0100
,
0001
0010
0100
0000
0010
0001
1000
0000
0001
0000
1000
0000
1100
0000
0100
0010
,
0001
1000
0100
0000
1000
1010
0010
0000
0100
0000
0001
0000
0011
0000
0010
0100
,
1000
0001
0010
0000
0001
0101
0100
0000
0010
0000
1000
0000
1010
0000
0010
1000
,
0100
0010
0001
0000
0100
0110
0010
0000
1000
0000
0001
0000
0101
0000
0100
0001
,
0010
0100
1000
0000
0001
1001
1000
0000
0001
0000
1000
0100
1000
0000
0010
0000
,
0100
0000
0001
0010
0001
0000
1000
0000
0001
0100
0010
0100
0001
0000
0010
0100
,
1000
0000
0010
0100
0001
0010
0100
1000
0001
0000
0000
0000
0000
0000
0000
0000
;

//---------------dance-single - ----------------
#NOTEDATA:;
#CHARTNAME:;
#STEPSTYPE:dance-single;
#DESCRIPTION:;
#CHARTSTYLE:;
#DIFFICULTY:Easy;
#METER:5;
#RADARVALUES:0.253256,0.346474,0.095827,0.239567,0.023957,148.000000,140.000000,8.000000,20.000000,0.000000,0.000000,0.000000,0.000000,0.000000,0.253256,0.346474,0.095827,0.239567,0.023957,148.000000,140.000000,8.000000,20.000000,0.000000,0.000000,0.000000,0.000000,0.000000;
#CREDIT:;
#NOTES:
0000
0000
0000
0000
,
1000
0000
0000
1000
0000
0000
1000
0000
,
1000
0000
0000
0000
,
0001
0000
0000
0001
0000
0000
0001
0000
,
0001
0000
0000
0000
,
1000
0000
0000
1000
0000
0000
1000
0000
,
0001
0000
0000
0001
0000
0000
0001
0000
,
0100
0000
0000
0100
0000
0000
0100
0000
,
0010
0010
0010
0010
,
0000
0000
0000
0000
,
1000
0001
2000
0001
,
0010
0001
0010
0001
,
0010
3001
0020
0001
,
0100
0001
0100
0001
,
0100
0031
0200
1000
,
0010
1000
0010
1000
,
0010
1300
0002
0100
,
0010
0103
2000
0100
,
0010
0000
0000
0000
0000
0000
0000
0000
3100
0000
0000
0000
0000
0000
0000
0000
0000
0010
0000
0000
0000
0000
0000
0000
0000
0000
0000
0000
0000
0000
0000
0000
,
0000
1100
0000
0000
0000
0000
0000
0000
0000
0000
0000
0000
0000
0000
0000
0000
0000
0010
0000
0000
0000
0000
0000
0000
0000
0000
0000
0000
0000
0000
0000
0000
,
0000
0101
0000
0000
0000
0000
0000
0000
0000
0000
0000
0000
0000
0000
0000
0000
0010
0000
0000
0000
0000
0000
0000
0000
1100
0000
0000
0000
0000
0000
0000
0000
,
0010
0101
0010
1100
,
0010
0101
1000
0010
,
0100
0100
0010
1000
,
0001
0001
0010
0001
,
0000
0001
0100
1000
,
0000
1000
0100
0010
,
2000
3200
0320
0001
,
0001
0031
2000
0010
,
0010
3010
0002
1000
,
1000
1003
0220
0000
,
0000
0000
0000
0000
,
0000
0330
2002
0000
,
0000
0000
0000
0000
,
0000
3003
1000
0001
,
0010
0010
0001
1000
,
0100
0100
0010
0001
,
1000
1000
0010
0100
,
0001
0001
0010
0001
,
0200
0320
2030
0100
,
0001
0010
3001
0100
,
0020
2030
3002
0100
,
1000
0010
1003
1000
,
0001
0001
1000
0001
,
1000
0001
0100
0000
;

//---------------dance-single - ----------------
#NOTEDATA:;
#CHARTNAME:;
#STEPSTYPE:dance-single;
#DESCRIPTION:;
#CHARTSTYLE:;
#DIFFICULTY:Beginner;
#METER:2;
#RADARVALUES:0.123206,0.159911,0.000000,0.059892,0.011978,72.000000,72.000000,0.000000,5.000000,0.000000,0.000000,0.000000,0.000000,0.000000,0.123206,0.159911,0.000000,0.059892,0.011978,72.000000,72.000000,0.000000,5.000000,0.000000,0.000000,0.000000,0.000000,0.000000;
#CREDIT:;
#NOTES:
0000
0000
0000
0000
,
1000
0000
0000
0000
,
1000
0000
0000
0000
,
0001
0000
0000
0000
,
0001
0000
0000
0000
,
1000
0000
0000
0000
,
0001
0000
0000
0000
,
0100
0000
0000
0000
,
0010
0000
0010
0000
,
0000
0000
0000
0000
,
0000
0000
1000
0000
,
1000
0000
0100
0000
,
0100
0000
0001
0000
,
0001
0000
0010
0000
,
0100
0000
0001
0000
,
0001
0000
0010
0000
,
0100
0000
1000
0000
,
1000
0000
0001
0000
,
0001
0000
0000
0000
0000
0000
0000
0000
0000
0000
0000
0000
0000
0000
0000
0000
0000
0100
0000
0000
0000
0000
0000
0000
0000
0000
0000
0000
0000
0000
0000
0000
,
0000
0000
0000
0000
0000
0000
0000
0000
0000
0000
0000
0000
0000
0000
0000
0000
0000
0010
0000
0000
0000
0000
0000
0000
0000
0000
0000
0000
0000
0000
0000
0000
,
0000
0000
0100
0000
,
0010
0000
0100
0000
,
0010
0000
1000
0000
,
0100
0000
0010
0000
,
0001
0000
1000
0000
,
0001
0000
1000
0000
,
0001
0000
0010
0000
,
0100
0100
0200
0000
,
0000
0300
2000
0000
,
0000
3000
0002
0000
,
0000
0003
0020
0000
,
0000
0000
0000
0000
,
0000
0030
0200
0000
,
0000
0000
0000
0000
,
0000
0300
1000
0000
,
0001
0001
0001
0000
,
1000
0000
0010
0000
,
0100
0100
0100
0000
,
0010
0000
1000
0000
,
0010
0010
0010
0000
,
1000
0000
0100
0000
,
1000
1000
1000
0000
,
0100
0000
1000
0000
,
0001
0000
0010
0000
,
0010
0000
0010
0000
;
