#TITLE:おてんば恋娘;
#SUBTITLE:;
#ARTIST:U2 Akiyama;
#TITLETRANSLIT:Beloved Tomboyish Girl;
#SUBTITLETRANSLIT:;
#ARTISTTRANSLIT:;
#GENRE:;
#CREDIT:;
#BANNER:Beloved Tomboyish Girl.png;
#BACKGROUND:Beloved Tomboyish Girl-bg.png;
#LYRICSPATH:;
#CDTITLE:cdtitle.png;
#MUSIC:Beloved Tomboyish Girl.ogg;
#OFFSET:-0.004000;
#SAMPLESTART:31.583000;
#SAMPLELENGTH:15.000000;
#SELECTABLE:YES;
#BPMS:0.000000=190.000000
;
#STOPS:
;
#BGCHANGES:0.000=Beloved Tomboyish Girl.avi=1.000=1=0=0=StretchNoLoop==CrossFade==,
99999=-nosongbg-=1.000=0=0=0 // don't automatically add -songbackground-
;
#KEYSOUNDS:;
#ATTACKS:;

//---------------dance-single - ----------------
#NOTES:
     dance-single:
     :
     Beginner:
     4:
     0.207788,0.262026,0.010695,0.000000,0.000000,136.000000,135.000000,1.000000,0.000000,0.000000,0.000000,0.207788,0.262026,0.010695,0.000000,0.000000,136.000000,135.000000,1.000000,0.000000,0.000000,0.000000:
0000
0000
0000
0000
,
0000
0000
0000
0000
,
0000
0000
0000
0000
,
0000
0000
0000
0000
,
0000
0000
0000
0000
,
0010
0000
0000
0000
,
1000
0000
0000
0000
,
0100
0000
0000
0000
,
0001
0001
0001
0001
,
0001
0000
0010
0000
,
0100
0000
1000
0000
,
0010
0000
0100
0000
,
0001
0000
1000
0000
,
0001
0000
0100
0000
,
1000
0000
0010
0000
,
0001
0000
0010
0000
,
1000
0000
0100
0000
,
0001
0001
0001
0000
,
0100
0100
0100
0000
,
0010
0010
0010
0000
,
1000
1000
1000
0000
,
0100
0100
0100
0000
,
0010
0010
0010
0000
,
0001
0001
0001
0000
,
1000
1000
1000
0000
,
0100
0000
0000
0000
,
0010
0000
0000
0000
,
0100
0000
0010
0000
,
0001
0000
1000
0000
,
0100
0000
1000
0000
,
0001
0000
0010
0000
,
0001
0001
0001
0000
,
0010
0010
0010
0000
,
0100
0000
1000
0000
,
0010
0000
1000
0000
,
0010
0000
0100
0000
,
0001
0000
1000
0000
,
0001
0000
0010
0000
,
0100
0000
1000
0000
,
0010
0010
0010
0000
,
1000
1000
1000
0000
,
0001
0000
1000
0000
,
0001
0000
0010
0000
,
0100
0100
0100
0000
,
0010
0010
0010
0000
,
0001
0000
0010
0000
,
0100
0000
0000
0000
,
1000
0000
0000
0000
,
0001
0000
0000
0000
,
1000
0000
0000
0000
,
0010
0000
0000
0000
,
0100
0000
0000
0000
,
0010
0000
0000
0000
,
1000
0000
0000
0000
,
0100
0000
0100
0000
,
0001
0000
0000
0000
,
0010
0000
0010
0000
,
1000
0000
0000
0000
,
0001
0000
0001
0000
,
1000
0000
0000
0000
,
0100
0000
0100
0000
,
0010
0000
0010
0010
,
0000
0001
0000
0001
,
0000
0100
0000
0100
,
0000
1000
0000
1000
,
0000
0010
0000
0010
,
0000
0100
0100
0100
,
0000
0001
0001
0001
,
0000
1000
1000
1000
,
0000
0010
0010
0000
,
1001
0000
0000
0000
;

//---------------dance-single - ----------------
#NOTES:
     dance-single:
     :
     Hard:
     15:
     0.777676,1.010674,0.352934,0.117645,0.171119,509.000000,476.000000,33.000000,11.000000,0.000000,0.000000,0.777676,1.010674,0.352934,0.117645,0.171119,509.000000,476.000000,33.000000,11.000000,0.000000,0.000000:
// measure 0
0000
0000
0000
0000
,  // measure 1
0000
0000
0000
0000
,  // measure 2
0000
0000
0000
0000
,  // measure 3
0000
0000
0000
0000
,  // measure 4
0000
0000
0000
0000
,  // measure 5
1010
0010
1100
1000
,  // measure 6
0110
0010
0101
0001
,  // measure 7
0011
0010
1001
1000
,  // measure 8
1100
0000
0000
0000
0101
0000
0000
0000
1100
0000
0000
0000
1001
0000
0001
1000
,  // measure 9
0001
0010
0100
1000
0000
0010
0000
1000
,  // measure 10
0100
0010
0100
1000
0000
1000
0010
0100
,  // measure 11
0001
1000
0100
0010
0000
0001
0000
0010
,  // measure 12
0001
1000
0001
0010
0000
0010
0001
0000
,  // measure 13
0010
0001
0010
0100
0000
1000
0000
0100
,  // measure 14
1000
0001
1000
0100
0000
0100
1000
0001
,  // measure 15
0100
0010
1000
0001
0000
1000
0000
0001
,  // measure 16
0100
1000
0100
0001
0000
0001
1000
0000
,  // measure 17
0010
0000
0000
1000
0000
0000
0100
0000
0001
0000
0000
0000
0100
0000
0000
0000
,  // measure 18
1000
0010
1000
0100
0000
0010
0001
0010
,  // measure 19
0100
1000
0001
0010
0000
0001
0000
0100
,  // measure 20
0001
0100
0010
1000
0000
1000
0001
0000
,  // measure 21
1000
0001
1000
0100
0000
1000
0000
0100
,  // measure 22
0001
0100
1000
0100
0000
0100
1000
0100
,  // measure 23
0010
0001
0010
0100
0000
1000
0000
0010
,  // measure 24
0001
0010
1000
0100
0000
0010
0001
0000
,  // measure 25
1100
0000
0000
0000
0000
0000
1010
0000
0000
0000
0011
0000
0001
1000
0100
0000
,  // measure 26
0010
0000
0001
0000
0100
0000
0010
0000
1000
0001
1000
0001
1000
0000
0001
0000
,  // measure 27
1000
0000
0100
0000
0010
0000
0001
0000
0010
0000
0100
0000
1000
0100
1000
0000
,  // measure 28
0010
0100
0001
0010
1000
0010
0001
0100
,  // measure 29
0010
0000
0100
0000
0001
0000
1000
0000
0100
0000
0010
0000
0001
0010
0001
0000
,  // measure 30
0010
0100
1000
0100
0010
0001
0200
0000
,  // measure 31
0310
1000
0001
0010
0100
0010
0001
1000
,  // measure 32
0100
1000
1000
0010
1000
1000
0001
1000
,  // measure 33
0001
0010
0001
0010
0010
0001
1000
0100
,  // measure 34
0100
1000
0100
1000
1000
0100
0001
0100
,  // measure 35
1000
0000
0010
0000
1000
0000
0100
0000
0010
0000
0001
0000
0010
0001
0010
0000
,  // measure 36
0001
0100
0010
1000
0010
0001
0010
1000
,  // measure 37
0100
0000
1000
0000
0001
0000
0010
0000
0001
0000
1000
0000
0100
1000
0100
0000
,  // measure 38
1000
0010
0100
0001
0010
0100
0020
0000
,  // measure 39
0130
1000
0010
0100
0001
0100
0010
1000
,  // measure 40
0001
0010
0010
1000
0010
0010
0100
0010
,  // measure 41
0100
1000
0100
1000
1000
0001
1000
0001
,  // measure 42
0001
0100
0001
0100
0100
0001
0020
0000
,  // measure 43
0130
1000
0100
1000
0010
0100
0001
0010
,  // measure 44
0002
1000
1003
0001
0200
0001
0301
1000
,  // measure 45
0100
0000
0010
0000
0001
0000
0100
0000
0001
1000
0001
1000
0001
1000
0001
1000
,  // measure 46
0001
0000
0001
0010
0001
1000
0001
0010
,  // measure 47
0000
0000
0100
1000
0000
0000
0100
0000
0001
0000
0100
0000
1000
0000
0100
0000
,  // measure 48
0010
0010
0001
0010
0001
0010
0100
1000
,  // measure 49
0000
0100
1000
0020
0000
1000
1030
0100
,  // measure 50
1000
0001
1000
0001
0100
0010
1000
0002
,  // measure 51
0000
1000
1003
0100
0000
0100
0100
0100
,  // measure 52
0010
0001
0000
0000
1000
0010
0000
0000
0100
0000
0001
0000
1000
0000
0200
0000
,  // measure 53
0000
0010
0310
0001
0010
0001
0010
0100
,  // measure 54
1100
0000
1000
0010
1010
0000
1000
0010
,  // measure 55
0001
0000
0000
0000
0010
0001
0020
0000
0000
0000
2030
0000
0000
0000
3100
0000
,  // measure 56
0010
0001
0010
0001
0100
0010
1000
0010
,  // measure 57
0100
0000
0001
0000
1000
0000
0100
0010
0001
0000
0100
0000
0010
0000
1000
0000
,  // measure 58
0001
0000
0001
1000
0001
1000
0001
0010
,  // measure 59
0000
0000
0100
1000
0000
0000
0200
0000
0000
0000
0310
0000
0001
0000
1000
0000
,  // measure 60
0010
1000
0001
1000
0100
1000
0001
0100
,  // measure 61
0001
0010
0001
0000
0010
0100
0010
0000
0100
1000
0100
0000
1000
0001
1000
0001
,  // measure 62
1000
0001
0101
0101
0001
0010
0011
0000
,  // measure 63
0100
1000
1100
1100
1000
0010
1010
0000
,  // measure 64
0010
0100
0110
0110
0100
0001
1001
0000
,  // measure 65
1000
0100
0000
0010
0001
1000
0001
1000
,  // measure 66
0100
1000
1100
1100
1000
0010
1010
0000
,  // measure 67
0100
0010
0110
0110
0010
0100
0101
0000
,  // measure 68
0001
0010
0011
0011
0010
0001
1001
0000
,  // measure 69
1000
0001
1000
0001
1000
0001
1000
0001
1000
0100
0010
0001
1000
0100
0010
0001
,  // measure 70
1000
0000
0000
0000
;

//---------------dance-single - ----------------
#NOTES:
     dance-single:
     :
     Easy:
     7:
     0.320849,0.374324,0.096255,0.053475,0.000000,210.000000,201.000000,9.000000,5.000000,0.000000,0.000000,0.320849,0.374324,0.096255,0.053475,0.000000,210.000000,201.000000,9.000000,5.000000,0.000000,0.000000:
0000
0000
0000
0000
,
0000
0000
0000
0000
,
0000
0000
0000
0000
,
0000
0000
0000
0000
,
0000
0000
0000
0000
,
0001
0000
0001
0000
,
1000
0000
1000
0000
,
0010
0000
0100
0000
,
0010
0100
0010
0100
,
0001
1000
0001
1000
,
0010
1000
0010
1000
,
0100
1000
0100
1000
,
0100
0010
0001
0100
,
0001
1000
0001
1000
,
0001
0100
0001
0100
,
0001
0010
0001
0010
,
0001
0100
0010
1000
,
0100
0000
0010
0000
,
0100
1000
0010
1000
,
0001
0000
0010
0000
,
0100
0010
0100
1000
,
0010
0000
0100
0000
,
0001
1000
0001
0100
,
0010
0000
1000
0000
,
0010
0100
0010
1000
,
0100
0000
0000
0010
0000
0000
0001
0000
,
0200
0000
0000
0300
,
0010
0000
1000
0100
,
0010
0000
0001
0000
,
0010
0000
0100
1000
,
0001
0000
0100
0000
,
0010
0000
1000
0100
,
0010
0000
0000
0010
0000
0000
0010
0000
,
0100
0100
1000
1000
,
0010
1000
0100
1000
,
0001
0000
0010
0100
,
0010
0001
0100
0001
,
1000
0000
0001
0010
,
0001
1000
0100
1000
,
0010
0000
0100
0001
,
1000
0000
0000
1000
0000
0000
1000
0000
,
0001
0001
0010
0010
,
0001
0100
0001
1000
,
0020
1000
0000
1030
,
0200
0001
0000
0301
,
0020
0130
2000
3001
,
0100
0000
0001
0000
,
0010
0000
0100
0000
,
1000
0000
0100
0000
,
0010
0000
0001
0000
,
0100
0000
0010
0000
,
1000
0000
0001
0000
,
1000
0000
0010
0000
,
0100
0000
0001
0000
,
1001
0000
1001
0000
,
0100
1000
0100
0000
,
0110
0000
0110
0000
,
0010
0001
0010
0000
,
0101
0000
0101
0000
,
0010
1000
0010
0000
,
1100
0000
1100
0000
,
0010
0001
1000
0001
,
0100
0100
1000
1000
,
0100
0100
0001
0001
,
0010
0010
0001
0001
,
0100
0000
0001
0000
0000
0010
0000
0000
,
0100
0100
1000
1000
,
0010
0010
0001
0001
,
0010
0010
1000
1000
,
0001
1000
0001
1000
,
1001
0000
0000
0000
;

//---------------dance-single - ----------------
#NOTES:
     dance-single:
     :
     Medium:
     12:
     0.543915,0.598918,0.171119,0.096255,0.005347,356.000000,340.000000,16.000000,9.000000,0.000000,0.000000,0.543915,0.598918,0.171119,0.096255,0.005347,356.000000,340.000000,16.000000,9.000000,0.000000,0.000000:
0000
0000
0000
0000
,
0000
0000
0000
0000
,
0000
0000
0000
0000
,
0000
0000
0000
0000
,
0000
0000
0000
0000
,
0001
0000
0010
0000
,
0100
0000
1000
0000
,
0010
0000
0100
0000
,
1001
1001
1001
1001
,
0001
0010
0100
0010
0000
0000
0001
0000
,
1000
0010
0100
0010
0000
1000
0001
0000
,
0010
0100
1000
0001
0000
0000
0010
0000
,
0001
0100
0010
1000
0000
0100
0010
0000
,
0100
1000
0001
0010
0000
0000
0001
0000
,
0010
0100
0010
0001
0000
0100
0010
0000
,
1000
0100
0010
0001
0000
0000
0100
0000
,
0001
0010
0100
1000
0000
0001
0100
0000
,
0010
0000
0000
0010
0000
0000
0010
0000
1000
0000
0000
0000
0001
0000
0000
0000
,
1000
0100
1000
0010
0000
0100
0001
0000
,
0010
0100
1000
0100
0000
0000
1000
0000
,
0010
0100
0001
1000
0000
0010
0100
0000
,
0010
1000
0100
0010
0000
0000
0001
0000
,
0010
0001
0010
0100
0000
1000
0100
0000
,
1000
0010
0100
0001
0000
0000
0100
0000
,
0001
1000
0001
0100
0000
0010
1000
0000
,
1001
0000
0000
1100
0000
0000
0101
0000
,
1001
0001
0000
1000
0000
0001
1000
0100
,
0010
0000
0010
0001
1000
0001
1000
0001
,
0100
0000
0010
0000
1000
0000
0001
0010
,
0100
0000
0100
1000
0010
1000
0010
1000
,
0001
0100
0010
2000
,
3100
0000
0010
0000
0001
1000
0100
0000
,
0010
0000
0001
0100
0000
0001
1000
0000
,
0100
0000
1000
0100
1000
0000
0010
1000
,
0010
0000
0100
0010
0100
0010
0001
0010
,
0100
0000
0100
0001
1000
0001
1000
0001
,
0010
0000
0100
0000
1000
0000
0001
0100
,
0010
0000
0010
0100
0001
0100
0001
0100
,
0010
1000
0100
0020
,
0031
0000
0100
0000
0010
1000
0001
0000
,
0010
0000
0100
0010
0000
0001
1000
0000
,
0010
0000
1000
0010
1000
0000
0001
0100
,
0001
0000
0100
0010
0100
0000
0020
0000
,
0130
0001
1000
0000
0100
1000
0001
0000
,
2000
3010
0002
0013
,
1000
0100
0010
0001
1000
0001
1000
0001
,
0100
0000
0001
0000
0010
0001
0010
0100
,
0000
1100
0000
1000
0010
0100
0010
0100
,
0001
0000
0100
0000
0001
0010
0100
1000
,
0000
0010
1000
0200
0000
0010
0310
0000
,
0001
0000
1000
0000
0100
0010
0100
1000
,
0000
0001
0100
0010
0000
0100
0100
0000
,
0010
0000
1000
0000
0100
0010
0001
0020
,
0000
0001
0100
0031
,
0010
0000
0000
0100
1000
0000
0000
0010
,
1000
0000
0100
0020
0000
0130
0000
1000
,
0010
0100
0001
0010
,
0100
0000
1000
0010
1000
0000
0100
0000
,
0010
0000
0000
0001
0100
0000
0010
1000
,
0000
0002
0000
1003
0000
0100
1000
0000
,
0010
0001
0010
1000
,
0010
0001
0010
1000
0010
0100
0001
0000
,
0010
0000
0001
0001
0010
0000
0011
0000
,
0010
0000
0100
0100
0010
0000
0110
0000
,
0100
0000
1000
1000
0100
0000
1100
0000
,
1000
0010
0000
1000
0000
0001
0000
1000
,
0010
0000
1000
1000
0010
0000
1010
0000
,
1000
0000
0001
0001
1000
0000
1001
0000
,
0001
0000
0100
0100
0001
0000
0101
0000
,
0001
0100
0010
1000
0100
0010
0001
0010
,
0110
0000
0000
0000
;
