#VERSION:0.83;
#TITLE:Battle! (Cassiopeia);
#SUBTITLE:;
#ARTIST:Teruo Taniguchi;
#TITLETRANSLIT:;
#SUBTITLETRANSLIT:;
#ARTISTTRANSLIT:;
#GENRE:;
#ORIGIN:;
#TAGS:;
#CREDIT:;
#BANNER:Battle! (Cassiopeia).png;
#BACKGROUND:Battle! (Cassiopeia)-bg.png;
#PREVIEWVID:;
#JACKET:Battle! (Cassiopeia)-jacket.png;
#CDIMAGE:;
#DISCIMAGE:;
#LYRICSPATH:;
#CDTITLE:cdtitle.png;
#MUSIC:Battle! (Cassiopeia).ogg;
#OFFSET:-0.300000;
#SAMPLESTART:94.585999;
#SAMPLELENGTH:15.000000;
#SELECTABLE:YES;
#BPMS:0.000000=168.000000
;
#STOPS:;
#DELAYS:;
#WARPS:;
#TIMESIGNATURES:0.000000=4=4
;
#TICKCOUNTS:0.000000=4
;
#COMBOS:0.000000=1
;
#SPEEDS:0.000000=1.000000=0.000000=0
;
#SCROLLS:0.000000=1.000000
;
#FAKES:;
#LABELS:0.000000=Song Start
;
#BGCHANGES:;
#KEYSOUNDS:;
#ATTACKS:
;

//---------------dance-single - ----------------
#NOTEDATA:;
#CHARTNAME:;
#CHARTHASH:1658098219;
#STEPSTYPE:dance-single;
#BANNER:;
#DESCRIPTION:;
#CHARTSTYLE:;
#DIFFICULTY:Beginner;
#METER:3;
#METERF:3.000000;
#LASTSECONDHINT:174.585724;
#RADARVALUES:0.126773,0.202995,0.038824,0.160843,0.000000,160.000000,153.000000,7.000000,29.000000,0.000000,0.000000,0.000000,0.000000,0.000000,0.126773,0.202995,0.038824,0.160843,0.000000,160.000000,153.000000,7.000000,29.000000,0.000000,0.000000,0.000000,0.000000,0.000000;
#CREDIT:Supra the Hedgehog;
#NOTES:
0000
0000
0000
0000
,
0000
0000
0000
0000
,
0000
0000
0000
0000
,
0000
0000
0000
0000
,
0000
0000
0000
0000
,
0000
0000
0000
0000
,
1000
0000
0000
0000
,
0001
0000
0000
0000
,
0100
0000
0000
0000
,
0010
0000
0000
0000
,
1000
0000
1000
0000
,
1000
0000
1000
0000
,
0001
0000
0001
0000
,
0001
0000
0001
0000
,
0010
0000
0010
0000
,
0010
0000
0010
0000
,
0100
0000
0100
0000
,
0100
0000
0100
0000
,
1000
0000
0000
0000
,
2000
0000
0000
3000
,
0001
0000
0000
0000
,
0002
0000
0000
0003
,
0100
0000
0000
0000
,
0200
0000
0000
0300
,
0010
0000
0000
0000
,
0020
0000
0000
0030
,
1000
0000
1000
0000
,
1000
0000
0000
0000
,
0001
0000
0001
0000
,
0001
0000
0000
0000
,
1000
0000
1000
0000
,
0001
0000
0001
0000
,
0100
0000
0100
0000
,
0010
0010
0010
0000
,
2000
0000
0000
0000
,
3000
0000
0100
0000
,
0002
0000
0000
0000
,
0003
0000
0010
0000
,
0200
0000
0000
0000
,
0300
0000
1000
0000
,
0020
0000
0030
0000
,
0200
0000
0300
0000
,
0001
0000
0010
0000
,
0100
0000
1000
0000
,
0001
0000
0100
0000
,
0010
0000
1000
1000
,
2000
0000
3000
0000
,
0002
0000
0003
0000
,
0020
0000
0000
0000
,
0030
0000
0000
0000
,
0001
0000
0000
0000
,
1000
0000
0000
0000
,
0200
0000
0000
0000
,
0300
0000
0000
0000
,
1000
0000
0000
0000
,
0001
0000
0000
0000
,
0020
0000
0000
0000
,
0030
0000
0000
0000
,
0001
0000
0000
0000
,
0100
0000
0000
0000
,
1000
0000
0000
0000
,
0010
0000
0000
0000
,
1000
0000
0000
0000
,
0100
0000
0000
0000
,
0001
0000
0010
0000
,
0100
0000
1000
0000
,
0001
0000
0001
0000
,
0001
0000
0100
0000
,
1000
0000
1000
0000
,
1000
0000
0010
0000
,
0100
0000
0100
0000
,
0100
0000
0001
0000
,
0020
0000
0030
0000
,
0200
0000
0300
0000
,
1000
0000
0010
0000
,
0100
0000
0001
0000
,
1000
0000
0100
0000
,
0010
0000
0001
0000
,
1001
0000
0000
0000
,
0110
0000
0000
0000
,
2002
0000
0000
0000
,
3003
0000
0000
0000
,
1000
0000
0001
0000
,
1001
0000
0000
0000
,
0001
0000
1000
0000
,
1001
0000
0000
0000
,
0010
0000
0100
0000
,
0110
0000
0000
0000
,
0200
0000
0300
0000
,
0020
0000
0030
0000
,
1000
0000
1000
0000
,
1000
0000
0000
0000
,
0001
0000
0001
0000
,
0001
0000
0000
0000
,
0010
0000
0010
0000
,
0010
0000
0000
0000
,
0100
0000
0100
0000
,
0100
0000
0000
0000
,
1000
0000
1000
0000
,
1000
0000
0010
0000
,
0200
0000
0000
0000
,
0000
0000
0000
0300
,
0001
0000
0001
0000
,
0001
0000
0100
0000
,
0020
0000
0000
0000
,
0000
0000
0000
0030
,
1000
0000
0000
1000
,
0000
0000
1000
0000
,
0200
0000
0000
0000
,
0000
0000
0000
0300
,
0001
0000
0000
0001
,
0000
0000
0001
0000
,
0020
0000
0000
0000
,
0000
0000
0000
0030
,
0100
0000
0000
0100
,
0000
0000
0100
0000
,
1000
0000
0000
2002
,
0000
0000
3003
0000
,
0002
0000
0000
0003
,
2000
0000
0000
3000
,
0020
0000
0000
0000
,
0000
0000
0000
0000
,
0030
0000
0000
0000
;

//---------------dance-single - ----------------
#NOTEDATA:;
#CHARTNAME:;
#CHARTHASH:2194325889;
#STEPSTYPE:dance-single;
#BANNER:;
#DESCRIPTION:;
#CHARTSTYLE:;
#DIFFICULTY:Easy;
#METER:6;
#METERF:6.000000;
#LASTSECONDHINT:174.585724;
#RADARVALUES:0.276523,0.338325,0.038824,0.288408,0.000000,349.000000,342.000000,7.000000,52.000000,0.000000,0.000000,0.000000,0.000000,0.000000,0.276523,0.338325,0.038824,0.288408,0.000000,349.000000,342.000000,7.000000,52.000000,0.000000,0.000000,0.000000,0.000000,0.000000;
#CREDIT:Supra the Hedgehog;
#NOTES:
0000
0000
0000
0000
,
0000
0000
0000
0000
,
0000
0000
0000
0000
,
0000
0000
0000
0000
,
0000
0000
0000
0000
,
0000
0000
0000
0000
,
0000
1000
0000
1000
0000
0000
0001
0000
,
0000
1000
0000
0010
,
0100
0010
0000
0100
,
0000
0001
0000
1000
,
0001
0010
1000
0010
,
0001
0100
1000
0100
,
0002
0013
2000
3010
,
0002
1003
0020
0130
,
1000
0010
0001
0010
,
1000
0100
0001
0100
,
2000
3010
0002
0013
,
2000
3001
0020
0130
,
0000
0001
0000
0001
0000
0010
0000
0020
,
0000
0100
0100
0130
,
1000
0000
0010
0000
0000
0100
0000
0200
,
0000
0000
0010
0000
0310
0000
0000
1000
,
0000
0001
0000
0010
0000
0100
0000
0200
,
0000
0010
0010
0310
,
0001
0000
0100
0000
0000
0010
0000
0020
,
0000
0100
0100
0130
,
0001
0000
0000
0010
0000
0000
0001
0000
,
1000
0000
0000
0100
0000
0000
1000
0000
,
0010
0000
0000
1000
0000
0000
0010
0000
,
0100
0000
0000
0001
0000
0000
0100
0000
,
0001
0001
0001
0000
,
1000
1000
1000
0000
,
0001
0010
0100
1000
,
0010
0100
0001
1001
,
2000
0000
0000
0000
,
0000
3000
0000
0000
0100
0000
0010
0000
,
0001
0200
0000
0000
,
0000
0300
0000
0000
0001
0000
1000
0000
,
0100
0020
0000
0000
,
0000
0030
0000
0000
0100
0000
1000
0000
,
0002
0000
0000
0103
,
0020
0000
0000
0000
0000
0000
0000
0030
,
1000
1000
0001
0001
,
0100
0100
0001
0001
,
0010
0010
0100
0100
,
1000
0000
1000
0000
0001
0001
0001
0000
,
2000
0000
0010
3010
,
0002
0000
0100
0103
,
0020
0000
0000
0000
,
0130
0010
0100
0010
,
2000
0000
0000
3001
,
0100
0001
1000
0100
,
0020
0000
0000
0000
,
0030
0100
1000
0001
,
0200
0000
0000
0310
,
1000
0010
0100
0001
,
2000
0000
0000
0000
,
3000
0100
0010
0001
,
1000
0000
0000
0010
0000
0000
0100
0000
,
0000
0001
0000
0000
0010
0000
0100
0000
,
0010
0000
0000
0001
0000
0000
0100
0000
,
0000
0010
0000
0000
1000
0000
0001
0000
,
0020
0000
0000
0230
0000
0000
2300
0000
,
0000
3002
0000
0000
0203
0000
0320
0000
,
1030
0100
0010
0001
,
1000
0010
0100
0001
,
2000
0001
0001
0001
,
3001
0010
0100
1000
,
0002
1000
1000
1000
,
1003
0010
0100
0001
,
0020
0100
0100
0100
,
0130
1000
0001
0010
,
0200
0010
0010
0010
,
0320
0000
0000
0030
,
0001
0001
1000
1000
,
0100
0100
1000
1000
,
0010
0010
0100
0100
,
0001
0001
1000
1000
,
0001
0000
0001
0000
,
1000
0000
1000
0000
,
2002
0000
0000
3000
,
0010
0010
1000
1003
,
0001
0100
0010
1000
,
0001
0000
0000
1001
0000
0000
0000
0000
,
1000
0100
0010
0001
,
1000
0000
0000
1001
0000
0000
0000
0000
,
0010
1000
0001
0100
,
0010
0000
0000
0110
0000
0000
0000
0000
,
0200
0300
0002
0003
,
2000
3000
0020
0030
,
1000
1000
1000
0000
,
0001
0001
0001
0000
,
0010
0010
0010
0000
,
0100
0100
0100
0000
,
0010
0010
0010
0000
,
0001
0001
0001
0000
,
1000
1000
1000
0000
,
0100
0100
0100
0000
,
1000
0010
1000
0000
,
0001
0100
0001
0010
,
0100
2000
0000
0000
,
0000
0000
0000
3000
,
0001
0010
0001
0000
,
1000
0100
1000
0010
,
0100
0002
0000
0000
,
0013
0100
0010
0100
,
1000
0000
0000
0010
0000
0000
0100
0000
,
0000
0001
0000
0000
0010
0000
0100
0000
,
1000
0000
0000
0002
0000
0000
0000
0000
,
0000
0000
1003
1000
,
0001
0000
0000
0010
0000
0000
0100
0000
,
0000
1000
0000
0000
0010
0000
0100
0000
,
0001
0000
0000
2000
0000
0000
0000
0000
,
0000
0000
3001
0001
,
0010
0000
0000
0100
0000
0000
1000
0000
,
0000
0010
0000
0000
0100
0000
0001
0000
,
1000
0000
0000
0001
0000
0000
2002
0000
,
0000
0000
0000
3003
,
1000
0002
0000
0000
,
0023
0000
0230
0000
,
2300
0000
0000
0000
,
0002
0000
0000
3003
,
1001
0000
0000
0000
;

//---------------dance-single - ----------------
#NOTEDATA:;
#CHARTNAME:;
#CHARTHASH:894951770;
#STEPSTYPE:dance-single;
#BANNER:;
#DESCRIPTION:;
#CHARTSTYLE:;
#DIFFICULTY:Medium;
#METER:9;
#METERF:9.000000;
#LASTSECONDHINT:174.585724;
#RADARVALUES:0.396165,0.507487,0.144204,0.399334,0.022185,500.000000,474.000000,26.000000,72.000000,0.000000,0.000000,0.000000,0.000000,0.000000,0.396165,0.507487,0.144204,0.399334,0.022185,500.000000,474.000000,26.000000,72.000000,0.000000,0.000000,0.000000,0.000000,0.000000;
#CREDIT:Supra the Hedgehog;
#NOTES:
0000
0000
0000
0000
,
0000
0000
0000
0000
,
0000
0000
0000
0000
,
0000
0000
0000
0000
,
0000
0000
0000
0000
,
0000
0000
0000
0000
,
1000
0010
0000
0010
0000
0000
1000
0000
,
0001
0100
0001
1000
,
0100
0010
0100
0000
1000
0000
0010
0000
,
1000
0001
0010
0001
,
1000
0100
0000
0000
1000
0010
0000
0000
,
0100
0001
0000
0000
0100
0010
0200
0000
,
0301
0010
0000
0000
0001
0100
0000
0000
,
0010
1000
0000
0000
0020
0000
0130
0000
,
0001
0020
0030
0000
0100
2000
3000
0000
,
0010
0200
0300
0000
0001
1000
0002
0000
,
1003
0200
0300
0000
0010
0002
0003
0000
,
0100
0020
0030
0000
2000
0000
3002
0000
,
1003
0100
0000
0100
0000
1000
0000
2000
,
0000
0000
0010
0000
0010
0000
3010
0100
,
0001
0000
0010
0001
0000
0001
0000
0002
,
0000
0000
0100
0000
0100
0000
0103
0100
,
0000
0001
0000
1000
0000
0100
0000
0200
,
0000
0000
1000
0000
1000
0000
1300
0001
,
0010
0000
0100
0010
0000
0010
0000
0020
,
0000
0001
0001
0031
,
1000
0000
0000
1000
0000
0000
0100
0000
0000
0100
0000
0000
1000
0000
0000
0000
,
0001
0000
0000
0001
0000
0000
0010
0000
0000
0010
0000
0000
0001
0000
0000
0000
,
0100
0000
0000
0100
0000
0000
0001
0000
0000
0001
0000
0000
0100
0000
0000
0000
,
0010
0000
0000
0010
0000
0000
1000
0000
0000
1000
0000
0000
0010
0000
0000
0000
,
1000
0000
0100
0000
0010
0001
0010
0000
,
0001
0000
0100
0000
0010
1000
0010
0000
,
1000
0100
1000
0000
0100
0010
0100
0000
,
0010
0001
0010
0001
1000
0000
1001
0000
,
0002
0000
0000
0000
,
0000
0003
0000
0100
0010
1000
0000
0001
,
0000
0010
0200
0000
0000
0000
0000
0000
,
0000
0300
0000
1000
0010
0100
0000
0001
,
0000
1000
0020
0000
0000
0000
0000
0000
,
0000
0030
0000
1000
0100
0000
0010
0000
,
0002
0000
0000
0000
0000
0000
0103
0020
,
0000
0000
0000
0000
0000
0000
0000
0030
,
1000
1100
0100
0110
,
0010
0011
0001
1001
,
1000
1010
0010
0110
,
0100
0000
0101
0000
0001
1000
0001
0000
,
2000
0000
0000
0000
3100
0020
0000
0032
,
0000
0000
0000
0103
0020
0000
1030
0002
,
0000
0000
0000
0000
,
1003
0001
1000
0000
0010
0100
0010
0000
,
2000
0000
0000
0000
0000
0000
3001
0010
,
0100
0000
1000
0010
0000
1000
0000
0002
,
0000
1000
0010
1000
,
0013
0000
0100
0000
1000
0000
0001
0200
,
0000
0000
0000
0000
0000
0000
0301
0010
,
0100
0000
1000
0010
0000
0100
0000
0020
,
0000
1000
0100
1000
,
0130
0001
0010
0100
,
1000
0000
1000
0010
0000
0010
0100
0000
,
0100
0001
0000
0001
0010
0000
0100
0000
,
0010
0000
0010
0001
0000
0001
0100
0000
,
0100
0010
0000
0010
1000
0000
0001
0000
,
2000
0000
3100
0020
0000
0031
0200
0000
,
0310
2000
0000
3001
0020
0000
0230
0000
,
1300
0010
1000
0000
0001
0100
0001
0000
,
1000
0100
1000
0100
0010
0001
0010
0001
,
2000
0001
0010
0001
,
0010
3000
0001
0000
0100
0010
0100
0000
,
0002
1000
0010
1000
,
0010
0003
1000
0000
0100
0010
0100
0000
,
0020
0100
0001
0100
,
0001
0030
0100
0000
1000
0000
0001
0000
,
0200
0001
0010
0001
,
0320
0000
0000
0000
0000
0000
0000
0030
,
1000
0100
1000
0000
0010
0100
0010
0000
,
0100
0001
0100
0000
0001
0010
0001
0000
,
1000
0010
1000
0000
0001
0100
0001
0000
,
0010
0100
0010
0000
0100
1000
0100
0000
,
1100
0000
0011
0000
,
0101
0000
1010
0000
,
0020
0100
0100
0130
,
0101
0011
1100
1010
,
0001
0100
0010
1000
,
1100
0000
1000
0010
0000
0100
0000
0010
,
1000
0100
0010
0001
,
0101
0000
0001
0010
0000
0100
0000
1000
,
0100
0010
0001
1000
,
1001
0000
1000
0010
0000
0200
0000
0301
,
2000
3100
0002
0103
,
2000
3010
0002
0013
,
1000
0000
1000
0000
1100
0000
0000
0001
,
0000
0001
0000
0001
0002
0000
0003
0000
,
0100
0000
0100
0000
0101
0000
0000
0010
,
0000
0010
0000
0010
0020
0000
0030
0000
,
0001
0000
0001
0000
0011
0000
0000
1000
,
0000
1000
0000
1000
2000
0000
3000
0000
,
0010
0000
0010
0000
1010
0000
0000
0100
,
0000
0100
0000
0100
0200
0000
0300
0000
,
1000
0000
0100
0000
1100
0000
0000
1000
,
0000
0010
0000
1000
0010
0000
0100
0000
,
0002
0010
0010
0000
,
1000
1000
1000
0003
,
0001
0000
0100
0000
0101
0000
0000
0001
,
0000
0010
0000
0001
0100
0000
0010
0000
,
2000
0010
0010
0000
,
3001
0000
1000
0000
0001
1000
0001
1000
,
0002
0000
0003
0020
0000
0030
0200
0000
,
0300
2000
0000
3000
0010
0000
0100
0000
,
0001
0000
1000
0200
0000
0000
0010
0000
,
1000
0000
0010
0000
1300
0100
1000
0000
,
2000
0000
3000
0020
0000
0030
0200
0000
,
0300
0002
0000
0003
0010
0000
0100
0000
,
1000
0000
0001
0200
0000
0000
0010
0000
,
0001
0000
0010
0000
0301
0100
0001
0000
,
0020
0000
0030
0200
0000
0300
2000
0000
,
3000
0020
0000
0030
0100
0000
0001
0000
,
1000
0000
0100
0010
0000
0001
2002
0000
,
0000
0000
0000
3003
,
2000
0010
0001
0010
,
3002
1000
0203
0001
,
0320
0100
1000
0100
,
1030
0001
1000
0001
1000
0001
1000
0001
,
1000
0000
0000
0000
;

//---------------dance-single - ----------------
#NOTEDATA:;
#CHARTNAME:;
#CHARTHASH:2044717038;
#STEPSTYPE:dance-single;
#BANNER:;
#DESCRIPTION:;
#CHARTSTYLE:;
#DIFFICULTY:Hard;
#METER:12;
#METERF:12.000000;
#LASTSECONDHINT:174.585724;
#RADARVALUES:0.551462,0.608985,0.282862,0.576816,0.033278,696.000000,645.000000,51.000000,104.000000,0.000000,0.000000,0.000000,0.000000,0.000000,0.551462,0.608985,0.282862,0.576816,0.033278,696.000000,645.000000,51.000000,104.000000,0.000000,0.000000,0.000000,0.000000,0.000000;
#CREDIT:Supra the Hedgehog;
#NOTES:
// measure 0
0000
0000
0000
0000
,  // measure 1
0000
0000
0000
0000
,  // measure 2
0000
0000
0000
0000
,  // measure 3
0000
0000
0000
0000
,  // measure 4
0000
0000
0000
0000
,  // measure 5
0000
0000
0000
0000
,  // measure 6
0001
0200
0300
0020
0030
0000
1000
0000
,  // measure 7
0100
0000
1000
0000
0010
0000
0100
0001
,  // measure 8
0010
0100
2000
3000
0001
0000
0010
0000
,  // measure 9
0001
1000
0010
1000
,  // measure 10
0001
0100
0101
0000
1000
0100
1100
0000
,  // measure 11
0010
1000
1010
0000
0100
0001
0200
0000
,  // measure 12
0301
0010
0011
0000
1000
0010
1010
0000
,  // measure 13
0100
1000
1100
0000
0010
0010
0001
0000
,  // measure 14
2000
0010
3010
0000
0200
0001
0301
0000
,  // measure 15
0020
0100
0130
0000
2000
0001
3002
0000
,  // measure 16
0203
0010
0310
0000
2000
0100
3100
0000
,  // measure 17
0020
0001
0031
0000
0200
0000
0320
0000
,  // measure 18
1030
0200
0300
0020
0030
0001
0000
0001
,  // measure 19
0000
0001
1000
0001
1000
0001
1000
0010
,  // measure 20
0100
0001
0010
0100
0000
1000
0000
1000
,  // measure 21
0000
1000
0001
1000
0001
1000
0001
0200
,  // measure 22
0300
0020
0030
2000
3000
0100
0000
0100
,  // measure 23
0000
0100
0010
0100
0010
0100
0010
0001
,  // measure 24
0100
0010
1000
0001
0000
0010
0000
0010
,  // measure 25
0000
0010
0100
0010
0100
0010
0100
1000
,  // measure 26
0001
0000
0000
0001
0000
0000
0100
0000
0000
0010
0000
0000
1000
0000
0100
0000
,  // measure 27
0010
0000
0000
0010
0000
0000
0100
0000
0000
0100
0000
0000
1000
0000
0001
0000
,  // measure 28
1000
0000
0000
1000
0000
0000
0010
0000
0000
1000
0000
0000
0100
0000
0010
0000
,  // measure 29
0001
0000
0000
0001
0000
0000
0100
0000
0000
0010
0000
0000
1000
0000
0000
0000
,  // measure 30
0001
0010
0100
1000
0001
0100
1000
0000
,  // measure 31
0100
0001
0010
0100
1000
0010
0001
0000
,  // measure 32
0010
1000
0100
0001
0100
0010
0001
1000
,  // measure 33
0010
0100
1000
0100
0001
1000
1001
0000
,  // measure 34
0002
1000
0010
1000
,  // measure 35
0100
0003
1000
0100
0010
0001
0000
0100
,  // measure 36
0000
0010
2000
0000
0001
0000
0100
0000
,  // measure 37
0001
3000
0010
0100
0001
0010
0000
0100
,  // measure 38
0000
1000
0020
0000
0100
0000
0001
0000
,  // measure 39
0100
0030
1000
0001
0020
0000
0230
0000
,  // measure 40
2300
0000
0001
0000
0010
0000
3001
0100
,  // measure 41
0010
0000
0100
0000
0001
0001
1000
1000
,  // measure 42
1100
1010
0101
0011
,  // measure 43
0110
1100
1001
0101
,  // measure 44
1010
1100
0101
0011
,  // measure 45
1100
0000
0101
0000
0001
1000
1001
0000
,  // measure 46
0002
0000
0010
0000
0103
0020
0000
2030
,  // measure 47
0100
0000
0100
3100
0020
0000
0031
0200
,  // measure 48
0001
1000
0001
1000
,  // measure 49
0301
1000
0001
1000
0100
0010
0100
0010
,  // measure 50
0002
0000
1000
0000
0100
0000
1003
0100
,  // measure 51
0020
0000
0031
0200
0000
0320
0000
1030
,  // measure 52
0002
0000
0013
2000
0000
3001
0200
0000
,  // measure 53
1300
0000
0010
0000
0100
0000
0001
2000
,  // measure 54
0100
0000
0001
0000
0100
0000
3001
0100
,  // measure 55
0020
0000
1030
0200
0000
0320
0000
0031
,  // measure 56
2000
0000
3010
0002
0000
1003
0200
0000
,  // measure 57
0301
0010
0100
1000
,  // measure 58
0002
0000
0103
0020
0000
1030
0200
0000
,  // measure 59
0310
0002
0000
1003
0020
0000
0230
0000
,  // measure 60
0320
0000
1030
0002
0000
0013
0200
0000
,  // measure 61
1300
0020
0000
0130
0002
0000
2003
0000
,  // measure 62
3200
0000
0010
0320
0000
0001
0032
0000
,  // measure 63
1000
2003
0000
0010
3020
0000
0230
0000
,  // measure 64
0301
0010
0100
1000
0100
0010
0001
1000
,  // measure 65
0010
0100
0001
0100
0010
1000
0100
0010
,  // measure 66
0001
0000
1000
0100
1000
0000
0010
0100
,  // measure 67
0010
0000
1000
0001
1000
0100
0010
0001
,  // measure 68
1000
0000
0001
0100
0001
0000
0010
0100
,  // measure 69
0010
0000
0001
1000
0001
0100
0010
1000
,  // measure 70
0100
0000
0010
0001
1000
0000
0010
1000
,  // measure 71
0001
0000
0010
0100
2000
0000
3002
0000
,  // measure 72
0203
0000
0010
0000
0001
0000
0310
1000
,  // measure 73
0100
0010
0001
1000
,  // measure 74
0001
0010
0001
0010
0100
0010
0100
0010
,  // measure 75
0100
1000
0100
0010
0100
1000
0001
0100
,  // measure 76
0010
1000
0010
1000
0001
1000
0001
1000
,  // measure 77
0001
0100
0001
0010
0100
1000
0010
0100
,  // measure 78
0101
0000
1010
0000
,  // measure 79
1100
0000
0011
0000
,  // measure 80
0001
1000
0001
1000
0001
1000
0001
1000
,  // measure 81
0001
0010
0000
0000
0100
1000
0000
0000
0010
0100
0000
0000
0001
1000
0000
0000
,  // measure 82
0001
0020
0230
1300
,  // measure 83
1010
0000
0100
0101
0000
0001
0010
0100
,  // measure 84
1000
0020
0230
0301
,  // measure 85
0011
0000
0100
1100
0000
1000
0010
0100
,  // measure 86
0010
2000
3002
0013
,  // measure 87
0110
0000
1000
1001
0000
0002
0000
0103
,  // measure 88
0010
1000
0010
0000
0100
0001
0100
0000
,  // measure 89
0001
0010
0001
0010
0100
1000
0100
1000
,  // measure 90
1010
0000
1010
0000
1010
0000
0010
0100
,  // measure 91
0010
0100
0010
0100
0200
0000
0301
0000
,  // measure 92
0011
0000
0011
0000
0011
0000
0010
0100
,  // measure 93
0010
0100
0010
0100
0200
0000
1300
0000
,  // measure 94
1001
0000
1001
0000
1001
0000
1000
0010
,  // measure 95
1000
0010
1000
0010
0020
0000
0130
0000
,  // measure 96
0110
0000
0110
0000
0110
0000
0100
0001
,  // measure 97
0100
0001
0100
0001
0002
0000
1003
0000
,  // measure 98
1010
0000
1010
0000
1001
0000
0001
0010
,  // measure 99
0001
0010
0001
0100
0100
0010
1000
0200
,  // measure 100
0000
0310
0002
0000
1000
0000
0000
0100
,  // measure 101
0000
0100
0000
1000
2000
0000
3003
0000
,  // measure 102
0101
0000
0101
0000
1001
0000
1000
0100
,  // measure 103
1000
0100
1000
0010
0010
0100
0001
0020
,  // measure 104
0000
0130
2000
0000
0001
0000
0000
0010
,  // measure 105
3010
0100
0010
0100
0001
1000
0001
0001
,  // measure 106
2000
0000
3100
0020
0000
0031
0200
0000
,  // measure 107
0310
2000
0000
3001
0010
0000
0100
0000
,  // measure 108
0020
0000
0031
2000
0000
0001
0000
0001
,  // measure 109
0000
0100
0000
0100
3001
0010
0100
1000
,  // measure 110
0002
0000
0103
0020
0000
1030
0200
0000
,  // measure 111
0310
0002
0000
1003
0010
0000
0100
0000
,  // measure 112
0020
0000
1030
0002
0000
1000
0000
1000
,  // measure 113
0000
0100
0000
0100
1003
0010
0100
0001
,  // measure 114
0020
0000
0130
2000
0000
3010
0200
0000
,  // measure 115
0301
0020
0000
0130
1000
0000
0001
0000
,  // measure 116
0010
0100
0100
1000
0001
0001
2002
0000
,  // measure 117
0000
0000
0000
0000
3003
1000
0010
0200
,  // measure 118
0000
0301
0020
0000
0001
0000
0100
0230
,  // measure 119
0010
1000
2300
0001
,  // measure 120
3002
0010
1000
0010
,  // measure 121
1003
0100
0001
0100
1000
0010
0100
0001
,  // measure 122
1000
0000
0000
0000
;

//---------------dance-single - ----------------
#NOTEDATA:;
#CHARTNAME:;
#CHARTHASH:1840455979;
#STEPSTYPE:dance-single;
#BANNER:;
#DESCRIPTION:;
#CHARTSTYLE:;
#DIFFICULTY:Challenge;
#METER:15;
#METERF:15.000000;
#LASTSECONDHINT:174.585724;
#RADARVALUES:0.731321,0.913478,0.643372,0.715474,0.213533,923.000000,807.000000,116.000000,129.000000,0.000000,0.000000,0.000000,0.000000,0.000000,0.731321,0.913478,0.643372,0.715474,0.213533,923.000000,807.000000,116.000000,129.000000,0.000000,0.000000,0.000000,0.000000,0.000000;
#CREDIT:Supra the Hedgehog;
#NOTES:
0000
0000
0000
0000
,
0000
0000
0000
0000
,
0000
0000
0000
0000
,
0000
0000
0000
0000
,
0000
0000
0000
0000
,
0000
0000
0000
0000
,
1000
2200
3300
0202
0303
0000
0001
0000
,
1000
0000
0010
0000
0001
0000
0010
1000
,
0100
0010
0022
0033
0001
0000
0100
0000
,
1000
0100
0001
0010
,
0001
0101
0100
0000
0010
1010
1000
0000
,
0100
0110
0010
0000
0001
1001
2000
0000
,
3100
1100
1000
0000
0001
0101
0100
0000
,
0010
0000
1010
0000
1000
0000
0000
0000
0002
0003
0002
0003
1000
0000
0000
0000
,
0010
2010
3100
0000
0010
0012
0103
0000
,
0001
0201
0310
0000
1000
1200
0320
0000
,
0031
0201
1300
0000
0001
0021
1030
0000
,
1000
1200
0301
0000
2000
0000
3020
0000
,
0031
0202
0303
2200
3300
1000
0000
2000
,
0000
0001
0001
0001
0010
0010
3010
0100
,
1000
0100
0001
0010
0000
0001
0000
0002
,
0000
1000
1000
1000
0010
0010
0013
0022
,
0033
2200
3300
2020
3030
0010
0000
0020
,
0000
0100
0100
0100
1000
1000
1030
0100
,
0001
0100
1000
0010
0000
0100
0000
0200
,
0000
0010
0010
0010
0001
0001
0301
1000
,
0001
0000
0010
0100
0000
0010
0001
0000
1000
0001
0000
0100
0001
0000
0010
0000
,
0100
0000
1000
0001
0000
1000
0010
0000
0100
0010
0000
1000
0100
0000
0010
0000
,
0010
0000
0001
1000
0000
0001
0100
0000
0010
0100
0000
0001
0010
0000
0100
0000
,
1000
0000
0010
0100
0000
0010
1000
0000
0001
1000
0000
0100
1000
0000
0000
0000
,
0001
0000
0001
0100
0001
0000
1000
0000
1000
0100
1000
0000
0010
0000
0010
0000
,
0100
0000
0100
0001
0100
0000
0010
0000
0010
1000
0010
0000
1000
0000
1000
0000
,
0001
0010
0001
0000
1000
0010
1000
0000
0001
0100
0001
0000
1000
0100
1000
0000
,
0001
0010
0001
0010
0100
0010
0100
0010
0100
1000
0100
1000
0001
0000
0000
0000
,
2001
0010
0000
0001
0000
0100
0000
0001
,
0000
3010
0000
1000
0100
0110
0000
0011
,
0000
0001
0102
1000
0000
0010
0000
1000
,
0000
0103
0000
0010
1000
1001
0000
0011
,
0000
0110
1200
0010
0000
0001
0000
0010
,
0000
1300
0000
0001
0201
0000
0320
0000
,
2030
0000
0001
0000
0100
0000
3001
0010
,
0200
0000
0010
0000
0001
0001
1000
1300
,
1100
0100
0110
0010
0011
0001
1001
1000
,
1010
0010
0110
0100
0101
0001
1001
1000
,
1100
0100
0110
0010
0011
0001
0101
0100
,
0110
0010
1010
1000
1100
0110
0011
0001
,
1002
0000
0100
0000
2003
3020
1000
0230
,
0001
0000
0010
0302
2003
0000
3200
0320
,
0001
1000
0001
1000
,
0130
0100
1000
1000
0001
0001
0100
0100
,
0002
1000
0000
0010
0000
1000
2003
3200
,
0320
0000
0032
0203
0000
2300
0000
3200
,
0000
0301
0010
0100
1000
0001
0100
0010
,
1000
0100
0010
0001
1000
0010
0001
0010
,
2000
0001
0000
0100
0000
0001
3002
0023
,
0230
0000
2300
3020
0000
0032
0000
0023
,
0000
1030
0100
0010
0001
1000
0010
0100
,
0001
0010
0100
1000
0001
0100
1000
0100
,
0002
0000
1000
2003
0000
0100
3200
0000
,
0010
0320
0000
0001
0031
0100
1000
0100
,
0002
0000
0010
0023
0000
0100
0230
0000
,
1000
2300
0000
0010
3010
0001
0010
1000
,
0002
0000
0100
2003
0000
0100
3020
0000
,
0001
0230
0000
1000
0302
0010
2003
0010
,
3001
0100
0010
1000
0010
0100
0001
1000
,
0100
0000
0010
0000
0001
0000
0010
0000
0100
1000
0100
0000
0010
0001
0010
0000
,
1001
1000
0010
0001
0010
1000
0100
0001
,
0100
0010
1000
0010
0001
0101
0100
0110
,
0010
1000
1001
0001
0100
1000
0100
0010
,
0001
0010
0100
0001
1000
1100
0100
0110
,
0010
0001
0101
0100
1000
0100
0001
0010
,
1000
0010
0001
1000
1020
0000
0230
0000
,
0302
0000
1000
0000
0010
0000
1003
0100
,
0020
0000
1000
0000
0100
0000
0001
0030
,
0011
0010
0110
0100
1100
1000
1001
0001
,
0101
0100
0110
0010
1010
1000
1001
0001
,
0011
0100
1100
0010
1010
0100
0101
0010
,
0011
1000
1010
0001
0101
1000
1100
0001
,
0011
0000
1100
0000
,
1010
0000
0101
0000
,
0200
0010
0010
0010
0010
0010
0010
0010
,
0310
1000
0010
0000
0100
0001
0100
0000
0001
0010
0001
0000
1000
0100
1000
0000
,
0020
0000
0031
0010
1000
0100
0010
0000
,
0011
0001
1000
1001
0000
0001
0010
0100
,
0020
0000
1030
0010
0001
0100
0010
0000
,
1010
1000
0001
1001
0000
1000
0010
0100
,
0002
0000
1003
0100
0001
0100
1000
0000
,
1100
0100
0010
0011
0000
0002
0000
0103
,
0010
1000
0010
1000
0001
0100
0001
0100
,
0001
0010
0001
0000
0010
0100
0010
0000
0100
1000
0100
0000
1000
0001
1000
0000
,
1010
0010
1010
1000
2100
0000
3001
0101
,
0100
0101
0001
0011
0021
0000
0130
0000
,
1100
1000
1100
0100
0210
0000
1300
1010
,
0010
1010
1000
1001
1002
0000
0013
0000
,
0110
0100
0110
0010
0012
0000
1003
1010
,
0010
1010
1000
1100
2100
0000
3001
0000
,
0101
0100
0101
0001
0021
0000
0130
1100
,
1000
1100
0100
0110
0210
0000
1300
0000
,
1010
0000
0010
0100
0010
0000
1000
0010
2000
0000
0000
0000
3001
0000
0010
0001
,
0010
0000
0100
0010
0100
0000
0010
0000
0010
0000
0002
0000
0203
0000
0320
0000
,
0100
2030
3002
0000
0100
0000
0000
1000
,
0000
1000
0000
0100
0200
0000
0303
0000
,
0011
0000
0010
0100
0010
0000
0001
0010
0002
0000
0000
0000
1003
0000
0010
1000
,
0010
0000
0100
0010
0100
0000
0010
0000
0010
0000
2000
0000
3200
0000
0320
0000
,
0100
0032
2003
0000
0100
0000
0000
0001
,
3010
0000
0010
0000
1000
0000
1000
0000
0001
0000
0001
0000
0010
0100
0010
0100
,
2000
0000
3010
0002
0000
1003
0200
0000
,
0301
0000
1000
0010
1000
0000
0100
0010
0100
0000
1000
0001
1000
0000
0010
0100
,
0020
0000
1030
0200
0000
0310
0001
1000
,
0001
0000
1000
0000
0001
0000
0010
0000
0001
0100
0010
1000
0001
0100
0010
1000
,
0002
0000
0013
2000
0000
3001
0200
0000
,
1300
0000
0001
0010
0001
0000
0100
0010
0100
0000
0001
1000
0001
0000
0010
0100
,
0020
0000
0031
0200
0000
0310
1000
0001
,
1000
0000
0001
0000
1000
0000
0010
0000
1000
0100
0010
0001
1000
0100
0010
0001
,
0200
0000
1300
0002
0000
0013
2000
0000
,
3100
0002
0000
1003
0010
0001
1000
0000
,
1010
0010
0100
0101
0001
1000
2002
0000
,
0000
0000
0000
0000
0000
0000
0003
0000
3001
0000
1000
0000
0010
0000
0100
0010
,
0100
0002
2003
0100
0000
0100
0000
3020
,
0000
1000
0000
1000
0230
0001
0001
0000
,
0302
1000
0100
1000
,
0103
0010
0100
0001
0100
0001
0010
0100
0010
0100
1000
0100
1000
0010
0100
0001
,
1000
0000
0000
0000
;
