#VERSION:0.83;
#TITLE:Applause;
#SUBTITLE:;
#ARTIST:Lady Gaga;
#TITLETRANSLIT:;
#SUBTITLETRANSLIT:;
#ARTISTTRANSLIT:;
#GENRE:;
#ORIGIN:;
#CREDIT:;
#BANNER:Applause.png;
#BACKGROUND:Applause-bg.png;
#PREVIEWVID:;
#JACKET:Applause-jacket.png;
#CDIMAGE:;
#DISCIMAGE:;
#LYRICSPATH:;
#CDTITLE:cdtitle.png;
#MUSIC:Applause.ogg;
#OFFSET:-0.783000;
#SAMPLESTART:55.639999;
#SAMPLELENGTH:15.000000;
#SELECTABLE:YES;
#BPMS:0.000=140.000;
#STOPS:;
#DELAYS:;
#WARPS:;
#TIMESIGNATURES:0.000=4=4;
#TICKCOUNTS:0.000=4;
#COMBOS:0.000=1;
#SPEEDS:0.000=1.000=0.000=0;
#SCROLLS:0.000=1.000;
#FAKES:;
#LABELS:0.000=Song Start;
#BGCHANGES:;
#KEYSOUNDS:;
#ATTACKS:
;

//---------------dance-single - ----------------
#NOTEDATA:;
#CHARTNAME:;
#STEPSTYPE:dance-single;
#DESCRIPTION:;
#CHARTSTYLE:;
#DIFFICULTY:Challenge;
#METER:12;
#RADARVALUES:0.540249,0.590897,0.562759,0.146317,0.061903,336.000000,286.000000,50.000000,13.000000,0.000000,0.000000,0.000000,0.000000,0.000000,0.540249,0.590897,0.562759,0.146317,0.061903,336.000000,286.000000,50.000000,13.000000,0.000000,0.000000,0.000000,0.000000,0.000000;
#CREDIT:;
#NOTES:
// measure 0
0000
0000
0000
0000
,  // measure 1
0000
0000
0000
0000
,  // measure 2
0000
0000
0000
0000
,  // measure 3
0000
0000
0000
0000
,  // measure 4
0000
0000
0000
0000
,  // measure 5
0000
0000
0000
0000
,  // measure 6
0000
0000
0000
0000
,  // measure 7
0000
0000
0000
0000
,  // measure 8
0011
0000
1010
0000
1000
0001
0010
0001
,  // measure 9
1000
0100
0010
0100
0000
1100
0000
0110
,  // measure 10
0001
1000
0010
1000
0100
0010
0001
0100
,  // measure 11
0010
0100
0001
1000
0100
0010
0011
0000
,  // measure 12
0110
0000
1001
0000
0001
1000
0010
1000
,  // measure 13
0001
0100
0010
1000
0000
1100
0000
0101
,  // measure 14
1000
0010
0001
0010
1000
0100
0001
0100
,  // measure 15
1000
0001
0100
0010
1000
0001
1001
0000
,  // measure 16
1000
0001
0100
0010
1000
0100
0001
0000
,  // measure 17
0100
1000
0010
0100
0001
0010
1000
0000
,  // measure 18
0001
0100
1000
0000
0001
0010
1000
0000
,  // measure 19
0001
0100
1000
0001
0010
0100
0110
0000
,  // measure 20
1000
0100
0010
0100
1000
0010
0011
0000
,  // measure 21
0010
1000
0100
0010
0001
0010
1010
0000
,  // measure 22
0001
1000
1100
0000
1000
0001
0101
0000
,  // measure 23
1000
0100
0010
0100
1000
0001
0100
0010
,  // measure 24
2100
0000
3010
0100
0021
0000
0130
1000
,  // measure 25
0210
0000
0301
1000
0010
0100
0001
0010
,  // measure 26
0101
0000
1100
0000
0010
0001
1000
0100
,  // measure 27
1010
0000
0011
0000
0001
1000
0100
0000
,  // measure 28
1010
1100
0101
1010
,  // measure 29
0011
0000
0110
0000
1100
0000
0011
0001
,  // measure 30
1000
0100
0010
0001
1000
0100
0010
0001
,  // measure 31
1000
0000
0000
0000
0000
0000
0000
0000
0000
0000
0000
0000
0000
0000
0000
0000
0000
0000
0000
0000
0000
0000
0000
0000
0000
0000
0000
0001
0000
0000
0000
0000
0000
0000
0000
0000
0000
0000
0000
0000
0000
0000
0000
0000
0000
0000
1000
0000
0000
0000
0000
0000
0000
0000
0000
0000
0000
0000
0000
0000
0000
0000
0001
0000
0000
0000
0000
0000
0000
0000
0000
0000
0000
0000
0000
0000
0000
0000
1000
0000
0000
0000
0000
0000
0000
0000
0000
0000
0000
0000
0000
0000
0000
0000
0000
0001
0000
0000
0000
0000
0000
0000
0000
0000
0000
0000
0000
0000
0000
0000
1000
0000
0000
0000
0000
0000
0000
0000
0000
0000
0000
0000
0000
0000
0000
0001
0000
0000
0000
0000
0000
0000
0000
0000
0000
0000
0000
0000
0000
0000
1000
0000
0000
0000
0000
0000
0000
0000
0000
0000
0000
0000
0000
0001
0000
0000
0000
0000
0000
0000
0000
0000
0000
0000
0000
0000
0000
1000
0000
0000
0000
0000
0000
0000
0000
0000
0000
0000
0000
0000
0001
0000
0000
0000
0000
0000
0000
0000
0000
0000
0000
0000
,  // measure 32
1000
0010
0100
0001
1000
0100
0010
1000
,  // measure 33
0100
0010
1000
0001
0101
0000
1100
0000
,  // measure 34
0001
0100
0010
1000
0001
0010
0100
0001
,  // measure 35
0010
0100
0001
1000
1010
0010
0110
0000
,  // measure 36
0100
0010
1000
0100
0010
1000
0010
0001
,  // measure 37
1000
0010
0100
0001
0011
0000
1100
0000
,  // measure 38
0010
0100
0001
0010
0100
0001
0100
1000
,  // measure 39
0010
0100
0001
0010
0011
0001
1001
0000
,  // measure 40
0010
0010
2010
0001
3001
0201
0010
0310
,  // measure 41
0001
0010
0210
0010
1300
0001
0011
0000
,  // measure 42
1000
0100
0010
1000
0010
0100
1000
0010
,  // measure 43
0100
0001
1000
0100
1100
0010
0011
0000
,  // measure 44
0100
0100
0102
0010
0013
0210
1000
1300
,  // measure 45
0100
1000
1020
1000
0130
0001
1001
0000
,  // measure 46
0001
0010
0100
0001
0100
0010
0001
0100
,  // measure 47
0010
1000
0001
0010
0110
0100
1001
0000
,  // measure 48
2000
0010
3000
0002
0010
0003
0200
0020
,  // measure 49
0000
0000
0000
0000
,  // measure 50
0330
0000
0000
0000
;
