#VERSION:0.83;
#TITLE:Amalgamaniac;
#SUBTITLE:;
#ARTIST:Alex Moukala;
#TITLETRANSLIT:;
#SUBTITLETRANSLIT:;
#ARTISTTRANSLIT:;
#GENRE:;
#ORIGIN:;
#TAGS:;
#CREDIT:;
#BANNER:Amalgamaniac.png;
#BACKGROUND:Amalgamaniac-bg.png;
#PREVIEWVID:;
#JACKET:Amalgamaniac-jacket.png;
#CDIMAGE:;
#DISCIMAGE:;
#LYRICSPATH:;
#CDTITLE:cdtitle.png;
#MUSIC:Amalgamaniac.ogg;
#OFFSET:0.897000;
#SAMPLESTART:39.423000;
#SAMPLELENGTH:15.000000;
#SELECTABLE:YES;
#DISPLAYBPM:125.000000;
#BPMS:0.000000=124.999992
,84.000000=249.999985
,84.500000=124.999992
,84.750000=62.499996
,85.000000=124.999992
,92.000000=249.999985
,92.500000=124.999992
,92.750000=62.499996
,93.000000=124.999992
,116.000000=249.999985
,116.500000=124.999992
,116.750000=62.499996
,117.000000=124.999992
,124.000000=249.999985
,124.500000=124.999992
,124.750000=62.499996
,125.000000=124.999992
,317.000000=249.999985
,317.500000=124.999992
,317.750000=62.499996
,318.000000=124.999992
,325.000000=249.999985
,325.500000=124.999992
,325.750000=62.499996
,326.000000=124.999992
,357.000000=249.999985
,357.500000=124.999992
,357.750000=62.499996
,358.000000=124.999992
;
#STOPS:;
#DELAYS:;
#WARPS:;
#TIMESIGNATURES:0.000000=4=4
;
#TICKCOUNTS:0.000000=4
;
#COMBOS:0.000000=1
;
#SPEEDS:0.000000=1.000000=0.000000=0
;
#SCROLLS:0.000000=1.000000
;
#FAKES:;
#LABELS:0.000000=Song Start
;
#BGCHANGES:;
#KEYSOUNDS:;
#ATTACKS:
;

//---------------dance-single - ----------------
#NOTEDATA:;
#CHARTNAME:;
#CHARTHASH:626000851;
#STEPSTYPE:dance-single;
#BANNER:;
#DESCRIPTION:;
#CHARTSTYLE:;
#DIFFICULTY:Beginner;
#METER:1;
#METERF:0.000000;
#LASTSECONDHINT:131.583008;
#RADARVALUES:0.082782,0.149938,0.036217,0.130381,0.000000,80.000000,75.000000,5.000000,18.000000,0.000000,0.000000,0.000000,0.000000,0.000000,0.082782,0.149938,0.036217,0.130381,0.000000,80.000000,75.000000,5.000000,18.000000,0.000000,0.000000,0.000000,0.000000,0.000000;
#CREDIT:Supra G.L.;
#DISPLAYBPM:125.000000;
#NOTES:
// measure 0
0000
0000
0000
0000
,  // measure 1
0000
0000
0000
0000
,  // measure 2
0000
0000
0000
0000
,  // measure 3
0000
0000
0000
0000
,  // measure 4
0000
0000
0000
0000
,  // measure 5
2000
0000
0000
0000
,  // measure 6
3000
0000
0000
0000
,  // measure 7
0002
0000
0000
0000
,  // measure 8
0003
0000
0000
0000
,  // measure 9
1000
0000
0000
0000
,  // measure 10
0001
0000
0000
0000
,  // measure 11
1000
0000
0000
0000
,  // measure 12
0001
0000
0000
0000
,  // measure 13
0100
0000
0000
0000
,  // measure 14
0010
0000
0000
0000
,  // measure 15
0100
0000
0000
0000
,  // measure 16
0010
0000
0000
0000
,  // measure 17
1000
0000
1000
0000
,  // measure 18
1000
0000
0000
0000
,  // measure 19
0001
0000
0001
0000
,  // measure 20
0001
0000
0000
0000
,  // measure 21
2000
3000
0000
0000
,  // measure 22
0000
1001
0000
0000
,  // measure 23
0002
0003
0000
0000
,  // measure 24
0000
1001
0000
0000
,  // measure 25
0002
0000
0003
0000
,  // measure 26
2000
0000
3000
0000
,  // measure 27
0010
0000
0100
0000
,  // measure 28
0010
0000
0100
0000
,  // measure 29
0002
0003
0000
0000
,  // measure 30
0000
1001
0000
0000
,  // measure 31
2000
3000
0000
0000
,  // measure 32
0000
1001
0000
0000
,  // measure 33
2000
0000
3000
0000
,  // measure 34
0002
0000
0003
0000
,  // measure 35
0010
0000
0100
0000
,  // measure 36
0010
0000
0100
0000
,  // measure 37
1000
0000
0000
0000
,  // measure 38
1000
0000
0000
0000
,  // measure 39
0001
0000
0000
0000
,  // measure 40
0001
0000
0000
0000
,  // measure 41
0000
0000
0000
0000
,  // measure 42
0100
0000
0000
0000
,  // measure 43
0010
0000
0000
0000
,  // measure 44
0010
0000
0000
0000
,  // measure 45
1000
0000
0000
0000
,  // measure 46
0001
0000
0001
0000
,  // measure 47
0001
0000
0000
0000
,  // measure 48
0100
0000
0000
0000
,  // measure 49
0001
0000
0000
0000
,  // measure 50
1000
0000
1000
0000
,  // measure 51
1000
0000
0000
0000
,  // measure 52
0010
0000
0000
0000
,  // measure 53
2000
0000
3000
0000
,  // measure 54
0002
0000
0003
0000
,  // measure 55
0100
0000
0100
0000
,  // measure 56
0100
0000
0000
0000
,  // measure 57
0002
0000
0003
0000
,  // measure 58
2000
0000
3000
0000
,  // measure 59
0100
0000
0100
0000
,  // measure 60
0100
0000
0000
0000
,  // measure 61
0020
0000
0030
0000
,  // measure 62
0200
0000
0300
0000
,  // measure 63
1000
0000
1000
0000
,  // measure 64
1000
0000
0000
0000
,  // measure 65
0020
0000
0030
0000
,  // measure 66
0200
0000
0300
0000
,  // measure 67
0001
0000
1000
0000
,  // measure 68
0001
0000
1000
0000
,  // measure 69
1001
0000
0000
0000
;

//---------------dance-single - ----------------
#NOTEDATA:;
#CHARTNAME:;
#CHARTHASH:1360464754;
#STEPSTYPE:dance-single;
#BANNER:;
#DESCRIPTION:;
#CHARTSTYLE:;
#DIFFICULTY:Easy;
#METER:5;
#METERF:5.000000;
#LASTSECONDHINT:131.583008;
#RADARVALUES:0.184189,0.274886,0.130381,0.152111,0.000000,178.000000,160.000000,18.000000,21.000000,0.000000,0.000000,0.000000,0.000000,0.000000,0.184189,0.274886,0.130381,0.152111,0.000000,178.000000,160.000000,18.000000,21.000000,0.000000,0.000000,0.000000,0.000000,0.000000;
#CREDIT:Supra G.L.;
#DISPLAYBPM:125.000000;
#NOTES:
// measure 0
0000
0000
0000
0000
,  // measure 1
0000
0000
0000
0000
,  // measure 2
0000
0000
0000
0000
,  // measure 3
0000
0000
0000
0000
,  // measure 4
0000
0000
0000
0000
,  // measure 5
2002
0000
0000
0000
,  // measure 6
3003
0000
0000
0000
,  // measure 7
0020
0000
0000
0000
,  // measure 8
0030
0000
0000
0000
,  // measure 9
1000
0000
0001
0000
,  // measure 10
1000
0000
0001
0000
,  // measure 11
0100
0000
0010
0000
,  // measure 12
0100
0000
0010
0000
,  // measure 13
1000
0000
0100
0000
,  // measure 14
1000
0000
0010
0000
,  // measure 15
0100
0000
0001
0000
,  // measure 16
0010
0000
0001
0000
,  // measure 17
1000
0010
1000
0010
,  // measure 18
0100
0010
0100
0010
,  // measure 19
0100
0001
0100
0001
,  // measure 20
1000
0001
1000
0000
,  // measure 21
0002
1003
1000
1000
,  // measure 22
0000
1001
0000
0000
,  // measure 23
0020
0130
0100
0100
,  // measure 24
0000
0110
0000
0001
,  // measure 25
2000
0000
3000
0010
,  // measure 26
0200
0000
0300
0001
,  // measure 27
0010
0100
1000
0100
,  // measure 28
0020
0000
0032
0000
,  // measure 29
2003
3001
0001
0001
,  // measure 30
0000
1001
0000
0000
,  // measure 31
0200
0310
0010
0010
,  // measure 32
0000
0110
0000
1000
,  // measure 33
0002
0000
0003
0010
,  // measure 34
0200
0000
0300
1000
,  // measure 35
0010
0100
0001
0100
,  // measure 36
0020
0000
2030
0000
,  // measure 37
3001
0000
0001
0000
,  // measure 38
1000
0000
1000
0000
,  // measure 39
0010
0000
0010
0000
,  // measure 40
0100
0000
0100
0000
,  // measure 41
0000
0000
0010
0000
,  // measure 42
0100
0000
0100
0000
,  // measure 43
0001
0000
0001
0000
,  // measure 44
1000
0000
1000
0000
,  // measure 45
0002
0003
0000
0000
,  // measure 46
1000
1000
1000
1000
,  // measure 47
2000
0000
3100
0000
,  // measure 48
0002
0000
0103
0000
,  // measure 49
2000
3000
0000
0000
,  // measure 50
0001
0001
0001
0001
,  // measure 51
0002
0000
0013
0000
,  // measure 52
2000
0000
3010
0000
,  // measure 53
0001
0100
0001
0000
,  // measure 54
1000
0100
1000
0000
,  // measure 55
0000
0011
0000
1100
,  // measure 56
0000
0110
0001
1001
,  // measure 57
1000
0100
0010
0000
,  // measure 58
0001
0100
0010
0000
,  // measure 59
0000
1010
0000
0101
,  // measure 60
0000
0110
1000
1001
,  // measure 61
0001
0010
0001
0001
,  // measure 62
1000
0010
1000
1000
,  // measure 63
0000
0101
0000
1010
,  // measure 64
0000
0110
0001
1001
,  // measure 65
1000
0010
0100
0100
,  // measure 66
0001
0010
0100
0100
,  // measure 67
1000
0010
0100
0001
,  // measure 68
1000
1000
0001
0001
,  // measure 69
1001
0000
0000
0000
;

//---------------dance-single - ----------------
#NOTEDATA:;
#CHARTNAME:;
#CHARTHASH:3812706030;
#STEPSTYPE:dance-single;
#BANNER:;
#DESCRIPTION:;
#CHARTSTYLE:;
#DIFFICULTY:Medium;
#METER:10;
#METERF:10.000000;
#LASTSECONDHINT:131.583008;
#RADARVALUES:0.319744,0.449814,0.123138,0.434603,0.032595,309.000000,292.000000,17.000000,60.000000,0.000000,0.000000,0.000000,0.000000,0.000000,0.319744,0.449814,0.123138,0.434603,0.032595,309.000000,292.000000,17.000000,60.000000,0.000000,0.000000,0.000000,0.000000,0.000000;
#CREDIT:Supra G.L.;
#DISPLAYBPM:125.000000;
#NOTES:
// measure 0
0000
0000
0000
0000
,  // measure 1
0000
0000
0000
0000
,  // measure 2
0000
0000
0000
0000
,  // measure 3
0000
0000
0000
0000
,  // measure 4
0000
0000
0000
0000
,  // measure 5
2001
0000
0000
0000
,  // measure 6
3020
0000
0000
0000
,  // measure 7
0230
0000
0000
0000
0000
0000
0000
0001
,  // measure 8
0302
0000
0000
0000
0000
0000
0000
0000
1000
0000
0000
1000
0000
0000
1000
0000
,  // measure 9
2003
0001
0010
0001
,  // measure 10
3200
1000
0010
0001
,  // measure 11
0320
0100
1000
0100
,  // measure 12
0032
0100
1000
0010
,  // measure 13
2003
3200
0320
0032
,  // measure 14
0203
0000
0320
0000
2030
0000
3002
0003
,  // measure 15
0002
0023
0230
2300
,  // measure 16
3020
0230
0302
0000
,  // measure 17
1003
0100
1000
0000
0100
0010
0100
0000
,  // measure 18
0010
0001
0010
0000
0001
1000
0001
0000
,  // measure 19
1000
0010
0100
0000
0001
0010
0100
0000
,  // measure 20
0010
0001
1000
0000
0010
1000
0001
1000
,  // measure 21
0002
0000
0000
0000
1003
0000
1000
0000
1000
0000
0000
0000
0100
0000
0000
0200
,  // measure 22
0000
0000
1000
0000
0310
0100
0010
0100
,  // measure 23
2000
0000
0000
0000
3001
0000
0001
0000
0001
0000
0000
0000
0100
0000
0000
0200
,  // measure 24
0000
0001
0010
0302
,  // measure 25
2003
0000
0000
0000
0000
3100
0010
0002
,  // measure 26
0000
0000
0000
0000
0000
0103
0010
1000
,  // measure 27
0001
0010
0010
1000
0010
0010
0002
0000
,  // measure 28
0203
0000
0000
0010
0320
0000
0000
0000
,  // measure 29
2030
0000
0000
0000
3001
0000
0001
0000
0001
0000
0000
0000
0010
0000
0000
0020
,  // measure 30
0000
0000
0001
0000
0130
0010
0100
0010
,  // measure 31
0002
0000
0000
0000
1003
0000
1000
0000
1000
0000
0000
0000
0010
0000
0000
0020
,  // measure 32
0000
1000
0100
2030
,  // measure 33
3002
0000
0000
0000
0000
0013
0100
2000
,  // measure 34
0000
0000
0000
0000
0000
3010
0100
0001
,  // measure 35
0020
0000
0000
0230
0000
0000
0000
0310
,  // measure 36
0002
0000
0000
1003
0010
1000
0100
0010
,  // measure 37
0001
0001
1000
1000
,  // measure 38
0010
0010
1000
1000
,  // measure 39
0001
0001
0100
0100
,  // measure 40
0001
0001
1000
1000
,  // measure 41
0000
0200
0001
1000
,  // measure 42
0010
0010
0001
1000
,  // measure 43
0320
0001
1000
0100
,  // measure 44
0100
0001
1000
0032
,  // measure 45
2003
0000
3000
0000
0000
0010
0100
0000
,  // measure 46
0002
0023
0230
2300
,  // measure 47
3001
0001
0000
0000
0000
0100
0010
0100
,  // measure 48
0010
0010
0000
0000
0000
0000
2000
0000
,  // measure 49
3002
0000
0003
0000
0000
0010
0100
0000
,  // measure 50
2000
3020
0230
0302
,  // measure 51
1003
0000
1000
0000
0000
0000
2000
0000
0000
0100
0000
0100
3000
0000
0002
0000
,  // measure 52
0000
0010
0000
0010
0003
0000
2000
0000
0000
0000
3100
0000
0010
0000
0001
0000
,  // measure 53
1000
0000
0010
0000
1000
0100
1000
0000
,  // measure 54
0001
0000
0010
0000
0001
0100
0001
0000
,  // measure 55
1000
1010
0001
0101
,  // measure 56
1000
1100
0110
1001
,  // measure 57
0001
0000
0010
0000
0100
1000
0001
0000
,  // measure 58
1000
0000
0010
0000
0100
0001
1000
0000
,  // measure 59
0001
0011
1000
1100
,  // measure 60
0001
0101
0110
1001
,  // measure 61
1000
0010
1000
0000
1000
0100
1000
0000
,  // measure 62
0001
0010
0001
0000
0001
0100
0001
0000
,  // measure 63
1000
1000
1010
0000
0001
0001
0101
0000
,  // measure 64
1000
1000
1100
0000
0110
0000
1001
0000
,  // measure 65
0001
0010
0001
1000
0001
0100
0001
0000
,  // measure 66
1000
0010
1000
0001
1000
0100
1000
0000
,  // measure 67
0001
0010
0001
0100
0010
1000
0100
1000
,  // measure 68
0010
0010
0100
0100
0001
0001
1000
1000
,  // measure 69
1001
0000
0000
0000
;

//---------------dance-single - ----------------
#NOTEDATA:;
#CHARTNAME:;
#CHARTHASH:4100524096;
#STEPSTYPE:dance-single;
#BANNER:;
#DESCRIPTION:;
#CHARTSTYLE:;
#DIFFICULTY:Hard;
#METER:15;
#METERF:15.000000;
#LASTSECONDHINT:131.583008;
#RADARVALUES:0.570158,0.799670,0.311466,0.528767,0.604823,551.000000,508.000000,43.000000,73.000000,0.000000,0.000000,0.000000,0.000000,0.000000,0.570158,0.799670,0.311466,0.528767,0.604823,551.000000,508.000000,43.000000,73.000000,0.000000,0.000000,0.000000,0.000000,0.000000;
#CREDIT:Supra G.L.;
#DISPLAYBPM:125.000000;
#NOTES:
// measure 0
0000
0000
0000
0000
,  // measure 1
0000
0000
0000
0000
,  // measure 2
0000
0000
0000
0000
,  // measure 3
0000
0000
0000
0000
,  // measure 4
0000
0000
0000
0000
,  // measure 5
2002
0000
0000
0003
,  // measure 6
0020
0000
0000
3000
,  // measure 7
0200
0000
0000
0000
0000
0000
0000
0000
0000
0000
0000
0000
0030
0000
0301
1000
,  // measure 8
0001
0000
0000
0000
0000
0000
0000
0000
0011
0000
0000
1100
0000
0000
0110
0000
,  // measure 9
2001
3200
0320
0032
,  // measure 10
0203
0000
0320
0000
2030
0000
3002
0023
,  // measure 11
0000
0000
0000
0000
0130
0000
0010
0000
0200
0000
0000
0000
0000
0000
0000
0000
0000
0000
0000
0000
0000
0000
0000
0000
1300
0001
1000
0001
1000
0000
0001
0000
,  // measure 12
2000
0000
0000
0000
0000
0000
3010
0100
0020
0000
0000
0000
1030
0100
0001
0100
,  // measure 13
2000
0000
3002
0000
0203
0000
0320
1030
,  // measure 14
0200
0000
0000
0000
0000
0000
0310
0001
2000
0000
0000
0000
0000
0000
0000
0000
,  // measure 15
3002
0000
0000
0000
0103
0010
1000
0000
0002
0000
0000
0000
0000
0000
0000
0000
,  // measure 16
0013
0000
0100
0010
0000
0001
0000
1000
0001
0000
0101
0000
0000
1010
0000
0000
,  // measure 17
1001
0000
1000
0100
1000
0000
0100
0010
0100
0000
0010
0001
0010
0000
0001
1000
,  // measure 18
0010
0000
0100
0001
0100
0000
0010
0100
0010
0000
1000
0010
1000
0000
0100
1000
,  // measure 19
0001
0000
1000
0001
0010
0000
0001
0010
0100
0000
0010
0100
1000
0000
0100
1000
,  // measure 20
0010
0000
0000
0000
1000
0000
0100
0000
0010
0000
0000
0000
0001
0000
0100
0000
0010
0000
0000
0000
1000
0001
1000
0001
1000
0000
0010
0000
0100
0000
0010
0000
,  // measure 21
2000
0000
0000
3000
1100
0000
1010
0000
1100
0000
0000
0000
0010
0001
0000
1002
,  // measure 22
0000
0000
0000
0000
0100
0000
0000
0000
1003
0100
1000
0100
0000
0010
0001
0010
,  // measure 23
0002
0000
0000
0003
0101
0000
0011
0000
0101
0000
0000
0000
0010
1000
0000
2001
,  // measure 24
0000
0100
0001
3200
,  // measure 25
0320
0000
0001
0000
0100
0130
1000
0002
,  // measure 26
0010
0000
0000
0000
1000
0000
0000
0000
0013
0001
1000
0001
1000
0010
0100
0001
,  // measure 27
0010
1000
0010
0001
1000
0000
0010
0001
0010
1000
0001
0000
0020
0000
0000
0000
,  // measure 28
0032
0000
0000
0000
0000
0000
0103
0010
2000
0000
0000
0000
0000
0000
0000
0000
,  // measure 29
3002
0000
0000
0003
0011
0000
0101
0000
0011
0000
0000
0000
0100
1000
0000
2001
,  // measure 30
0000
0000
0000
0000
0010
0000
0000
0000
3001
0010
0001
0010
0000
0100
1000
0100
,  // measure 31
2000
0000
0000
3000
1010
0000
1100
0000
1010
0000
0000
0000
0100
0001
0000
1002
,  // measure 32
0000
0010
1000
0023
,  // measure 33
0230
0000
1000
0000
0010
0310
0001
2000
,  // measure 34
0100
0000
0000
0000
0001
0000
0000
0000
3100
1000
0001
1000
0001
0100
0010
1000
,  // measure 35
0200
0000
0000
0000
0000
0000
0320
0000
0000
0000
0000
0000
0000
0031
0100
0010
,  // measure 36
2000
0000
0000
0000
0000
0000
3010
1000
0100
0010
0001
0010
0100
1000
0010
0100
,  // measure 37
0001
0000
1000
0001
0000
0000
0010
0000
0000
0000
0010
0000
0000
0010
0001
0010
,  // measure 38
0100
0000
0010
0100
0000
0000
1000
0000
0000
0000
1000
0000
0000
0010
0000
0000
,  // measure 39
1000
0000
0001
1000
0000
0000
0100
0000
0000
0000
0100
0000
0000
0100
1000
0100
,  // measure 40
0010
0000
0100
0010
0000
0000
0001
0000
0000
0000
0100
0001
0000
1000
0100
0010
,  // measure 41
0000
0000
0000
0000
1001
0000
0001
0000
0000
0000
0001
0000
0000
0001
1000
0001
,  // measure 42
1000
0000
0010
1000
0000
0000
0100
0000
0000
0000
0100
0000
0000
0010
0000
0000
,  // measure 43
0001
0000
2000
0010
0000
0000
3001
0000
1000
0000
0002
0100
0000
0000
1003
0000
,  // measure 44
0001
0010
0000
0100
0000
1000
0001
0100
0000
0000
0010
0000
2000
0000
0000
0000
,  // measure 45
3200
0000
0000
0000
0300
0000
0000
0000
0000
0000
1000
0000
0010
0100
0000
0000
,  // measure 46
0202
0000
0303
0000
2002
0000
3003
0000
2020
0000
3030
0000
0220
0000
0330
0100
,  // measure 47
0010
0000
0100
0000
0000
0000
0000
0000
0000
0000
0001
0000
0010
0000
0001
0100
,  // measure 48
0010
0000
1000
0001
0000
0000
0000
0000
0000
0000
0000
0000
0002
0000
0000
0000
,  // measure 49
0203
0000
0000
0000
0300
0000
0000
0000
0000
0000
0001
0000
0010
0100
0000
0000
,  // measure 50
2200
0000
3300
0000
2020
0000
3030
0000
0220
0000
0330
0000
0202
0000
0303
0001
,  // measure 51
0100
0010
1000
0010
1000
0000
0020
0000
0030
1000
0100
1000
0100
0000
2000
0000
,  // measure 52
3000
0001
0100
0001
0100
0000
0002
0000
0003
0100
0010
0100
0010
1000
0100
0010
,  // measure 53
0001
0000
1000
0000
0010
0000
0001
0000
0010
0000
1000
0000
0001
1000
0001
1000
,  // measure 54
0001
0100
1000
0100
0001
1000
0200
0320
,  // measure 55
0031
0001
0101
0000
1000
1000
1010
0000
,  // measure 56
0001
0000
0001
0000
0011
0000
0010
0100
1000
0010
0100
0001
0100
0010
1000
0100
,  // measure 57
1000
0000
0001
0000
0010
0000
1000
0000
0010
0000
0001
0000
1000
0001
1000
0001
,  // measure 58
1000
0100
0001
0100
1000
0001
0200
0320
,  // measure 59
1030
1000
1100
0000
0001
0001
0011
0000
,  // measure 60
1000
0000
1000
0000
1010
0000
0010
0100
0001
0010
0001
1000
0010
1000
0100
0010
,  // measure 61
0001
0000
1000
0010
1000
0000
0001
0010
0001
0000
1000
0100
1000
0000
0001
0000
,  // measure 62
1000
0000
0001
0100
0001
0000
1000
0100
1000
0000
0001
0010
0001
0000
1000
0000
,  // measure 63
0001
0100
0001
0000
0101
0000
0000
0000
1000
0010
1000
0000
1010
0000
0000
0000
,  // measure 64
0001
0010
0001
0000
0011
0000
0010
0001
0100
0010
1000
0100
0010
0001
0100
0010
,  // measure 65
1000
0100
1000
0100
0010
0100
0010
0100
0001
0100
0001
0100
0010
0001
1000
0000
,  // measure 66
0001
0100
0001
0100
0010
0100
0010
0100
1000
0100
1000
0100
0010
1000
0001
0000
,  // measure 67
1000
0100
1000
0010
0100
0001
0010
0001
1000
0100
1000
0010
0100
0001
0010
0001
,  // measure 68
1000
0010
1000
0000
0010
0100
0010
0000
0100
0001
0100
0000
0001
1000
0001
0000
,  // measure 69
1001
0000
0000
0000
;
