#TITLE:Afterlife;
#SUBTITLE:;
#ARTIST:STRLGHT;
#TITLETRANSLIT:;
#SUBTITLETRANSLIT:;
#ARTISTTRANSLIT:;
#GENRE:;
#CREDIT:;
#BANNER:Afterlife.png;
#BACKGROUND:Afterlife-bg.png;
#LYRICSPATH:;
#CDTITLE:cdtitle.png;
#MUSIC:Afterlife.ogg;
#OFFSET:-0.201000;
#SAMPLESTART:52.701000;
#SAMPLELENGTH:15.000000;
#SELECTABLE:YES;
#BPMS:0.000000=128.000000
;
#STOPS:
;
#BGCHANGES:;
#KEYSOUNDS:;
#ATTACKS:;

//---------------dance-single - ----------------
#NOTES:
     dance-single:
     :
     Hard:
     10:
     0.357109,0.444825,0.199601,0.142572,0.251877,263.000000,242.000000,21.000000,15.000000,0.000000,0.000000,0.357109,0.444825,0.199601,0.142572,0.251877,263.000000,242.000000,21.000000,15.000000,0.000000,0.000000:
// measure 0
0000
0000
0000
0000
,  // measure 1
0000
0000
0000
0000
,  // measure 2
0000
0000
0000
0000
,  // measure 3
0000
0000
0000
0000
,  // measure 4
0002
0000
0000
0000
,  // measure 5
2003
0000
0000
0000
0000
0000
0000
3020
0000
0000
0000
0000
0000
0000
0000
0000
,  // measure 6
0230
0000
0000
0000
,  // measure 7
0302
0000
0000
0000
0000
0000
0000
2003
0000
0000
0000
0000
0000
0000
0000
0000
,  // measure 8
3020
0000
0000
0000
,  // measure 9
0230
0000
0000
0000
0000
0000
0000
0302
0000
0000
0000
0000
0000
0000
0000
0000
,  // measure 10
2003
0000
0000
0000
,  // measure 11
3200
0000
0000
0000
0000
0000
0000
0320
0000
0000
0000
0000
0000
0000
0000
0000
,  // measure 12
0031
0100
0001
0000
0010
0000
0010
0000
,  // measure 13
0100
1000
0100
0000
0010
0000
0001
0000
,  // measure 14
1000
0010
1000
0000
0100
0000
0100
0000
,  // measure 15
0010
0001
0010
0000
0100
0000
1000
0000
,  // measure 16
0001
0100
0010
0000
1000
0000
0001
0000
,  // measure 17
0010
0100
1000
0000
0010
0000
0010
0000
,  // measure 18
1000
0100
0010
0000
0001
0000
1000
0000
,  // measure 19
0010
0100
0001
0000
0010
0000
0010
0000
,  // measure 20
0001
0001
0101
0101
,  // measure 21
0010
0010
1010
1010
,  // measure 22
0100
0100
0110
0110
,  // measure 23
1000
1000
1001
1001
,  // measure 24
0001
0010
0100
1000
0010
0100
0001
0000
,  // measure 25
1000
0100
0010
0001
0100
0010
1000
0000
,  // measure 26
0001
0010
1000
0010
0001
0100
1000
0100
,  // measure 27
0002
0000
0000
1003
,  // measure 28
0001
0000
0010
0000
0001
0000
0000
1000
0000
0100
0000
1000
0000
0000
0010
0000
,  // measure 29
0100
0000
0001
0000
0100
0000
0000
0010
0000
1000
0000
0010
0000
0000
1000
0000
,  // measure 30
0100
0000
0010
0000
0100
0000
0000
1000
0000
0010
0000
1000
0000
0000
0100
0000
,  // measure 31
0010
0000
0001
0000
0010
0000
0000
0001
0000
1000
0000
0000
1001
0000
0000
0000
,  // measure 32
1000
0000
0010
0000
0100
0000
0000
0001
0000
0010
0000
0001
0000
0000
0010
0000
,  // measure 33
0100
0000
1000
0000
0010
0000
0000
0100
0000
0001
0000
0100
0000
0000
0001
0000
,  // measure 34
0010
0000
0100
0000
1000
0000
0000
0010
0000
0100
0000
0010
0000
0000
0100
0000
,  // measure 35
0002
0000
0000
1003
,  // measure 36
0001
0000
0010
0000
0011
0000
0000
1000
0000
0010
0000
0100
0000
0000
0001
0000
,  // measure 37
1000
0000
0010
0000
1010
0000
0000
0001
0000
0010
0000
0100
0000
0000
0010
0000
,  // measure 38
0100
0000
1000
0000
1100
0000
0000
0010
0000
0001
0000
1000
0000
0000
0010
0000
,  // measure 39
0100
0000
0001
0000
0101
0000
0000
0010
0000
1000
0000
0000
1001
0000
0000
0000
,  // measure 40
0100
0000
0010
0000
1010
0000
0000
0001
0000
0001
0000
0001
0000
0000
1000
0000
,  // measure 41
0100
0000
0010
0000
0011
0000
0000
1000
0000
1000
0000
1000
0000
0000
0001
0000
,  // measure 42
1000
0000
0010
0000
0110
0000
0000
0010
0000
0010
0000
0010
0000
0000
0100
0000
,  // measure 43
0001
0000
0001
0000
1000
1000
1001
0000
,  // measure 44
0001
0000
0000
0000
0100
0000
0000
0010
1000
0000
0000
0100
1000
0000
0000
0000
,  // measure 45
0100
0000
0000
0000
0010
0000
0000
0001
0100
0000
0000
0000
1001
0000
0000
0000
,  // measure 46
1000
0000
0000
0000
0100
0000
0000
0010
0001
0000
0000
0100
0001
0000
0000
0000
,  // measure 47
0100
0000
0000
0000
0010
0000
0000
1000
0100
0000
0000
0000
1001
0000
0000
0000
,  // measure 48
0010
0000
0000
0000
1000
0000
0000
0100
0010
0000
0000
0100
1000
0000
0000
0000
,  // measure 49
0001
0000
0000
0000
0100
0000
0000
0010
1000
0000
0000
0000
0110
0000
0000
0000
,  // measure 50
0100
0001
0100
0000
0010
1000
0010
0000
,  // measure 51
1000
0100
1000
0001
0100
0010
1000
0002
,  // measure 52
0003
0000
0000
0000
;

//---------------dance-single - ----------------
#NOTES:
     dance-single:
     :
     Challenge:
     12:
     0.480671,0.593100,0.285144,0.199601,0.432468,354.000000,324.000000,30.000000,21.000000,0.000000,0.000000,0.480671,0.593100,0.285144,0.199601,0.432468,354.000000,324.000000,30.000000,21.000000,0.000000,0.000000:
// measure 0
0000
0000
0000
0000
,  // measure 1
0000
0000
0000
0000
,  // measure 2
0000
0000
0000
0000
,  // measure 3
0000
0000
0000
0000
,  // measure 4
2000
0000
0000
0000
,  // measure 5
0002
0000
0000
0000
3000
0000
0000
0200
0000
0000
0000
0000
0003
0000
0000
0000
,  // measure 6
0020
0000
0300
0000
,  // measure 7
2000
0000
0000
0000
0030
0000
0000
0002
0000
0000
0000
0000
3000
0000
0000
0000
,  // measure 8
0200
0000
0003
0000
,  // measure 9
0020
0000
0000
0000
0300
0000
0000
2000
0000
0000
0000
0000
0030
0000
0000
0000
,  // measure 10
0002
0000
3000
0000
,  // measure 11
0020
0000
0000
0000
0003
0000
0000
0200
0000
0000
0000
0000
0030
0000
0000
0000
,  // measure 12
1300
0000
0010
0000
1000
0000
0000
0001
0000
0100
0000
0001
0000
0000
0010
0000
,  // measure 13
0100
0000
1000
0000
0100
0000
0000
0010
0000
0001
0000
0010
0000
0000
0001
0000
,  // measure 14
0100
0000
0010
0000
0100
0000
0000
0010
0000
1000
0000
0010
0000
0000
0100
0000
,  // measure 15
0001
0000
0010
0000
0001
0000
0000
1000
0000
0001
0000
1000
0000
0000
0001
0000
,  // measure 16
0100
0000
0010
0000
1000
0000
0000
0001
0000
0010
0000
0001
0000
0000
1000
0000
,  // measure 17
0100
0000
0010
0000
0001
0000
0000
1000
0000
0010
0000
1000
0000
0000
0100
0000
,  // measure 18
0010
0000
0001
0000
1000
0000
0000
0010
0000
0100
0000
0010
0000
0000
0100
0000
,  // measure 19
0001
0000
1000
0000
0010
0000
0000
0100
0000
0001
0000
0100
0000
0000
0001
0000
,  // measure 20
1000
0100
0010
0100
1100
0000
1010
0000
,  // measure 21
0001
0100
0010
0100
0101
0000
0011
0000
,  // measure 22
1000
0001
0010
0001
0101
0000
1010
0000
,  // measure 23
0001
1000
0010
1000
1100
0000
0011
0001
,  // measure 24
1000
0010
0100
1000
0001
0010
0100
0001
,  // measure 25
0001
0000
0010
0000
0100
0000
0001
0000
1000
0000
0010
0000
0100
0000
1000
0001
,  // measure 26
1000
0000
0001
0100
0001
0000
1000
0010
1000
0000
0001
0010
0001
0000
1000
0100
,  // measure 27
2000
0000
3002
1003
,  // measure 28
0001
0000
0100
0000
0101
0000
0000
0001
1000
0001
0000
0001
0010
0000
0100
0000
,  // measure 29
1000
0000
0010
0000
1010
0000
0000
1000
0001
1000
0000
1000
0100
0000
0010
0000
,  // measure 30
0001
0000
1000
0000
1100
0000
0000
0100
0010
0100
0000
0100
1000
0000
0010
0000
,  // measure 31
0100
0000
0001
0000
0011
0000
0000
0010
0100
0010
0000
0010
0002
0000
0000
0000
,  // measure 32
1003
0000
0100
0000
1100
0000
0000
1000
0010
0100
0000
0100
0001
0000
1000
0000
,  // measure 33
0001
0000
0010
0000
0011
0000
0000
0001
0100
0010
0000
0010
1000
0000
0100
0000
,  // measure 34
1000
0000
0001
0000
0101
0000
0000
0100
0010
1000
0000
1000
0100
0000
0010
0000
,  // measure 35
0002
0000
0000
0000
0000
0000
0000
0000
0000
0000
0013
0100
0010
0000
0000
0000
,  // measure 36
1001
0000
0001
0000
0101
0000
0000
0100
1000
0100
0000
0010
1000
0000
0001
0000
,  // measure 37
1001
0000
1000
0000
1010
0000
0000
0010
0001
0010
0000
0100
0001
0000
0010
0000
,  // measure 38
0110
0000
0100
0000
1100
0000
0000
1000
0010
1000
0000
0001
0010
0000
0100
0000
,  // measure 39
0110
0000
0010
0000
0011
0000
0000
0001
0100
0001
0000
0010
0002
0000
0000
0000
,  // measure 40
1003
0000
0001
0000
0011
0000
0000
0010
0100
1000
0000
0010
1000
0000
0001
0000
,  // measure 41
1001
0000
1000
0000
1100
0000
0000
0100
0010
0001
0000
1000
0001
0000
0100
0000
,  // measure 42
0110
0000
0010
0000
1010
0000
0000
1000
0100
0010
0000
0001
0100
0000
0010
0000
,  // measure 43
1000
0000
1000
0000
0100
0100
0110
0010
,  // measure 44
0001
0000
0100
0000
0001
0000
0000
1000
0100
0000
0000
1000
0010
0000
0100
0000
,  // measure 45
0001
0000
0010
0000
0001
0000
0000
0100
0010
0000
0000
0100
0002
0000
0000
0000
,  // measure 46
1003
0000
0100
0000
1000
0000
0000
0001
0100
0000
0000
0001
0010
0000
0100
0000
,  // measure 47
1000
0000
0010
0000
1000
0000
0000
0100
0001
0000
0000
0100
0020
0000
0000
0000
,  // measure 48
0130
0000
1000
0000
0010
0000
0000
0100
0001
0000
0000
0010
0001
0000
1000
0000
,  // measure 49
0010
0000
0100
0000
0001
0000
0000
0010
0100
0000
0000
1000
0200
0000
0000
0000
,  // measure 50
1300
1000
0010
0010
0100
0100
0001
0001
,  // measure 51
0010
0001
0010
0000
0100
0010
0100
0000
1000
0100
1000
0000
1001
0000
0002
0000
,  // measure 52
0103
0000
0000
0000
;

//---------------dance-single - ----------------
#NOTES:
     dance-single:
     :
     Beginner:
     2:
     0.104553,0.147562,0.019010,0.038019,0.000000,77.000000,75.000000,2.000000,4.000000,0.000000,0.000000,0.104553,0.147562,0.019010,0.038019,0.000000,77.000000,75.000000,2.000000,4.000000,0.000000,0.000000:
// measure 0
0000
0000
0000
0000
,  // measure 1
0000
0000
0000
0000
,  // measure 2
0000
0000
0000
0000
,  // measure 3
0000
0000
0000
0000
,  // measure 4
0001
0000
0000
0000
,  // measure 5
1000
0000
0000
0000
,  // measure 6
0010
0000
0000
0000
,  // measure 7
0100
0000
0000
0000
,  // measure 8
0010
0000
0000
0000
,  // measure 9
1000
0000
0000
0000
,  // measure 10
0001
0000
0000
0000
,  // measure 11
0100
0000
0000
0000
,  // measure 12
0001
0000
0001
0000
,  // measure 13
0010
0000
0000
0000
,  // measure 14
1000
0000
1000
0000
,  // measure 15
0010
0000
0000
0000
,  // measure 16
0100
0000
0100
0000
,  // measure 17
0001
0000
0000
0000
,  // measure 18
0100
0000
0100
0000
,  // measure 19
1000
0000
0000
0000
,  // measure 20
1001
0000
0000
0000
,  // measure 21
0000
0000
0000
0000
,  // measure 22
1001
0000
0000
0000
,  // measure 23
0000
0000
0000
0000
,  // measure 24
0001
0000
0001
0000
,  // measure 25
1000
0000
1000
0000
,  // measure 26
0100
0100
0100
0000
,  // measure 27
0020
0000
0000
0030
,  // measure 28
0001
0000
0100
0000
,  // measure 29
0010
0000
1000
0000
,  // measure 30
0100
0000
0010
0000
,  // measure 31
0001
0000
0000
1000
,  // measure 32
1000
0000
0100
0000
,  // measure 33
0010
0000
0001
0000
,  // measure 34
0100
0000
0010
0000
,  // measure 35
0200
0000
0000
0300
,  // measure 36
0001
0000
0010
0000
,  // measure 37
1000
0000
0100
0000
,  // measure 38
1000
0000
0010
0000
,  // measure 39
0001
0000
0000
1000
,  // measure 40
1000
0000
0010
0000
,  // measure 41
0001
0000
0100
0000
,  // measure 42
0001
0000
0010
0000
,  // measure 43
0200
0000
0000
0300
,  // measure 44
0001
0000
0001
0000
,  // measure 45
1000
0000
0000
1000
,  // measure 46
1000
0000
1000
0000
,  // measure 47
0001
0000
0000
0001
,  // measure 48
0100
0000
0100
0000
,  // measure 49
0010
0000
0000
0010
,  // measure 50
1000
0000
0001
0000
,  // measure 51
0020
0000
0000
0030
;

//---------------dance-single - ----------------
#NOTES:
     dance-single:
     :
     Easy:
     5:
     0.187380,0.245937,0.057029,0.104553,0.000000,138.000000,132.000000,6.000000,11.000000,0.000000,0.000000,0.187380,0.245937,0.057029,0.104553,0.000000,138.000000,132.000000,6.000000,11.000000,0.000000,0.000000:
// measure 0
0000
0000
0000
0000
,  // measure 1
0000
0000
0000
0000
,  // measure 2
0000
0000
0000
0000
,  // measure 3
0000
0000
0000
0000
,  // measure 4
2000
0000
0000
3000
,  // measure 5
0002
0000
0000
0003
,  // measure 6
0200
0000
0000
0300
,  // measure 7
0020
0000
0000
0030
,  // measure 8
0200
0000
0000
0300
,  // measure 9
0002
0000
0000
0003
,  // measure 10
2000
0000
0000
3000
,  // measure 11
0020
0000
0000
0030
,  // measure 12
1000
1000
0100
0000
,  // measure 13
0001
0001
0100
0000
,  // measure 14
0010
0010
1000
0000
,  // measure 15
0010
0010
0001
0000
,  // measure 16
1000
0010
0100
0000
,  // measure 17
0001
0010
0100
0000
,  // measure 18
0010
0001
0100
0000
,  // measure 19
0010
1000
0100
0000
,  // measure 20
1000
0000
1000
0000
,  // measure 21
0001
0000
0001
0000
,  // measure 22
0100
0000
0100
0000
,  // measure 23
0010
0000
0010
0000
,  // measure 24
1000
1000
1000
0000
,  // measure 25
0001
0001
0001
0000
,  // measure 26
0010
0010
0010
0010
,  // measure 27
0020
0000
0000
0030
,  // measure 28
0001
0001
0100
0010
,  // measure 29
1000
1000
0001
0000
,  // measure 30
0010
0010
0001
1000
,  // measure 31
0100
0100
0000
1001
,  // measure 32
1000
1000
0100
0010
,  // measure 33
0001
0001
1000
0000
,  // measure 34
0010
0010
1000
0001
,  // measure 35
0200
0000
0000
0300
,  // measure 36
0001
0001
1000
0010
,  // measure 37
0100
0100
0010
0010
,  // measure 38
1000
1000
0100
0010
,  // measure 39
0001
0100
0001
1001
,  // measure 40
1000
1000
0001
0010
,  // measure 41
0100
0100
0010
0010
,  // measure 42
0001
0001
0100
0010
,  // measure 43
2000
0000
0001
3001
,  // measure 44
1000
0000
0100
0010
,  // measure 45
0001
0000
1000
1001
,  // measure 46
0001
0000
0100
0010
,  // measure 47
1000
0000
0001
1001
,  // measure 48
0100
0000
0001
1000
,  // measure 49
0010
0000
0100
0110
,  // measure 50
0010
0000
0100
0000
,  // measure 51
0001
1000
0001
1001
;

//---------------dance-single - ----------------
#NOTES:
     dance-single:
     :
     Medium:
     8:
     0.287860,0.395400,0.266134,0.161582,0.000000,212.000000,184.000000,28.000000,17.000000,0.000000,0.000000,0.287860,0.395400,0.266134,0.161582,0.000000,212.000000,184.000000,28.000000,17.000000,0.000000,0.000000:
// measure 0
0000
0000
0000
0000
,  // measure 1
0000
0000
0000
0000
,  // measure 2
0000
0000
0000
0000
,  // measure 3
0000
0000
0000
0000
,  // measure 4
2000
0000
0000
0000
,  // measure 5
3020
0000
0230
0000
,  // measure 6
0302
0000
0000
0000
,  // measure 7
0023
0000
0230
0000
,  // measure 8
0320
0000
0000
0000
,  // measure 9
0032
0000
2003
0000
,  // measure 10
3200
0000
0000
0000
,  // measure 11
2300
0000
3002
0000
,  // measure 12
1003
0010
1000
0000
0001
0000
0000
0000
,  // measure 13
0100
0001
0100
0000
0010
0000
0000
0000
,  // measure 14
0001
0010
0001
0000
1000
0000
0000
0000
,  // measure 15
0100
1000
0100
0000
0010
0000
0000
0000
,  // measure 16
1000
0100
0010
0000
0001
0000
0000
0000
,  // measure 17
0100
0010
1000
0000
0100
0000
0000
0000
,  // measure 18
0001
0100
0010
0000
1000
0000
0000
0000
,  // measure 19
0100
0010
0001
0000
0100
0000
0000
0000
,  // measure 20
1000
1000
0001
0001
,  // measure 21
0010
0010
0001
0001
,  // measure 22
0100
0100
0010
0010
,  // measure 23
1000
1000
0001
0001
,  // measure 24
1000
0010
0100
0001
,  // measure 25
1000
0100
0010
0001
,  // measure 26
1000
0010
1000
0000
0001
0100
0001
0000
,  // measure 27
2000
0000
0000
3001
,  // measure 28
1000
0000
1010
0000
0010
0100
0001
0000
,  // measure 29
0010
0000
0011
0000
0001
1000
0010
0000
,  // measure 30
1000
0000
1100
0000
0100
0010
0001
0000
,  // measure 31
0100
0110
0010
1001
,  // measure 32
0001
0000
0011
0000
0010
0100
1000
0000
,  // measure 33
0010
0000
1010
0000
1000
0001
0010
0000
,  // measure 34
0001
0000
0101
0000
0100
0010
1000
0000
,  // measure 35
0002
0000
0000
1003
,  // measure 36
0101
0000
0011
0000
0010
0100
1000
0000
,  // measure 37
1100
0000
1010
0000
0010
0100
0001
0000
,  // measure 38
0101
0000
1100
0000
1000
0001
0010
0000
,  // measure 39
0011
1010
1000
0110
,  // measure 40
1100
0000
1001
0000
0001
0001
0001
0000
,  // measure 41
0101
0000
1001
0000
1000
1000
1000
0000
,  // measure 42
1010
0000
0110
0000
0100
0100
0100
0000
,  // measure 43
0002
1000
1003
1001
,  // measure 44
0001
0010
0100
0100
,  // measure 45
1000
0010
0100
1001
,  // measure 46
1000
0100
0010
0010
,  // measure 47
0001
0100
0010
1001
,  // measure 48
0100
0001
1000
1000
,  // measure 49
0100
0010
0001
0110
,  // measure 50
1000
1000
0001
0001
,  // measure 51
0100
0010
0100
0010
1000
0000
2002
0000
,  // measure 52
3003
0000
0000
0000
;
