#VERSION:0.83;
#TITLE:ARTEMIS;
#SUBTITLE:;
#ARTIST:Lindsey Stirling;
#TITLETRANSLIT:;
#SUBTITLETRANSLIT:;
#ARTISTTRANSLIT:;
#GENRE:;
#ORIGIN:;
#CREDIT:;
#BANNER:ARTEMIS.png;
#BACKGROUND:ARTEMIS-bg.png;
#PREVIEWVID:;
#JACKET:ARTEMIS-jacket.png;
#CDIMAGE:;
#DISCIMAGE:;
#LYRICSPATH:;
#CDTITLE:cdtitle.png;
#MUSIC:ARTEMIS.ogg;
#OFFSET:1.164000;
#SAMPLESTART:54.415001;
#SAMPLELENGTH:15.000000;
#SELECTABLE:YES;
#DISPLAYBPM:190.000000;
#BPMS:0.000=190.000,
550.000=126.667,
551.000=95.000;
#STOPS:;
#DELAYS:;
#WARPS:;
#TIMESIGNATURES:0.000=4=4;
#TICKCOUNTS:0.000=4;
#COMBOS:0.000=1;
#SPEEDS:0.000=1.000=0.000=0;
#SCROLLS:0.000=1.000;
#FAKES:;
#LABELS:0.000=Song Start;
#BGCHANGES:3.688=ARTEMIS.avi=1.000=0=0=0=StretchNoLoop====,
99999=-nosongbg-=1.000=0=0=0 // don't automatically add -songbackground-
;
#KEYSOUNDS:;
#ATTACKS:
;

//---------------dance-single - ----------------
#NOTEDATA:;
#CHARTNAME:;
#STEPSTYPE:dance-single;
#DESCRIPTION:;
#CHARTSTYLE:;
#DIFFICULTY:Hard;
#METER:12;
#RADARVALUES:0.563452,0.696029,0.116005,0.381159,0.011048,714.000000,693.000000,21.000000,69.000000,0.000000,0.000000,0.000000,0.000000,0.000000,0.563452,0.696029,0.116005,0.381159,0.011048,714.000000,693.000000,21.000000,69.000000,0.000000,0.000000,0.000000,0.000000,0.000000;
#CREDIT:;
#DISPLAYBPM:190.000000;
#NOTES:
// measure 0
0000
0000
0000
0000
,  // measure 1
0000
0000
0000
0000
,  // measure 2
0000
0000
0000
0000
,  // measure 3
0000
0000
0000
0000
,  // measure 4
0000
0000
0000
0000
,  // measure 5
0000
0000
0000
0000
,  // measure 6
0000
0000
0000
0000
,  // measure 7
0000
0000
0000
0000
,  // measure 8
0000
0000
0000
0000
,  // measure 9
0000
0000
0000
0000
,  // measure 10
0000
0000
0000
0000
,  // measure 11
0000
0000
0000
0000
,  // measure 12
0000
0000
0000
0000
,  // measure 13
0000
0000
0000
0000
,  // measure 14
0000
0000
0000
0000
,  // measure 15
0000
0000
0000
0000
,  // measure 16
1000
0100
1000
0100
1000
0001
0010
0100
,  // measure 17
0010
0001
0010
0001
0010
0100
1000
0001
,  // measure 18
0100
0010
0100
0010
0100
0001
0010
0100
,  // measure 19
1000
0010
1000
0010
1000
0100
0010
0001
,  // measure 20
1000
0100
1000
0100
0010
0100
0010
0001
,  // measure 21
0100
0001
0100
0010
1000
0100
0010
0001
,  // measure 22
0100
0010
0100
0010
1000
0010
1000
0001
,  // measure 23
0010
0001
0010
0100
1000
0001
0100
0010
,  // measure 24
1000
0001
1000
0010
1000
0001
1000
0100
,  // measure 25
0010
0001
0010
0100
0010
1000
0010
0001
,  // measure 26
0100
0010
0100
1000
0100
0010
0100
0001
,  // measure 27
0010
0100
1000
0100
0010
0001
0100
0010
,  // measure 28
1000
0100
1000
0100
0000
0000
0010
0100
,  // measure 29
0010
0100
0000
0010
0001
1000
0002
0000
,  // measure 30
1003
0010
1000
0010
0000
0000
0100
0010
,  // measure 31
0100
0010
0000
0100
0001
0010
0100
1000
,  // measure 32
0001
0010
0001
0010
0000
0000
0100
1000
,  // measure 33
0100
1000
0000
0010
0100
0001
1000
0100
,  // measure 34
0010
0001
0010
0001
0000
0000
0100
0001
,  // measure 35
1000
0010
0001
0010
0100
0001
1000
0010
,  // measure 36
1010
0010
0011
0010
,  // measure 37
1010
0010
0011
0010
,  // measure 38
1100
0100
0101
0100
,  // measure 39
1100
0100
0101
0100
,  // measure 40
0001
0010
0100
1000
0001
0100
0010
1000
,  // measure 41
0001
0010
0100
0010
0001
1000
0100
1000
,  // measure 42
0001
0001
1000
0010
0100
0100
0001
0010
,  // measure 43
0100
0100
1000
0001
1001
0000
0000
0000
,  // measure 44
0100
1000
0002
0010
,  // measure 45
0203
0000
0010
0000
0301
0010
0100
1000
,  // measure 46
0020
0000
1000
0000
,  // measure 47
0031
0000
1000
0001
0100
0000
0001
1000
,  // measure 48
0100
0000
1000
0010
0100
0001
0000
0001
,  // measure 49
0010
0100
1000
0001
0000
0000
0100
0000
,  // measure 50
0010
0000
1000
0100
0010
0001
0000
0000
,  // measure 51
0200
0320
2030
3002
,  // measure 52
0103
0010
2000
0100
,  // measure 53
3020
0000
0100
0000
1030
0100
0010
0001
,  // measure 54
0020
0000
0001
0000
,  // measure 55
1030
0000
0001
1000
0020
0000
2030
0000
,  // measure 56
3001
0000
0010
0100
1000
0001
0000
0001
,  // measure 57
0100
0010
1000
0001
0000
0000
0010
0000
,  // measure 58
0100
0000
1000
0010
0100
0001
0000
0000
,  // measure 59
2000
3200
0320
0032
,  // measure 60
0203
0000
0000
0320
,  // measure 61
2030
0000
0000
0000
0000
0000
3001
0100
,  // measure 62
0020
0000
0000
0000
,  // measure 63
0030
1000
0000
0001
1001
0000
0000
0000
,  // measure 64
0001
0001
0010
0010
0100
0100
1000
1000
,  // measure 65
0002
0000
1003
0010
0200
0000
0301
1000
,  // measure 66
0020
0000
0000
1030
,  // measure 67
0001
0010
0100
0010
0100
1000
0001
0100
,  // measure 68
0020
0000
1000
0000
,  // measure 69
0031
2000
3020
0230
,  // measure 70
0302
0000
0000
0000
2003
0000
3010
0100
,  // measure 71
0001
0010
0100
1000
1001
0000
0000
0000
,  // measure 72
1000
0100
0010
0001
1000
0100
0010
0001
,  // measure 73
1000
0010
0100
0010
2000
0000
3001
0010
,  // measure 74
0200
1000
1000
0001
,  // measure 75
0001
1000
1300
0010
,  // measure 76
1000
1000
0100
0100
0010
0010
0001
0001
,  // measure 77
2000
0000
3001
0010
0200
0000
1300
0001
,  // measure 78
0020
1000
0001
0130
,  // measure 79
1000
0010
0100
0010
0100
0001
1000
0100
,  // measure 80
0020
0001
0001
1000
,  // measure 81
1030
0002
0203
0320
,  // measure 82
2030
0000
0000
0000
3001
0010
0001
0000
1000
0000
0001
0000
0100
0000
0010
0000
,  // measure 83
0110
0000
0000
0000
,  // measure 84
0001
0010
0001
0010
0000
0000
0100
1000
,  // measure 85
0100
1000
0000
0001
0010
0100
0020
0000
,  // measure 86
0031
0100
0001
0100
0000
0000
0010
1000
,  // measure 87
0010
1000
0000
0010
0100
0001
0010
0100
,  // measure 88
1000
0001
1000
0001
0000
0000
0010
0100
,  // measure 89
0010
0100
0000
1000
0010
0100
0001
1000
,  // measure 90
0100
0010
0100
0010
0000
0000
0001
0010
,  // measure 91
0100
1000
0010
0001
0010
0100
0001
1000
,  // measure 92
1001
0000
0100
0001
1001
0000
0010
1000
,  // measure 93
1001
0000
0010
0001
1001
0000
0100
0010
,  // measure 94
0110
0000
0001
0100
0110
0000
1000
0010
,  // measure 95
0110
0000
0001
0010
0110
0000
1000
0001
,  // measure 96
0100
0100
0010
0010
1000
1000
0100
0100
,  // measure 97
0010
0010
0001
0001
1000
1000
0100
0100
,  // measure 98
1000
0010
0001
1000
0100
0001
1000
0100
,  // measure 99
0010
0001
1000
0001
1001
0000
0000
0000
,  // measure 100
1000
0001
0200
0010
,  // measure 101
0302
0000
0010
0000
1003
0100
0010
0001
,  // measure 102
2000
0010
0010
0001
,  // measure 103
3001
0000
1000
0100
0010
0000
0001
0100
,  // measure 104
0010
0000
1000
0100
0010
0001
0000
0001
,  // measure 105
0100
0010
1000
0001
0000
0000
0010
0000
,  // measure 106
0100
0000
1000
0010
0100
0001
0000
0010
,  // measure 107
0200
2300
3002
0023
,  // measure 108
0031
1000
0020
0100
,  // measure 109
2030
0000
0100
0000
3001
0010
0100
1000
,  // measure 110
0002
0100
0100
1000
,  // measure 111
1003
0000
0001
0010
0200
0000
2300
0000
,  // measure 112
3001
0000
0100
0010
1000
0001
0000
0001
,  // measure 113
0010
0100
1000
0001
0000
0000
0100
0000
,  // measure 114
0010
0000
1000
0100
0010
0100
1000
0001
,  // measure 115
0200
0001
0010
1000
,  // measure 116
0310
0000
1000
0001
0010
0000
0001
1000
,  // measure 117
0010
0000
0100
0001
0010
0100
1000
0001
,  // measure 118
0200
0001
0001
0010
,  // measure 119
0310
0000
0001
0010
0100
0000
0010
0001
,  // measure 120
0100
0000
0010
0010
1000
0001
0000
0010
,  // measure 121
0010
0100
1000
0001
0000
0000
0100
0000
,  // measure 122
0010
0000
1000
1000
0100
0010
0000
0001
,  // measure 123
0200
0010
0320
1000
2030
0001
3002
0100
,  // measure 124
0103
0000
0001
1000
0100
0000
1000
0001
,  // measure 125
0100
0000
0010
1000
0100
0010
0001
1000
,  // measure 126
0020
1000
1000
0100
,  // measure 127
0130
0000
1000
0100
0020
0000
0032
0000
,  // measure 128
1003
0000
0100
0100
0010
0001
0000
0100
,  // measure 129
0100
0010
1000
0001
0000
0000
0010
0000
,  // measure 130
0100
0000
0000
0000
1000
0010
1000
0000
0001
0000
1000
0000
0010
0000
0100
0000
,  // measure 131
0002
0010
0023
0100
0230
1000
2300
0001
,  // measure 132
3001
1000
0100
1000
,  // measure 133
0010
0000
0000
0000
0100
0000
0000
0000
0001
0000
0000
0000
0010
0000
0000
0100
,  // measure 134
1000
0010
0100
0001
,  // measure 135
0010
0000
0000
0000
0001
0000
0000
0000
0100
0000
0000
0000
0010
0000
0000
1000
,  // measure 136
0100
0010
0001
0100
,  // measure 137
0010
1000
0200
0320
,  // measure 138
0032
0000
0000
0000
,  // measure 139
0000
0000
0000
0000
,  // measure 140
0003
0000
0000
0000
;

//---------------dance-single - ----------------
#NOTEDATA:;
#CHARTNAME:;
#STEPSTYPE:dance-single;
#DESCRIPTION:;
#CHARTSTYLE:;
#DIFFICULTY:Beginner;
#METER:2;
#RADARVALUES:0.108113,0.190579,0.005524,0.044192,0.000000,137.000000,136.000000,1.000000,8.000000,0.000000,0.000000,0.000000,0.000000,0.000000,0.108113,0.190579,0.005524,0.044192,0.000000,137.000000,136.000000,1.000000,8.000000,0.000000,0.000000,0.000000,0.000000,0.000000;
#CREDIT:;
#DISPLAYBPM:190.000000;
#NOTES:
0000
0000
0000
0000
,
0000
0000
0000
0000
,
0000
0000
0000
0000
,
0000
0000
0000
0000
,
0000
0000
0000
0000
,
0000
0000
0000
0000
,
0000
0000
0000
0000
,
0000
0000
0000
0000
,
0000
0000
0000
0000
,
0000
0000
0000
0000
,
0000
0000
0000
0000
,
0000
0000
0000
0000
,
0000
0000
0000
0000
,
0000
0000
0000
0000
,
0000
0000
0000
0000
,
0000
0000
0000
0000
,
1000
0000
0000
0000
,
0100
0000
0000
0000
,
0001
0000
0000
0000
,
0100
0000
0000
0000
,
1000
0000
0000
0000
,
0010
0000
0000
0000
,
0001
0000
0000
0000
,
0010
0000
0000
0000
,
1000
0000
0000
0000
,
0001
0000
0000
0000
,
1000
0000
0000
0000
,
0001
0000
0000
0000
,
0100
0000
0000
0000
,
0100
0000
0000
0000
,
1000
0000
0000
0000
,
1000
0000
0000
0000
,
0001
0000
0000
0000
,
0001
0000
0000
0000
,
0010
0000
0000
0000
,
0010
0000
0000
0000
,
0001
0000
0001
0000
,
0001
0000
0000
0000
,
1000
0000
1000
0000
,
1000
0000
0000
0000
,
0010
0000
0010
0000
,
0010
0000
0000
0000
,
0100
0000
0100
0000
,
0100
0000
0000
0000
,
1000
0000
0000
0000
,
0001
0000
0000
0000
,
0200
0000
0000
0000
,
0300
0000
0000
0000
,
0010
0000
0000
0000
,
1000
0000
0000
0000
,
0010
0000
0000
0000
,
1000
0000
0000
0000
,
0001
0000
0000
0000
,
1000
0000
0000
0000
,
0020
0000
0000
0000
,
0030
0000
0000
0000
,
0100
0000
0000
0000
,
0001
0000
0000
0000
,
0100
0000
0000
0000
,
0001
0000
0000
0000
,
1000
0000
0000
0000
,
0001
0000
0000
0000
,
0200
0000
0000
0000
,
0300
0000
0000
0000
,
1000
0000
1000
0000
,
1000
0000
0000
0000
,
0001
0000
0000
0000
,
0100
0000
0100
0000
,
0100
0000
0000
0000
,
0010
0000
0000
0000
,
1000
0000
1000
0000
,
1000
0000
0000
0000
,
0001
0000
0001
0000
,
0100
0000
0100
0000
,
0002
0000
0000
0000
,
0003
0000
0000
0000
,
0010
0000
0010
0000
,
0010
0000
0000
0000
,
0001
0000
0000
0000
,
0100
0000
0100
0000
,
0100
0000
0000
0000
,
0010
0000
0000
0000
,
1000
0000
0000
0000
,
1001
0000
0000
0000
,
0010
0000
0000
0000
,
0010
0000
0000
0000
,
0001
0000
0000
0000
,
0001
0000
0000
0000
,
0100
0000
0000
0000
,
0100
0000
0000
0000
,
1000
0000
0000
0000
,
1000
0000
0000
0000
,
0010
0000
0010
0000
,
0010
0000
0000
0000
,
1000
0000
1000
0000
,
1000
0000
0000
0000
,
0001
0000
0001
0000
,
0001
0000
0000
0000
,
0100
0000
0100
0000
,
0100
0000
0000
0000
,
0001
0000
0000
0000
,
1000
0000
0000
0000
,
0020
0000
0000
0000
,
0030
0000
0000
0000
,
0100
0000
0000
0000
,
0001
0000
0000
0000
,
0100
0000
0000
0000
,
0001
0000
0000
0000
,
1000
0000
0000
0000
,
0001
0000
0000
0000
,
0200
0000
0000
0000
,
0300
0000
0000
0000
,
0010
0000
0000
0000
,
1000
0000
0000
0000
,
0010
0000
0010
0000
,
0010
0000
0000
0000
,
1000
0000
1000
0000
,
0001
0000
0001
0000
,
0200
0000
0000
0000
,
0300
0000
0000
0000
,
0010
0000
0010
0000
,
1000
0000
0000
0000
,
0100
0000
0100
0000
,
1000
0000
0000
0000
,
0001
0000
0001
0000
,
1000
0000
1000
0000
,
0020
0000
0000
0000
,
0030
0000
0000
0000
,
0100
0000
0100
0000
,
0001
0000
0000
0000
,
0010
0000
0010
0000
,
0010
0000
0000
0000
,
0001
0000
0000
0000
,
0000
0000
0000
0000
,
1000
0000
0000
0000
,
0000
0000
0000
0000
,
0100
0000
0000
0000
,
0000
0000
0000
0000
,
0010
0000
0000
0000
;

//---------------dance-single - ----------------
#NOTEDATA:;
#CHARTNAME:;
#STEPSTYPE:dance-single;
#DESCRIPTION:;
#CHARTSTYLE:;
#DIFFICULTY:Easy;
#METER:6;
#RADARVALUES:0.268310,0.381159,0.060764,0.116005,0.000000,340.000000,329.000000,11.000000,21.000000,0.000000,0.000000,0.000000,0.000000,0.000000,0.268310,0.381159,0.060764,0.116005,0.000000,340.000000,329.000000,11.000000,21.000000,0.000000,0.000000,0.000000,0.000000,0.000000;
#CREDIT:;
#DISPLAYBPM:190.000000;
#NOTES:
0000
0000
0000
0000
,
0000
0000
0000
0000
,
0000
0000
0000
0000
,
0000
0000
0000
0000
,
0000
0000
0000
0000
,
0000
0000
0000
0000
,
0000
0000
0000
0000
,
0000
0000
0000
0000
,
0000
0000
0000
0000
,
0000
0000
0000
0000
,
0000
0000
0000
0000
,
0000
0000
0000
0000
,
0000
0000
0000
0000
,
0000
0000
0000
0000
,
0000
0000
0000
0000
,
0000
0000
0000
0000
,
0010
0000
0010
0000
,
0100
0000
0100
0000
,
1000
0000
1000
0000
,
0001
0000
0001
0000
,
0010
0000
0010
0000
,
0001
0000
0001
0000
,
1000
0000
1000
0000
,
0100
0000
0100
0000
,
1000
0000
0010
0000
,
0100
0000
0001
0000
,
1000
0000
0100
0000
,
0010
0000
0001
0000
,
1000
1000
0000
0100
,
0100
0000
1000
0001
,
0010
0010
0000
0001
,
0001
0000
1000
0001
,
0100
0100
0000
0010
,
0010
0000
0100
0001
,
1000
1000
0000
0001
,
0001
0100
0010
1000
,
0001
0000
0001
0000
,
0100
0000
0100
0000
,
0010
0000
0010
0000
,
1000
0000
1000
0000
,
0001
0010
0100
1000
,
0001
0100
0010
1000
,
0100
0010
0001
1000
,
0010
0100
1001
0000
,
1000
0000
0001
0000
,
0100
0000
0010
1000
,
0200
0000
0000
0000
,
0300
0010
0001
1000
,
0010
1000
1000
0000
,
0001
0001
0000
0100
,
0000
0010
0010
0000
,
0100
0010
1000
0001
,
0100
0000
0010
0000
,
1000
0000
0100
0010
,
0002
0000
0000
0000
,
0003
0100
0010
1000
,
0100
1000
1000
0000
,
0010
0010
0000
0100
,
0000
0001
0001
0000
,
0010
0100
1000
0001
,
2000
0000
0000
3100
,
0020
0000
0000
0031
,
0200
0000
0000
0000
,
0300
0000
0000
0000
,
0001
0001
0010
0010
,
0100
1000
0010
1000
,
0200
0000
0000
1300
,
0100
0010
0001
1000
,
0020
0000
0000
0000
,
0030
0100
0001
0010
,
0002
0000
2003
0000
,
3020
0000
0130
0000
,
0001
0010
0100
1000
,
0001
0010
0100
1000
,
0002
0000
1000
0000
,
0100
0000
1003
0000
,
0100
0100
0010
0010
,
0001
0100
0001
0010
,
0200
0000
0000
1300
,
0010
0100
0001
1000
,
0020
0000
0000
0000
,
0030
1000
0001
0100
,
0010
1000
1000
0001
,
1001
0000
0000
0000
,
0001
0001
0000
0100
,
0100
0000
0001
1000
,
0010
0010
0000
1000
,
1000
0000
0001
1000
,
0100
0100
0000
0010
,
0010
0000
0100
1000
,
0001
0001
0000
1000
,
1000
0010
0100
0001
,
1001
0000
1001
0000
,
0110
0000
0110
0000
,
1001
0000
1001
0000
,
0110
0000
0110
0000
,
1000
1000
0100
0100
,
0010
0010
0001
0001
,
1000
0100
0010
0001
,
0100
0010
1001
0000
,
0001
0000
1000
0000
,
0010
0000
0100
0001
,
0020
0000
0100
0000
,
0130
1000
0010
0100
,
0001
1000
1000
0000
,
0010
0010
0000
1000
,
0000
0100
0100
0000
,
0010
0001
1000
0100
,
1000
0000
0001
0000
,
0100
0000
0010
1000
,
0200
0000
0010
0000
,
0310
0001
0100
0010
,
1000
0001
0001
0000
,
0100
0100
0000
0001
,
1000
0100
0010
0001
,
0020
0000
0000
0030
,
0001
0000
1000
0000
,
0010
0000
0100
0001
,
2000
0000
0001
0000
,
3001
0010
0010
0100
,
0100
1000
0100
0000
,
0001
0010
0000
0001
,
0000
1000
0010
0000
,
0100
0100
0001
0001
,
1000
0000
0001
0000
,
0010
0000
0100
1000
,
0002
0000
1000
0000
,
1003
0100
0100
0010
,
0010
0001
0010
0000
,
1000
0100
0000
1000
,
0000
0001
0010
0100
,
1000
1000
0010
0010
,
2000
0000
0001
0000
,
0100
0000
3001
0000
,
0020
0000
1000
0000
,
0100
0000
1030
0000
,
0200
0000
0001
0000
,
0310
0000
0100
0000
,
0010
0000
0000
0000
;

//---------------dance-single - ----------------
#NOTEDATA:;
#CHARTNAME:;
#STEPSTYPE:dance-single;
#DESCRIPTION:;
#CHARTSTYLE:;
#DIFFICULTY:Medium;
#METER:9;
#RADARVALUES:0.388261,0.541356,0.116005,0.281726,0.000000,492.000000,471.000000,21.000000,51.000000,0.000000,0.000000,0.000000,0.000000,0.000000,0.388261,0.541356,0.116005,0.281726,0.000000,492.000000,471.000000,21.000000,51.000000,0.000000,0.000000,0.000000,0.000000,0.000000;
#CREDIT:;
#DISPLAYBPM:190.000000;
#NOTES:
0000
0000
0000
0000
,
0000
0000
0000
0000
,
0000
0000
0000
0000
,
0000
0000
0000
0000
,
0000
0000
0000
0000
,
0000
0000
0000
0000
,
0000
0000
0000
0000
,
0000
0000
0000
0000
,
0000
0000
0000
0000
,
0000
0000
0000
0000
,
0000
0000
0000
0000
,
0000
0000
0000
0000
,
0000
0000
0000
0000
,
0000
0000
0000
0000
,
0000
0000
0000
0000
,
0000
0000
0000
0000
,
0001
0100
0001
0100
,
0010
1000
0010
1000
,
0100
1000
0100
1000
,
0001
0010
0001
0010
,
0100
1000
0001
0010
,
0100
1000
0100
1000
,
0010
0100
0001
1000
,
0010
0100
0010
0100
,
0001
0010
1000
0010
,
0001
0100
1000
0100
,
0001
0010
0100
1000
,
0001
0100
0010
1000
,
0001
0000
0010
0100
0000
0000
1000
0000
,
0010
0100
0000
0000
0001
0000
1000
0000
,
0001
0000
1000
0010
0000
0000
0100
0000
,
0001
0010
0000
0000
0100
1000
0001
0000
,
0100
0000
0010
1000
0000
0000
0100
0000
,
0010
0001
0000
0000
0100
0010
0100
0000
,
0010
0000
1000
0100
0000
0000
1000
0000
,
0001
1000
0010
0000
1000
0001
0010
0000
,
1001
0000
0110
0000
,
1001
0000
0110
0000
,
1010
0000
0101
0000
,
0011
0000
1100
0000
,
0001
0010
0100
1000
,
0001
0100
0010
1000
,
0001
0010
0100
0000
1000
0001
0100
0000
,
0010
1000
0001
0000
1001
0000
0000
0000
,
1000
0000
0002
0000
,
0203
0000
0000
0000
0310
0000
1000
0001
,
0200
0000
0010
0000
,
0310
1000
0001
1000
,
0100
0000
1000
0000
0001
0010
0000
0000
,
0001
0000
1000
0010
0000
0000
1000
0000
,
0001
0000
1000
0000
0001
0100
0000
0000
,
0002
2003
3020
0230
,
0301
0000
2000
0000
,
3020
0000
0000
0000
0130
0000
0001
1000
,
0020
0000
0100
0000
,
0130
0001
0010
0001
,
1000
0000
0010
0000
1000
0100
0000
0000
,
1000
0000
0001
0100
0000
0000
0001
0000
,
1000
0000
0100
0000
1000
0010
0000
0000
,
2000
3200
0320
0032
,
2003
0000
0000
3010
,
0200
0000
0000
0000
0000
0000
0301
0010
,
0200
0000
0000
0000
,
0300
1000
0000
0000
1001
0000
0000
0000
,
1000
1000
0100
0100
,
0010
0000
0001
0100
0001
0000
1000
0010
,
2000
0000
0000
3001
,
1000
0100
0010
0100
0010
0000
0001
0000
,
0200
0000
0000
0000
,
0300
0010
1000
0100
,
2000
0000
3020
0000
,
0230
0000
0301
1000
1001
0000
0000
0000
,
0001
1000
0100
0000
0010
0001
1000
0000
,
0100
1000
0010
0000
1000
0000
0001
0010
,
0200
0000
1000
0000
,
0001
0000
1300
0000
,
0001
0001
0100
0100
,
0010
0000
1000
0100
1000
0000
0001
0010
,
0002
0000
0000
1003
,
0001
0010
0100
0010
0100
0000
1000
0000
,
0020
0000
0000
0000
,
0030
0100
0001
0010
,
0001
0000
1000
0001
1000
0001
1000
0000
,
1001
0000
0000
0000
,
1000
0000
0100
0010
0000
0000
0001
0000
,
0100
0010
0000
0000
1000
0000
0001
0000
,
0010
0000
0100
1000
0000
0000
0010
0000
,
0100
0001
0000
0000
0010
0100
1000
0000
,
0010
0000
1000
0100
0000
0000
0010
0000
,
0001
0100
0000
0000
0010
1000
0010
0000
,
1000
0000
0001
0010
0000
0000
0001
0000
,
1000
0001
0100
0000
0001
1000
0100
0000
,
1001
0001
1001
1000
,
0110
0010
0110
0100
,
0011
0010
1100
0100
,
1010
1000
0101
0001
,
1000
1000
0100
0100
,
0010
0010
0001
0001
,
1000
0100
0000
0100
0000
0100
0010
0001
,
0010
0001
1000
0000
1001
0000
0000
0000
,
0001
0000
2000
0000
,
3200
0000
0000
0000
0310
0000
0001
1000
,
0020
0000
0100
0000
,
0130
0000
0001
0010
0001
0000
1000
0100
,
1000
0000
0001
0000
1000
0010
0000
0000
,
1000
0000
0001
0010
0000
0000
0001
0000
,
1000
0000
0001
0000
1000
0100
0000
0000
,
2000
3002
0203
0320
,
1030
0000
0002
0000
,
0023
0000
0000
0000
0130
0000
1000
0001
,
0200
0000
0010
0000
,
0310
0000
1000
0010
1000
0000
0001
0000
,
0010
0000
0001
0000
1000
0100
0000
0000
,
1000
0000
0001
0100
0000
0000
0001
0000
,
1000
0000
0010
0100
0000
0100
0001
0010
,
0200
0010
0010
0310
,
0001
1000
0020
1000
,
2030
0000
0100
0000
3100
0000
0010
0001
,
2000
0000
0001
0000
,
3001
0000
0100
0010
1000
0000
0100
0010
,
0001
0000
0100
0000
0010
0010
0000
0000
,
1000
0000
0100
0100
0000
0000
1000
0000
,
0001
0000
1000
0000
0010
0010
0000
0000
,
0200
0302
2003
3020
,
0130
0001
0200
0001
,
0302
0000
0010
0000
0013
0000
0100
1000
,
0002
0000
1000
0000
,
1003
0000
0100
0010
0001
0000
0100
0000
,
0010
0000
1000
0000
0100
0100
0000
0000
,
1000
0000
0010
0010
0000
0000
0100
0000
,
0001
0000
0010
0100
0010
0100
1000
0001
,
2000
3020
0230
0302
,
0013
0001
0100
0001
,
0010
0001
0100
0010
,
1000
0100
1000
0010
,
1000
0100
1000
0001
,
0100
0010
1000
0010
,
0100
0001
0010
0100
,
0020
0000
0000
0000
,
0000
0000
0000
0000
,
0030
0000
0000
0000
;

//---------------dance-double - forcednature----------------
#NOTEDATA:;
#CHARTNAME:forcednature;
#STEPSTYPE:dance-double;
#DESCRIPTION:forcednature;
#CHARTSTYLE:;
#DIFFICULTY:Easy;
#METER:6;
#RADARVALUES:0.261208,0.343043,0.038668,0.060764,0.000000,331.000000,324.000000,7.000000,11.000000,0.000000,0.000000,0.000000,0.000000,0.000000,0.261208,0.343043,0.038668,0.060764,0.000000,331.000000,324.000000,7.000000,11.000000,0.000000,0.000000,0.000000,0.000000,0.000000;
#CREDIT:forcednature;
#DISPLAYBPM:190.000000;
#NOTES:
00000000
00000000
00000000
00000000
,
00000000
00000000
00000000
00000000
,
00000000
00000000
00000000
00000000
,
00000000
00000000
00000000
00000000
,
00000000
00000000
00000000
00000000
,
00000000
00000000
00000000
00000000
,
00000000
00000000
00000000
00000000
,
00000000
00000000
00000000
00000000
,
00000000
00000000
00000000
00000000
,
00000000
00000000
00000000
00000000
,
00000000
00000000
00000000
00000000
,
00000000
00000000
00000000
00000000
,
00000000
00000000
00000000
00000000
,
00000000
00000000
00000000
00000000
,
00000000
00000000
00000000
00000000
,
00000000
00000000
00000000
00000000
,
00010000
00000000
00001000
00000000
,
01000000
00000000
00010000
00000000
,
10000000
00000000
01000000
00000000
,
00100000
00000000
00010000
00000000
,
01000000
00000000
00001000
00000000
,
00010000
00000000
00000100
00000000
,
00001000
00000000
00000001
00000000
,
00000100
00000000
00000010
00000000
,
00010000
00000000
00001000
00000000
,
00100000
00000000
00010000
00000000
,
10000000
00000000
00100000
00000000
,
01000000
00000000
00010000
00000000
,
00100000
00100000
00000000
00001000
,
00010000
00000000
00010000
00000000
,
00000010
00000010
00000000
00000100
,
00000001
00000000
00000001
00000000
,
00000010
00000010
00000000
00000100
,
00010000
00000000
00010000
00000000
,
00001000
00001000
00000000
01000000
,
00010000
00000000
00010000
00000000
,
10000000
10000000
00100000
01000000
,
00010000
00010000
00100000
01000000
,
10000000
10000000
00010000
01000000
,
00001000
00001000
00010000
00000100
,
00001000
00000001
00000100
00000010
,
00001000
00000001
00000100
00000010
,
00010000
00001000
01000000
00010000
,
00100000
00100000
01000000
00000000
,
00100000
00000000
10010000
00000000
,
01000000
00000000
00001000
00000000
,
00020000
00000000
00001000
00000000
,
00001000
00000000
00030100
00000000
,
00000000
00001000
00000100
00000000
,
00000010
00000001
00000000
00000100
,
00000000
00000010
00010000
00000000
,
00001000
01000000
00010000
10000000
,
00100000
00000000
10010000
00000000
,
01000000
00000000
00001000
00000000
,
00020000
00000000
00001000
00000000
,
00000100
00000000
00030010
00000000
,
00000000
00000010
00000100
00000000
,
00000001
00000010
00000000
00000100
,
00000000
00010000
00001000
00000000
,
01000000
00010000
10000000
01000000
,
00200000
00000000
00000000
01300000
,
20000000
00000000
00000000
30010000
,
02000000
00000000
00000000
00000000
,
03000000
00000000
00000000
00000000
,
01000000
00010000
00100000
00001000
,
00010000
00000000
00000010
00000000
,
00001000
00000001
00000010
00000100
,
00010000
00000000
00001000
00000000
,
01000000
00010000
10000000
01000000
,
00100000
00000000
00010000
00000000
,
01000000
00001000
00010000
00000010
,
00001000
00001000
00000010
00000000
,
00000100
00000001
00000100
00000010
,
00010000
00001000
00100000
00010000
,
00100000
01000000
10000000
00010000
,
01000000
00001000
00010000
00000100
,
00001000
00000001
00001000
00000010
,
00001000
00000100
00010000
00001000
,
00100000
01000000
10000000
00010000
,
01000000
00100000
01000000
00001000
,
00020000
00000000
01000000
00000000
,
00031000
00001000
00010000
00000100
,
00002000
00000000
00000010
00003000
,
00011000
00000000
00000000
00000000
,
00010000
00010000
00000000
01000000
,
01000000
00000000
00100000
00000000
,
10000000
10000000
00000000
01000000
,
01000000
00000000
00100000
00000000
,
00001000
00001000
00000000
00010000
,
00010000
00000000
00000010
00000000
,
00000100
00000100
00000000
00000001
,
00000001
00000000
00000010
00000000
,
00000100
00010000
00000100
00010000
,
00001000
00100000
00001000
00100000
,
00010000
01000000
00010000
01000000
,
00001000
00010000
00001000
00010000
,
00000010
00001000
00000001
00000010
,
00000100
00010000
00001000
01000000
,
00010000
10000000
01000000
00100000
,
00010000
00010000
01000000
00000000
,
00010000
00000000
10010000
00000000
,
10000000
00000000
00100000
00000000
,
02000000
00000000
00010000
00000000
,
00100000
00000000
03010000
00000000
,
00000000
01000000
00001000
00000000
,
00010000
00000100
00000000
00001000
,
00000000
00000001
00000100
00000000
,
00000010
00010000
00001000
01000000
,
00010000
00000000
10010000
00000000
,
00100000
00000000
00001000
00000000
,
00020000
00000000
00001000
00000000
,
00000100
00000000
00031000
00000000
,
00000000
00000001
00001000
00000000
,
00000001
00000010
00000000
00000100
,
00000000
00010000
00001000
00000000
,
01000000
00010000
10000000
01000000
,
00100000
00000000
10010000
00000000
,
01000000
00000000
00010000
00000000
,
00000200
00000000
00000010
00000000
,
00001000
00000000
00000310
00000000
,
00000000
00000010
00000001
00000000
,
00000100
00000010
00000000
00010000
,
00000000
00001000
01000000
00000000
,
00010000
01000000
00001000
00010000
,
00000100
00000000
00001001
00000000
,
00000010
00000000
00000001
00000000
,
00002000
00000000
00000100
00000000
,
00000010
00000000
00003100
00000000
,
00000000
00010000
00001000
00000000
,
01000000
00010000
00000000
10000000
,
00000000
01000000
00100000
00000000
,
00010000
01000000
00001000
00010000
,
00000010
00000000
00001000
00000000
,
00000010
00000000
00000100
00000000
,
00010000
00000000
00001000
00000000
,
01000000
00000000
00010000
00000000
,
00100000
00000000
01000000
00000000
,
10000000
00000000
00100000
00000000
,
00001000
00000000
00000000
00000000
;

//---------------dance-double - forcednature----------------
#NOTEDATA:;
#CHARTNAME:forcednature;
#STEPSTYPE:dance-double;
#DESCRIPTION:forcednature;
#CHARTSTYLE:;
#DIFFICULTY:Medium;
#METER:10;
#RADARVALUES:0.434032,0.580024,0.165721,0.187817,0.000000,550.000000,520.000000,30.000000,34.000000,0.000000,0.000000,0.000000,0.000000,0.000000,0.434032,0.580024,0.165721,0.187817,0.000000,550.000000,520.000000,30.000000,34.000000,0.000000,0.000000,0.000000,0.000000,0.000000;
#CREDIT:forcednature;
#DISPLAYBPM:190.000000;
#NOTES:
00000000
00000000
00000000
00000000
,
00000000
00000000
00000000
00000000
,
00000000
00000000
00000000
00000000
,
00000000
00000000
00000000
00000000
,
00000000
00000000
00000000
00000000
,
00000000
00000000
00000000
00000000
,
00000000
00000000
00000000
00000000
,
00000000
00000000
00000000
00000000
,
00000000
00000000
00000000
00000000
,
00000000
00000000
00000000
00000000
,
00000000
00000000
00000000
00000000
,
00000000
00000000
00000000
00000000
,
00000000
00000000
00000000
00000000
,
00000000
00000000
00000000
00000000
,
00000000
00000000
00000000
00000000
,
00000000
00000000
00000000
00000000
,
00010000
00001000
01000000
00010000
,
10000000
00100000
10000000
01000000
,
00100000
00001000
00010000
00000010
,
00001000
00000001
00000100
00000010
,
00000100
00000001
00000010
00000100
,
00010000
00001000
00100000
01000000
,
10000000
00010000
01000000
00001000
,
00010000
00000100
00001000
00000001
,
00000100
00000010
00001000
00000100
,
00010000
01000000
10000000
00010000
,
01000000
00100000
00010000
00001000
,
00000100
00000010
00001000
00000001
,
00001000
00000010
00001000
00000000
00000100
00000000
00000000
00000000
,
00010000
00001000
00010000
00000000
00001000
01000000
00001000
00000000
,
00100000
00010000
00100000
00000000
01000000
00000000
00000000
00000000
,
10000000
00100000
10000000
00000000
00010000
00100000
00010000
00000000
,
01000000
00001000
01000000
00000000
00001000
00000000
00000000
00000000
,
00010000
00000100
00010000
00000000
00000010
00001000
00000010
00000000
,
00000100
00000001
00000100
00000000
00000010
00000000
00000000
00000000
,
00001000
00000100
00001000
00000000
00000100
00010000
00000100
00000000
,
00010000
00001000
00010000
00000000
00000100
00000000
00000000
00000000
,
00010000
00001000
00010000
00000000
00001000
01000000
00010000
00000000
,
00100000
01000000
10000000
00000000
00010000
00000000
00000000
00000000
,
01000000
00100000
10000000
00000000
01000000
00100000
00010000
00000000
,
01000000
00001000
00010000
00000000
00000100
00000000
00001000
00000000
,
00000001
00000010
00000100
00000000
00001000
00000010
00000100
00000000
,
00000001
00001000
00000001
00000000
00001000
00000010
00010000
00000000
,
00001000
00010000
00001000
01000000
00001000
00000000
00000000
00000000
,
00110000
00000000
10010000
00000000
,
01010000
00000000
00000000
00000000
01000000
00001000
00010000
00000000
,
00000200
00000000
00000001
00000300
,
00000100
00010000
00001000
00000000
01000000
00001000
00100000
00000000
,
01000000
10000000
00010000
00000000
10000000
00100000
00000000
00000000
,
01000000
00010000
00100000
00000000
01000000
00000000
10000000
00000000
,
00010000
01000000
00001000
00000000
00010000
00000100
00000000
00000000
,
00002000
00003002
00000203
00000320
,
00001030
00000000
00001001
00000000
,
00001010
00000000
00000000
00000000
00001000
00000100
00010000
00000000
,
00002000
00000000
00000100
00003000
,
00001000
01000000
00010000
00000000
00100000
01000000
10000000
00000000
,
00100000
01000000
00010000
00000000
00100000
00001000
00000000
00000000
,
00010000
00000010
00001000
00000000
00000001
00000000
00000100
00000000
,
00000001
00000010
00000100
00000000
00001000
00000001
00000000
00000000
,
00002000
00000000
00000000
00000000
00003020
00000000
00000000
00000000
00020030
00000000
00000000
00000000
00032000
00000000
00000000
00003000
,
02001000
00000000
00000000
03010000
,
00200000
00000000
00000000
00000000
00000000
00000000
01300000
10000000
,
00020000
00000000
00000000
00000000
,
00030000
00010000
00000000
01000000
00001000
00000000
00000000
00000000
,
00011000
00000000
00010100
00000000
,
00001100
00000000
00001001
00000000
,
00000101
00000000
00000110
00000000
,
00000010
00010000
00000010
00000000
00100000
00001000
00100000
00000000
,
00110000
00000000
10010000
00000000
,
01010000
00000000
01001000
00000000
,
00001000
00010000
00000100
00000000
00001000
00000001
00000100
00000000
,
00000010
00001000
00000100
00000000
00011000
00000000
00000000
00000000
,
01000000
00010000
00100000
00000000
01000000
00000000
10000000
00000000
,
00100000
01000000
00010000
00000000
00100000
00000000
00001000
00000000
,
00010000
00000010
00001000
00000000
00000001
00000010
00000100
00000000
,
00001000
00000001
00000100
00000010
,
00010000
00000000
00001000
01000000
00010000
00000000
10000000
01000000
,
00100000
00000000
01000000
10000000
00010000
00000000
01000000
00000000
,
00001000
00000000
00010000
00000100
00000010
00000000
00000100
00001000
,
00000001
00000000
00001000
00000010
00000100
00000000
00000001
00000000
,
00001001
00000000
00001010
00000000
,
00001000
00000100
00010000
00000000
00001000
01000000
00010000
00000000
,
00110000
00000000
00100000
01000000
10000000
01000000
00100000
00000000
,
10010000
00000000
00000000
00000000
,
10000000
00010000
01000000
00000000
00001000
00000000
00000000
00000000
,
00010000
00000100
00001000
00000000
00000001
00001000
00000010
00000000
,
00000100
00000001
00000010
00000000
00000100
00000000
00000000
00000000
,
00010000
00001000
01000000
00000000
00010000
00100000
01000000
00000000
,
10000000
00010000
01000000
00000000
00001000
00000000
00000000
00000000
,
00010000
00000100
00001000
00000000
00000001
00000010
00000100
00000000
,
00001000
00000010
00000100
00000000
00000001
00000000
00000000
00000000
,
00001000
00000100
00010000
00000000
00001000
01000000
00010000
00000000
,
00100000
01000000
10000000
00010000
,
01000000
00001000
00010000
00000100
,
00000010
00000001
00001000
00000010
,
00010000
00001000
00100000
00010000
,
10000000
00100000
10000000
00000000
00010000
01000000
00010000
00000000
,
00100000
00001000
00100000
00000000
00001000
00010000
00001000
00000000
,
00010000
00000010
00001000
00000001
,
00001000
00000100
00000010
00000001
00001000
00000000
00000000
00000000
,
00000110
00000000
00001100
00000000
,
00010100
00000000
00000000
00000000
00010000
00001000
01000000
00000000
,
00020000
00000000
00100000
00030000
,
00010000
00000000
00100000
00010000
10000000
00000000
00100000
01000000
,
00010000
00000000
00100000
00000000
00001000
00010000
00000000
00000000
,
00000100
00001000
00000010
00000000
00000100
00000001
00000010
00000000
,
00000100
00001000
00000001
00000000
00001000
00000010
00000000
00000000
,
00020000
00032000
02003000
03020000
,
00130000
00000000
01100000
00000000
,
10010000
00000000
00000000
00000000
10000000
01000000
00100000
00000000
,
00020000
00000000
01000000
00030000
,
00010000
00000000
00100000
00001000
00010000
00000000
00000010
00001000
,
00000001
00000000
00000100
00000000
00000010
00001000
00000000
00000000
,
00000100
00000000
00010000
00001000
01000000
00000000
00010000
00000000
,
00100000
00000000
01000000
00000000
10000000
00010000
00000000
00000000
,
02000000
03020000
00032000
00003020
,
00001030
00000000
00001010
00000000
,
01010000
00000000
00000000
00000000
10000000
00010000
01000000
00010000
,
02000000
00000000
00001000
03000000
,
00001000
00000000
00010000
00000100
00001000
00000000
00000001
00000000
,
00001000
00000000
00000010
00000000
00000100
00000001
00000000
00000010
,
00000100
00000000
00001000
00000001
00000000
00001000
00000010
00001000
,
00000000
00000000
00000100
00000000
00010000
00001000
00000000
00000000
,
02000000
03020000
00230000
02300000
,
13000000
00000000
11000000
00000000
,
10010000
00000000
00000000
00000000
10000000
00100000
01000000
00001000
,
00020000
00000000
00001000
00030000
,
00001000
00000000
00010000
00000100
00001000
00000000
00000001
00000100
,
00000010
00000000
00001000
00000100
00000010
00000001
00000000
00000000
,
00000100
00000010
00001000
00000100
00000000
00000000
00010000
00000000
,
00001000
00000000
01000000
00010000
00100000
01000000
00000000
00000000
,
20000000
30020000
02030000
03002000
,
00013000
00000100
00001000
00000010
,
00010000
00000100
00000010
00000001
,
00000100
00000010
00010000
00001000
,
00100000
01000000
10000000
00010000
,
01000000
00001000
00010000
00001000
,
00100000
00010000
10000000
00100000
,
02000000
00000000
00000000
00000000
,
00000000
00000000
00000000
00000000
,
03000000
00000000
00000000
00000000
;

//---------------dance-double - forcednature----------------
#NOTEDATA:;
#CHARTNAME:forcednature;
#STEPSTYPE:dance-double;
#DESCRIPTION:forcednature;
#CHARTSTYLE:;
#DIFFICULTY:Hard;
#METER:13;
#RADARVALUES:0.557139,0.696029,0.093909,0.403255,0.011048,706.000000,689.000000,17.000000,73.000000,0.000000,0.000000,0.000000,0.000000,0.000000,0.557139,0.696029,0.093909,0.403255,0.011048,706.000000,689.000000,17.000000,73.000000,0.000000,0.000000,0.000000,0.000000,0.000000;
#CREDIT:forcednature;
#DISPLAYBPM:190.000000;
#NOTES:
00000000
00000000
00000000
00000000
,
00000000
00000000
00000000
00000000
,
00000000
00000000
00000000
00000000
,
00000000
00000000
00000000
00000000
,
00000000
00000000
00000000
00000000
,
00000000
00000000
00000000
00000000
,
00000000
00000000
00000000
00000000
,
00000000
00000000
00000000
00000000
,
00000000
00000000
00000000
00000000
,
00000000
00000000
00000000
00000000
,
00000000
00000000
00000000
00000000
,
00000000
00000000
00000000
00000000
,
00000000
00000000
00000000
00000000
,
00000000
00000000
00000000
00000000
,
00000000
00000000
00000000
00000000
,
00000000
00000000
00000000
00000000
,
00010000
00001000
00010000
01000000
10000000
00010000
01000000
00100000
,
10000000
01000000
00100000
00010000
01000000
00001000
00010000
00000100
,
00001000
00000100
00000001
00000100
00001000
00000010
00000100
00000001
,
00000010
00000100
00001000
00000010
00010000
00001000
01000000
00100000
,
00010000
00100000
10000000
01000000
00100000
00010000
01000000
00001000
,
00010000
01000000
00010000
00001000
00000010
00000001
00000100
00000010
,
00001000
00000001
00000100
00001000
00010000
00100000
10000000
01000000
,
00010000
01000000
10000000
00100000
00010000
00100000
01000000
00001000
,
00010000
00000100
00000010
00001000
00000010
00000001
00000100
00000010
,
00010000
00001000
00010000
00100000
10000000
00010000
01000000
00100000
,
10000000
01000000
00010000
01000000
00100000
00010000
01000000
00001000
,
00010000
00000100
00000010
00000100
00010000
00001000
01000000
00100000
,
00010000
00100000
00010000
00100000
00000000
00000000
10000000
00100000
,
10000000
00100000
00000000
00010000
00001000
00010000
00002000
00000000
,
00003010
00000001
00000010
00000001
00000000
00000000
00001000
00000100
,
00001000
00000100
00000000
00010000
01000000
10000000
00010000
01000000
,
00100000
00010000
00100000
00010000
00000000
00000000
00001000
00000100
,
00001000
00000100
00000000
00000001
00000010
00001000
00000010
00000100
,
00010000
00001000
00010000
00001000
00000000
00000000
00100000
10000000
,
00100000
00010000
00001000
00000100
00010000
00000010
00000100
00001000
,
00001100
00010000
00001010
00010000
,
00001100
00010000
00001010
00010000
,
00110000
00001000
01010000
00001000
,
00110000
00001000
01010000
00001000
,
00010000
00001000
01000000
00010000
10000000
01000000
00100000
00010000
,
01000000
00001000
00010000
00000100
00001000
00000010
00000100
00000001
,
00001000
00001000
00000100
00010000
01000000
01000000
00100000
00010000
,
10000000
10000000
00100000
00010000
00011000
00000000
00000000
00000000
,
01010000
00000000
00002000
00000000
,
00003200
00000000
00000000
00000000
00000301
00000010
00001000
00010000
,
00200000
00000000
00000000
00000000
00000000
00000000
00000000
00000000
00001000
00000000
00000000
00000000
00000000
00000000
00000000
00300000
,
00200000
00000000
10300000
01000000
00200000
00000000
00310000
01000000
,
00100000
00000000
10000000
01000000
00010000
00001000
00000000
00100000
,
00010000
00001000
00000100
00000001
00000000
00000000
00000100
00000000
,
00000000
00000000
00010000
00001000
00010000
00100000
00000000
00000000
,
02000000
00000000
00000000
00000000
03020000
00000000
00000000
00000000
00030200
00000000
00000000
00000000
00000320
00000000
00000000
00000030
,
00001010
00000000
00200000
00000000
,
20300000
00000000
00000000
00000000
30100000
00010000
01000000
00100000
,
00002000
00000000
00000010
00000000
,
00003002
00000000
00000103
00001000
00020000
00000000
01030000
10000000
,
00100000
00000000
01000000
00010000
00100000
01000000
00000000
00100000
,
00001000
00010000
00000100
00010000
00000000
00000000
01000000
00000000
,
10000000
00000000
00100000
00010000
00001000
00000010
00000000
00000000
,
00000002
00002003
00003200
00020300
,
02030000
00000000
00000000
03200000
,
00302000
00000000
00000000
00000000
00000000
00000000
00013000
00000010
,
00000200
00000000
00000000
00000000
,
00000300
00001000
00000000
00100000
00101000
00000000
00000000
00000000
,
01000000
01000000
00001000
00001000
00010000
00010000
00000100
00000100
,
00020000
00000000
00000010
00001000
00032000
00000000
00100000
00010000
,
00023000
00000000
00000000
00030010
,
00010000
00001000
00000100
00000001
00000010
00001000
00010000
01000000
,
20000000
00000000
00001000
00000000
,
30020000
02030000
03002000
00003200
,
00000302
00000000
00000000
00000000
00002003
00000000
00003001
00000010
,
00001000
00010000
00100000
10000000
10010000
00000000
00000000
00000000
,
10000000
00010000
01000000
00001000
10000000
00010000
01000000
00001000
,
00100000
00010000
01000000
00010000
00200000
00000000
00301000
00010000
,
00000020
00000001
00000001
00001000
,
00001000
00000001
00000031
00000010
,
00001000
00001000
00010000
00010000
01000000
01000000
10000000
10000000
,
02000000
00000000
03010000
00100000
00002000
00000000
00003010
00000001
,
00000200
00000000
00001000
00000000
00000001
00000000
00001000
00000300
,
00000100
00001000
00010000
00100000
10000000
01000000
00010000
01000000
,
00200000
10000000
10000000
00010000
,
00010000
00300000
00200000
00000000
00302000
00000000
00023000
00000000
,
00030020
00000000
00000000
00000000
00000130
00000001
00000100
00000000
00000010
00000000
00001000
00000000
00000100
00000000
00010000
00000000
,
00011000
00000000
00000000
00000000
,
00100000
00010000
00100000
00010000
00000000
00000000
00001000
00000010
,
00001000
00000010
00000000
00000001
00000100
00000001
00002000
00000000
,
00003100
00010000
00000100
00010000
00000000
00000000
00001000
01000000
,
00001000
01000000
00000000
00100000
00010000
00001000
00000010
00000001
,
00001000
00000100
00001000
00000100
00000000
00000000
00010000
01000000
,
00010000
01000000
00000000
10000000
00010000
01000000
00100000
00010000
,
00001000
00000010
00001000
00000010
00000000
00000000
00001000
00100000
,
01000000
00010000
10000000
00100000
00010000
01000000
10000000
00010000
,
00100000
00010000
00001000
01000000
00010000
00001000
00100000
00010000
,
00001000
00010000
00000100
00000010
00001000
00010000
00100000
10000000
,
01000000
00010000
00001000
00100000
00010000
00001000
00010000
00001000
,
00000100
00001000
00000010
00000001
00001000
00000100
00000001
00000010
,
00001000
00001000
00010000
00010000
01000000
01000000
10000000
10000000
,
00010000
00010000
01000000
01000000
00100000
00100000
10000000
10000000
,
00010000
01000000
00100000
00010000
10000000
01000000
00100000
10000000
,
00100000
00010000
00001000
00000010
00000011
00000000
00000000
00000000
,
00001100
00000000
00020000
00000000
,
02030000
00000000
00000000
00000000
13000000
01000000
00010000
00001000
,
00200000
00000000
00000000
00000000
00000000
00000000
00000000
00000000
10000000
00000000
00000000
00000000
00000000
00000000
00000000
00300000
,
00200000
00000000
00310000
00000010
00000200
00000000
00010300
00001000
,
01000000
00000000
00100000
10000000
01000000
00100000
00000000
00001000
,
00010000
00000010
00000100
00001000
00000000
00000000
00010000
00000000
,
00000000
00000000
01000000
10000000
01000000
00010000
00000000
00000000
,
00002000
00000000
00000000
00000000
00023000
00000000
00000000
00000000
00230000
00000000
00000000
00000000
20300000
00000000
00000000
30000000
,
11000000
00000000
00002000
00000000
,
02003000
00000000
00000000
00000000
03100000
00010000
00001000
00000010
,
00000002
00000000
00000010
00000000
,
00002003
00000000
00003100
00010000
02000000
00000000
13000000
00100000
,
00010000
00000000
00001000
00000100
00000001
00001000
00000000
00000100
,
00010000
00001000
00100000
00010000
00000000
00000000
01000000
00000000
,
10000000
00000000
01000000
00010000
00001000
00010000
00000000
00000000
,
00000002
00020003
00032000
20003000
,
30100000
00000000
10000000
01000000
00100000
00000000
00001000
00010000
,
00000100
00000000
00000010
00001000
00010000
00100000
10000000
00010000
,
01000000
00000000
00100000
00010000
00001000
00000000
00010000
00001000
,
00000010
00000000
00000001
00000100
00001000
00010000
01000000
10000000
,
00010000
00000000
10000000
01000000
00010000
00001000
00000000
00000010
,
00001000
00010000
00100000
00010000
00000000
00000000
00001000
00000000
,
00000100
00000000
00000001
00000010
00000100
00010000
00000000
00001000
,
02000000
00000000
00100000
03000000
02000000
00000000
10000000
03000000
02000000
00000000
00010000
03000000
02000000
00000000
00100000
03000000
,
01000000
00000000
00100000
10000000
00100000
00000000
01000000
00001000
,
00010000
00000000
00000010
00001000
00000100
00010000
01000000
10000000
,
00010000
00000000
01000000
00100000
00010000
00000000
00001000
00000100
,
00000001
00000000
00000010
00000100
00010000
00001000
00100000
00010000
,
00001000
00000000
00000100
00000001
00001000
00000010
00000000
00000001
,
00000100
00001000
00010000
00100000
00000000
00000000
10000000
00000000
,
00010000
00000000
00000000
00000000
10000000
00100000
10000000
00000000
00010000
00000000
00100000
00000000
00001000
00000000
00010000
00000000
,
00002000
00000000
00000100
00003000
00002000
00000000
00010000
00003000
00002000
00000000
00000010
00003000
00002000
00000000
00010000
00003000
,
00001000
00100000
00010000
10000000
,
00001000
00000000
00000000
00000000
00010000
00000000
00000000
00000000
00000100
00000000
00000000
00000000
00000010
00000000
00000000
00001000
,
00010000
00100000
10000000
00010000
,
00001000
00000000
00000000
00000000
00000001
00000000
00000000
00000000
00000100
00000000
00000000
00000000
00000001
00000000
00000000
00000010
,
00001000
00010000
00100000
10000000
,
01000000
00100000
00002000
00003200
,
00000302
00000000
00000000
00000000
,
00000000
00000000
00000000
00000000
,
00000003
00000000
00000000
00000000
;
