#TITLE:Yakety Sax;
#SUBTITLE:(Benny Hill Theme);
#ARTIST:James Q. Rich feat. Boots Randolph;
#TITLETRANSLIT:;
#SUBTITLETRANSLIT:;
#ARTISTTRANSLIT:;
#GENRE:;
#CREDIT:Scott "Suko" Philipp;
#BANNER:yakety-bn.png;
#BACKGROUND:yakety-bg.png;
#LYRICSPATH:;
#CDTITLE:;
#MUSIC:YaketySax.mp3;
#OFFSET:-0.320;
#SAMPLESTART:50.500;
#SAMPLELENGTH:16.000;
#SELECTABLE:YES;
#DISPLAYBPM:123.000;
#BPMS:0.000=122.170,37.500=123.000,52.000=123.110,68.500=122.030,84.000=123.000,99.000=123.711,102.000=123.772,106.000=123.500,123.000=122.000,129.500=123.500,154.000=124.000,160.000=122.871;
#STOPS:37.500=0.780
,68.500=0.780
,99.000=0.800
,129.500=0.750
,160.000=0.810
;
#BGCHANGES:;
#KEYSOUNDS:;

//---------------dance-single - S.Philipp----------------
#NOTES:
     dance-single:
     S.Philipp:
     Hard:
     9:
     0.713,0.610,0.226,0.062,0.789:
0000
0000
0000
0000
,
0000
0000
0000
0000
,
1000
0000
0100
0000
1000
0100
0010
0000
0001
0100
0001
0100
0001
0100
0001
0000
,
1000
0000
1000
0010
0000
0010
0100
0001
1000
0000
0000
0000
0000
0000
1000
0100
,
1000
0000
0100
0000
1000
0100
0010
0001
1000
0100
0010
0001
1000
0100
0010
0000
,
0001
0000
0001
1000
0000
1000
0010
0000
1010
0000
0000
0000
0000
1000
0100
1000
,
0010
0000
0010
0000
0100
0000
0100
0000
0001
0000
0001
0000
1000
0100
0010
0000
,
0001
0000
1000
0001
0000
0001
1000
0010
0100
0000
0001
0100
0001
0100
0000
0000
,
0001
1000
0001
1000
0001
1000
0000
0000
1000
0100
0010
0001
0000
0000
0000
0000
,
0001
0010
0000
0100
1000
0000
1100
0000
0000
0000
1000
0000
0100
0000
0010
0001
,
0010
0100
1000
0100
0010
0001
0010
0100
1000
0000
0100
0000
1000
0100
0000
1000
,
0100
1000
0100
0000
0000
0000
0000
0000
0010
0001
0010
0000
0001
0000
1000
0001
,
1000
0000
0010
0100
0010
0100
0010
0100
0010
0000
1000
0000
1000
0001
0000
0001
,
1000
0000
1001
0000
0000
0000
0000
0000
1000
0100
0010
0000
0010
0000
0001
0000
,
0001
0000
0100
0000
0100
0000
0010
1000
0010
0000
0100
0000
0001
0000
1000
0000
,
0001
0000
1000
0000
0001
0010
0100
1000
0000
0000
1000
0100
0010
0001
1000
0001
,
0000
0000
1000
0100
0010
0001
0000
0000
0000
0000
1000
0001
0000
0001
1000
0000
,
2002
0000
3003
0000
1000
0000
0100
0000
1000
0100
1000
0100
1000
0000
0100
0000
,
1000
0000
0100
0000
0010
0000
0001
0000
0010
0001
0010
0001
0010
0000
0001
0000
,
0010
0000
0001
0000
1000
0000
0001
1000
0000
1000
0010
1000
0010
0000
1000
0000
,
0100
0010
0100
0010
0100
0000
0100
1000
0010
0100
0001
0000
0100
0000
0000
0000
,
0000
0000
0010
1001
0100
1001
0010
1001
,
1000
0100
0010
0001
0100
0000
1001
0000
0010
0000
1001
0000
0100
0000
1001
0000
,
0001
0010
0100
1000
0100
0000
0100
0010
0000
0010
0001
0000
0100
0000
0100
0010
,
0000
0010
1000
0000
0100
0000
1000
0000
1000
0100
0010
0000
0011
0000
0001
0000
,
0100
0000
0010
1000
0010
1000
0100
0010
0001
1000
0100
0010
0001
0000
0010
0000
,
0100
1000
0000
1000
0100
1000
0100
0000
0000
0000
0000
0000
0001
0010
0001
0000
,
1000
0000
0001
1000
0001
0000
1000
0100
1000
0100
1000
0100
0010
0000
0001
0000
,
0001
0010
0000
0010
0100
0000
1100
0000
0000
0000
0000
0100
1000
0100
0010
0000
,
0010
0000
0001
0000
0001
0000
0100
0000
0100
0000
0010
1000
0010
1000
0010
0000
,
1000
0000
0001
0000
1000
0000
0001
0000
1000
0100
0010
0001
0000
0000
1000
0100
,
1000
0100
1000
0100
0000
0000
0010
0001
0010
0001
0000
0000
0000
0000
0010
0100
,
0000
0100
1000
0000
2200
0000
3300
0000
0001
0000
1000
0000
0001
0100
0001
0000
,
1000
0010
0100
0001
1000
0100
0010
0000
0001
0000
0010
0100
0000
1000
0100
0010
,
0001
0000
0000
0000
0000
0000
0010
0001
0010
0000
0100
0000
1000
0100
0010
0001
,
1000
0100
0010
0001
0100
0001
1000
0000
0010
0000
0100
0001
0100
0001
0100
0000
,
0001
0000
0000
0000
0000
1000
0100
1000
0010
0000
0010
0000
0100
0000
0100
0000
,
0001
0000
0001
0000
1000
0100
0010
0000
0001
0000
0001
1000
0000
1000
0001
0010
,
0001
0000
1000
0010
1000
0010
0000
0000
1000
0010
1000
0010
1000
0100
0000
0000
,
0010
0001
1000
0001
0000
0000
0000
0000
1000
0001
0000
0001
0100
0000
0202
0000
,
0303
0000
1000
0000
0100
0000
0010
0001
0010
0001
0010
0000
0100
0000
1000
0000
,
0001
0000
0100
0000
0010
0000
0100
0010
0100
0010
0100
0000
0010
0000
1000
0000
,
0001
0000
1000
0000
0100
0010
0000
0010
0001
0010
0001
0000
0010
0000
0100
1000
,
0100
1000
0100
0000
1000
0001
1000
0001
1000
0000
1001
0000
0000
0000
0000
0000
,
0000
0000
0010
0000
1001
0000
0100
0000
1001
0000
0010
0000
1001
0000
1000
0100
,
0010
0001
0100
0000
1001
0000
0010
0000
1001
0000
0100
0000
1001
0000
0001
0010
,
0100
1000
0100
0000
0100
1000
0000
1000
0100
0000
0010
0000
0010
0001
0000
0001
,
0010
0000
0100
0000
1000
0000
0001
0010
0100
0000
1100
0000
0000
0000
0000
0000
;

//---------------dance-single - S.Philipp----------------
#NOTES:
     dance-single:
     S.Philipp:
     Medium:
     6:
     0.507,0.441,0.041,0.082,0.000:
0000
0000
0000
0000
,
0000
0000
0000
0000
,
1000
0100
1000
0010
0100
0001
1000
0001
,
0010
0100
0010
0010
0001
0000
0000
1000
,
0100
0100
1000
0010
0001
0010
1000
0010
,
0100
0001
1000
0010
0010
0000
0000
0100
,
0010
0010
0100
0100
0001
0001
1000
0010
,
1000
0001
1000
0001
0010
0001
0001
0000
,
0001
1000
0001
0000
1000
1000
0001
0000
,
0001
0010
0100
0100
0000
1000
0100
0010
,
0001
0100
0010
0001
0010
1000
0001
0100
,
0010
0100
0000
0000
1000
0001
0001
1000
,
0001
0010
0100
0010
0100
1000
1000
0001
,
0001
0001
0000
0000
1000
0001
0001
0010
,
0010
0100
0100
0010
0010
0100
1000
0010
,
0001
1000
0001
0010
0100
1000
0100
0010
,
0001
1000
0001
1000
0000
1000
0001
1000
,
2002
3003
1000
0100
1000
0100
0100
0100
,
1000
0100
0010
0001
0010
0001
0001
0001
,
0010
0001
1000
0001
1000
0010
0010
1000
,
0100
0010
0010
0100
0010
0001
0100
0000
,
0000
0000
0010
1000
0100
0010
0001
0100
,
0010
1000
0001
1000
0010
1000
0001
1000
,
0001
0010
0100
0100
0010
0001
0100
0100
,
0010
0010
0100
0010
0010
1000
0001
0001
,
0100
0010
0010
0100
0001
0100
0001
0010
,
0100
1000
0100
0100
0000
0000
0010
0001
,
1000
0001
0001
1000
0100
0100
0010
0001
,
0001
0010
0010
0100
0000
0000
0100
0010
,
0010
0001
0001
0100
0100
0010
0010
0010
,
1000
0001
1000
0001
1000
0010
0100
0001
,
0100
0100
0100
0010
1000
0001
0000
0010
,
0100
0100
2200
3300
0001
1000
0001
0001
,
1000
0010
0001
0010
0001
0010
1000
0100
,
0001
0000
0000
0010
0001
0010
0100
1000
,
0001
0010
0001
0001
0010
0100
1000
0001
,
1000
0000
0000
0100
0010
0010
0100
0100
,
0001
0001
1000
0010
1000
0001
1000
0001
,
0001
1000
0010
0010
1000
0010
0010
0100
,
0010
0100
0100
0000
0001
1000
0001
0202
,
0303
1000
0100
0010
0001
0001
0100
1000
,
0100
0001
0010
0100
0010
0010
0100
1000
,
0001
1000
0100
0010
0001
0001
0010
0100
,
0100
0100
1000
0001
0001
0001
0000
0000
,
0000
0010
0001
0100
0001
0010
0001
1000
,
0010
0100
0001
0010
0001
0100
0001
0001
,
0010
0100
0100
1000
0100
0010
0010
0001
,
0001
0100
0010
1000
0010
0220
0330
0000
;

//---------------dance-single - S.Philipp----------------
#NOTES:
     dance-single:
     S.Philipp:
     Easy:
     3:
     0.255,0.268,0.021,0.041,0.000:
0000
0000
0000
0000
,
0000
0000
0000
0000
,
1000
1000
0100
1000
,
0010
0010
0001
0000
,
0100
1000
0001
1000
,
0100
1000
0010
0000
,
0010
0100
0001
1000
,
1000
1000
0010
0001
,
0001
0001
1000
0001
,
0001
0100
0000
0100
,
0001
0010
0010
0001
,
0010
0000
1000
0001
,
0001
0100
0100
1000
,
0001
0000
1000
0001
,
0010
0100
0010
1000
,
0001
0001
0100
0100
,
0001
0001
0000
0001
,
2002
3003
1000
0000
1000
0000
0100
0000
,
1000
0010
0010
0001
,
0010
1000
1000
0010
,
0100
0010
0010
0100
,
0000
0010
0100
0001
,
0010
0001
0010
0001
,
0001
0100
0010
0100
,
0010
0100
0010
0001
,
0100
0010
0001
0001
,
0100
0100
0000
0010
,
1000
0001
0100
0010
,
0001
0010
0000
0100
,
0010
0001
0100
0010
,
1000
1000
1000
0100
,
0100
0100
1000
0000
,
0100
0000
2200
3300
0001
0000
0001
0000
,
1000
0001
0001
1000
,
0001
0000
0001
0100
,
0001
0001
0010
1000
,
1000
0000
0010
0100
,
0001
1000
1000
1000
,
0001
0010
1000
0010
,
0010
0100
0001
0001
,
0000
0100
0001
0100
,
0100
0010
0010
0100
,
0001
0100
0001
0010
,
0100
1000
0001
0000
,
0000
0001
0001
0001
,
0010
0001
0001
0001
,
0010
0100
0100
0010
,
0001
0010
0010
0000
;

//---------------dance-single - S. Philipp----------------
#NOTES:
     dance-single:
     S. Philipp:
     Beginner:
     1:
     0.179,0.146,0.000,0.000,0.000:
0000
0000
0000
0000
,
0000
0000
0000
0000
,
1000
0000
0100
1000
,
0000
0010
0001
0000
,
0100
1000
0000
1000
,
0100
1000
0000
0000
,
0010
0100
0001
0000
,
0000
1000
0010
0001
,
0000
0000
1000
0001
,
0000
0100
0000
0100
,
0001
0000
0010
0001
,
0010
0000
1000
0001
,
0000
0000
0100
1000
,
0001
0000
1000
0001
,
0000
0000
0010
1000
,
0001
0000
0000
0100
,
0000
0001
0000
0000
,
0001
0000
1000
0100
,
1000
0000
0010
0001
,
0010
0000
1000
0010
,
0100
0000
0010
0100
,
0000
0010
0100
0001
,
0010
0001
0010
0000
,
0000
0100
0010
0100
,
0010
0100
0010
0000
,
0100
0010
0001
0000
,
0100
0100
0000
0010
,
1000
0000
0100
0010
,
0000
0010
0000
0100
,
0010
0001
0000
0010
,
1000
0000
1000
0100
,
0000
0100
1000
0000
,
0100
0100
0000
0000
,
1000
0001
0001
1000
,
0000
0000
1000
0100
,
0000
0001
0010
0000
,
1000
0000
0010
0100
,
0001
0000
1000
1000
,
0001
0010
1000
0000
,
0010
0100
0001
0000
,
0000
0100
0001
0100
,
0000
0010
0000
0000
,
0001
0100
0001
0000
,
0100
1000
0001
0000
,
0000
0000
1000
0001
,
0010
0000
1000
0001
,
0010
0100
0000
0010
,
0001
0010
0100
0000
;
