#TITLE:When Can I See You Again;
#SUBTITLE:from Wreck it Ralph;
#ARTIST:Owl City;
#TITLETRANSLIT:;
#SUBTITLETRANSLIT:;
#ARTISTTRANSLIT:;
#GENRE:;
#CREDIT:Scott "Suko" Philipp;
#BANNER:when-can-i-see-bn.png;
#BACKGROUND:when-can-i-see-bg.png;
#LYRICSPATH:;
#CDTITLE:suko 9x1.png;
#MUSIC:When Can I See You Again_edit.mp3;
#OFFSET:-0.535;
#SAMPLESTART:109.515;
#SAMPLELENGTH:19.000;
#SELECTABLE:YES;
#DISPLAYBPM:128.000;
#BPMS:0.000=128.000,112.500=256.000,115.500=128.000,159.500=256.000,163.500=128.000,248.500=256.000,251.500=128.000,295.500=256.000,299.500=128.000;
#STOPS:112.500=0.117
,113.000=0.117
,113.500=0.117
,114.000=0.117
,114.500=0.117
,115.000=0.117
,159.500=0.175
,160.250=0.175
,161.000=0.117
,161.500=0.175
,162.250=0.175
,163.000=0.117
,248.500=0.117
,249.000=0.117
,249.500=0.117
,250.000=0.117
,250.500=0.117
,251.000=0.117
,295.500=0.170
,296.250=0.170
,297.000=0.117
,297.500=0.170
,298.250=0.170
,299.000=0.117
;
#BGCHANGES:9.000=Wreck It Ralph ending credits.avi=1.000=1=0=0=StretchNoLoop==CrossFade==,
99999=-nosongbg-=1.000=0=0=0 // don't automatically add -songbackground-
;
#KEYSOUNDS:;

//---------------dance-single - S. Philipp----------------
#NOTES:
     dance-single:
     S. Philipp:
     Challenge:
     9:
     0.441,0.504,0.141,0.417,0.108:
0000
0000
0000
0000
,
0000
0000
0000
0000
,
0000
0000
0000
0000
,
0000
0000
0000
0000
,
0000
0000
0000
0000
,
0000
0000
0000
0000
,
0000
0000
0000
0000
,
0000
0000
0000
0000
,
0000
0000
0000
0000
,
1000
0100
0010
0001
0010
0100
1000
0002
,
0000
0200
0000
0020
0000
1333
0000
0000
,
0001
0000
0100
0000
0010
0100
0001
0000
1000
0000
0100
0000
0010
0000
0200
0000
,
0000
2000
0000
0002
0000
3313
0000
0000
,
1000
0000
0100
0000
0010
0001
1000
0000
0001
0000
0010
0000
0001
0000
0100
0000
,
0010
1000
0001
0000
1000
0000
0100
0000
0010
0000
0001
0000
2000
0000
3MMM
0000
,
0010
0100
0001
1000
0001
0100
0020
MM3M
,
1000
0010
0100
0000
0001
0000
0010
0000
0001
0000
0100
0000
0020
0000
MM0M
0000
,
0000
0000
0230
M0MM
0300
0000
0001
0000
,
1001
1000
0010
0100
0001
1000
0010
4000
,
0000
3001
0000
1000
,
0001
1000
0001
0010
0100
1000
0100
2000
,
0000
0000
0200
0000
0000
0020
0002
3333
,
0000
0000
0000
0000
0000
2000
0004
0000
,
0000
0000
0000
0000
,
3003
0000
MMMM
0000
0000
0000
0000
0000
0000
0000
0000
0000
0000
0000
2002
3003
,
0000
0000
0001
0000
0000
0000
2200
3300
0000
0000
1000
0000
0001
0000
0001
0000
,
0000
0000
1000
0000
0010
0000
0100
0000
0001
0000
0010
0000
0100
0000
2200
3300
,
0000
0000
1000
0000
0000
0000
2002
3003
0000
0000
0001
0000
0100
0000
0100
0000
,
0000
0010
0010
0010
1000
0001
1000
0001
,
0000
0020
0030
0200
0300
2000
3002
0003
,
0000
0000
0000
1000
0100
0010
0002
0000
,
MMM0
0003
0000
0000
1000
0010
0100
0000
,
0001
0010
0100
1000
0001
1000
1001
0000
,
1000
0100
1000
0000
0001
0000
1000
0000
0001
0010
0001
0000
1000
0000
0001
0000
,
0100
0010
1000
0000
0010
0000
0100
0000
0001
0000
0100
0000
0101
0000
0000
0000
,
0100
0001
0100
0000
0010
0000
0100
0000
0010
1000
0010
0000
0100
0000
0010
0000
,
1000
0001
0100
0000
0001
0000
1000
0000
0100
0000
0010
0000
0011
0000
0000
0000
,
1000
0100
1000
0000
0001
0000
1000
0000
0010
0100
0001
0000
1000
0000
0001
0000
,
0010
0100
1000
0000
0010
0000
0100
0000
0001
0000
1000
0000
0020
0000
0000
0000
,
0000
MM0M
0030
0000
0000
0000
0000
1000
,
0000
0010
0000
0000
0100
0000
0001
0000
0000
1000
0000
0000
0100
0000
0220
0000
,
0000
0330
M000
000M
0M00
00M0
M000
0M00
,
000M
M000
00M0
0M00
000M
M000
0M00
0000
,
1000
0010
1000
0001
0010
0001
0010
0200
,
0300
0100
2000
0000
3000
1000
0002
0000
0003
0001
2000
0000
3000
0000
0000
0000
,
0010
0100
0001
0010
0100
1000
0010
0200
,
0300
0100
0002
0000
0003
0001
2000
0000
3000
1000
0200
0000
0300
0000
0000
0000
,
1000
0100
0001
0100
1000
0010
0001
0010
,
1000
0001
1000
0100
0010
0001
2000
3MMM
,
0010
0100
0001
1000
0001
0100
0020
MM3M
,
0100
0010
1000
0001
1000
0100
0020
MM0M
,
0000
0000
0032
MMM0
0003
0000
0011
0000
,
1001
0001
0100
0010
1000
0100
0010
0004
,
0000
1003
0000
0001
,
1000
0001
1000
0100
0010
0001
0100
0002
,
0000
0000
0200
0000
0000
0020
1333
0000
,
0000
0000
0000
0000
0000
0002
4000
0000
,
0000
0000
0000
0000
,
3003
0000
MMMM
0000
0000
0000
0000
0000
0000
0000
0000
0000
0000
0000
2002
3003
,
0000
0000
1000
0000
0000
0000
0022
0033
0000
0000
0001
0000
1000
0000
1000
0000
,
0000
0000
0001
0000
0100
0000
0010
0000
1000
0000
0100
0000
0010
0000
0022
0033
,
0000
0000
0001
0000
0000
0000
2002
3003
0000
0000
1000
0000
0010
0000
0010
0000
,
0000
0100
0100
0100
0001
1000
0001
1000
,
0000
0200
0300
0020
0030
0200
1300
0000
,
0100
1100
0000
1000
0100
0010
0002
0000
,
0000
0003
0000
0000
0001
0100
0010
0000
,
1000
0100
0010
0001
1000
0001
1001
0000
,
0001
0010
0001
0000
1000
0000
0001
0000
1000
0100
1000
0000
0001
0000
1000
0000
,
0010
0100
0001
0000
0100
0000
0010
0000
1000
0000
0010
0000
1010
0000
0000
0000
,
0010
1000
0010
0000
0100
0000
0010
0000
0100
0001
0100
0000
0010
0000
0100
0000
,
0001
1000
0010
0000
1000
0000
0001
0000
0010
0000
0100
0000
1100
0000
0000
0000
,
0001
0010
0001
0000
1000
0000
0001
0000
0100
0010
1000
0000
0001
0000
1000
0000
,
0100
0010
0001
0000
0100
0000
0010
0000
1000
0000
0001
0000
0200
0000
0000
0000
,
0000
M0MM
0300
0000
0000
0000
0000
0001
,
0000
0001
0000
0000
1000
0000
1000
0000
0000
0010
0000
0000
0100
0000
0220
0000
,
0330
000M
M000
00M0
0M00
000M
00M0
M000
,
000M
0M00
00M0
M000
000M
M000
0M00
000M
,
00M0
M000
0M00
000M
M000
00M0
0M00
000M
,
0M00
00M0
M000
000M
00M0
M000
0000
1111
;

//---------------dance-single - S. Philipp----------------
#NOTES:
     dance-single:
     S. Philipp:
     Medium:
     7:
     0.379,0.451,0.101,0.249,0.054:
0000
0000
0000
0000
,
0000
0000
0000
0000
,
0000
0000
0000
0000
,
0000
0000
0000
0000
,
0000
0000
0000
0000
,
0000
0000
0000
0000
,
0000
0000
0000
0000
,
0000
0000
0000
0000
,
0000
0000
0000
0000
,
1000
0100
0010
0001
0010
0100
1000
0002
,
0003
0200
0300
0110
0000
1010
0000
0000
,
0001
0010
0100
1000
0100
0010
0001
0200
,
0300
0002
0003
1001
0000
1010
0000
0000
,
1000
0010
0001
0010
1000
0010
0001
0010
,
1000
0001
1000
0100
0010
0001
2000
3MMM
,
0010
0100
0001
1000
0001
0100
0020
MM3M
,
0100
0010
1000
0001
1000
0100
0020
MM0M
,
0000
0030
0002
MMM0
0003
0000
1000
0000
,
1001
0001
0100
0010
1000
0100
0010
0004
,
0000
0000
0003
0000
0000
0001
1000
0000
,
0001
1000
0001
0010
0100
1000
0100
2000
,
0000
0000
0200
0000
0000
0000
0000
3300
,
0000
0000
0000
0000
0000
0002
4000
0000
,
0000
0000
0000
0000
,
3003
0000
0000
0000
0000
0000
0000
1001
,
0000
1000
0000
1100
0000
0010
0001
0000
,
1000
0010
0100
0001
1000
0100
0010
0011
,
0000
0001
0000
1001
0000
1000
0010
0000
,
0000
1000
1000
1000
0001
0001
0001
0020
,
0030
0200
0300
2000
3000
0001
0020
0030
,
0000
0000
0000
1000
0100
0010
0002
0000
,
0000
0003
0000
0000
1000
0010
0100
0000
,
0001
0010
0100
1000
0001
1000
0001
0000
,
1000
0100
1000
0000
0001
0000
1000
0000
0001
0010
0001
0000
1000
0000
0000
0000
,
0001
1000
0001
1000
0001
1000
0001
0000
,
0100
0001
0100
0000
0010
0000
0100
0000
0010
1000
0010
0000
0100
0000
0000
0000
,
0001
1000
0001
1000
0001
1000
0001
0000
,
1000
0100
1000
0000
0001
0000
1000
0000
0001
0010
0001
0000
1000
0000
0000
0000
,
0000
0000
0000
1000
0010
0100
0002
0000
,
0000
0003
0000
0000
0000
0000
0000
1000
,
0000
1000
0000
0000
0001
0000
0001
0000
0000
0001
0000
0000
1000
0000
1000
0000
,
0000
0000
0000
0M00
000M
00M0
M000
0M00
,
000M
M000
00M0
0M00
000M
M000
0M00
0000
,
1000
0010
1000
0001
1000
0001
0010
0200
,
0300
2000
3000
0002
0003
2000
3000
0000
,
0010
0100
0001
0010
0100
1000
0010
0200
,
0300
0002
0003
2000
3000
0200
0300
0000
,
1000
0100
0010
0100
1000
0010
0100
0010
,
1000
0001
1000
0100
0010
0001
2000
3MMM
,
0010
0100
0001
1000
0001
0100
0020
MM3M
,
0100
0010
1000
0001
1000
0100
0020
MM0M
,
0000
0032
0003
1000
,
1001
0001
0100
0010
1000
0100
0010
0004
,
0000
0000
0003
0000
0000
1000
1000
0000
,
0001
1000
0001
0010
0100
1000
0100
2000
,
0000
0200
0000
0000
,
3300
0000
0000
0000
0000
0002
4000
0000
,
0000
0000
0000
0000
,
3003
MMMM
0000
0000
0000
0000
0000
1001
,
0000
1000
0000
1100
0000
0010
0001
0000
,
1000
0010
0100
0001
1000
0100
0010
0011
,
0000
0001
0000
1001
0000
1000
0010
0000
,
0000
1000
1000
1000
0001
0001
0001
0200
,
0300
0020
0030
2000
3000
0001
1000
0000
,
0000
0000
0000
1000
0100
0010
0002
0000
,
0000
0003
0000
0000
1000
0010
0100
0000
,
0001
0010
0100
1000
0001
1000
0001
0000
,
1000
0100
1000
0000
0001
0000
1000
0000
0001
0010
0001
0000
1000
0000
0000
0000
,
0001
1000
0001
1000
0001
1000
0001
0000
,
0100
0001
0100
0000
0010
0000
0100
0000
0010
1000
0010
0000
0100
0000
0000
0000
,
0001
1000
0001
1000
0001
1000
0001
0000
,
1000
0100
1000
0000
0001
0000
1000
0000
0001
0010
0001
0000
1000
0000
0001
0000
,
0000
1000
0001
1000
0001
1000
0002
0000
,
0000
0003
0000
0000
0000
0000
0000
1000
,
0000
1000
0000
0000
0001
0000
0001
0000
0000
0001
0000
0000
1000
0000
1000
0000
,
0000
0000
0000
0M00
000M
00M0
M000
0M00
,
000M
M000
00M0
0M00
000M
M000
0M00
000M
,
0M00
00M0
M000
00M0
0M00
000M
M000
0M00
,
000M
M000
00M0
0M00
000M
0000
0000
1111
;

//---------------dance-single - S. Philipp----------------
#NOTES:
     dance-single:
     S. Philipp:
     Hard:
     8:
     0.444,0.505,0.141,0.444,0.108:
0000
0000
0000
0000
,
0000
0000
0000
0000
,
0000
0000
0000
0000
,
0000
0000
0000
0000
,
0000
0000
0000
0000
,
0000
0000
0000
0000
,
0000
0000
0000
0000
,
0000
0000
0000
0000
,
0000
0000
0000
0000
,
1000
0100
0010
0001
0010
0100
1000
0002
,
0000
0200
0000
0020
0000
1333
0000
0000
,
0001
0000
0100
0000
0010
0100
0001
0000
1000
0000
0100
0000
0010
0000
0200
0000
,
0000
2000
0000
0002
0000
3313
0000
0000
,
1000
0000
0100
0000
0010
0001
1000
0000
0001
0000
0010
0000
0001
0000
0100
0000
,
0010
1000
0001
0000
1000
0000
0100
0000
0010
0000
0001
0000
2000
0000
3000
0000
,
0010
0100
0001
1000
0001
0100
0020
0030
,
1000
0010
0100
0000
0001
0000
0010
0000
0001
0000
0100
0000
0020
0000
0000
0000
,
0000
0230
0300
0001
,
1001
1000
0010
0100
0001
1000
0010
4000
,
0000
3001
0000
1000
,
0001
1000
0001
0010
0100
1000
0100
2000
,
0000
0000
0200
0000
0000
0020
0002
3333
,
0000
0000
0000
0000
0000
2000
0004
0000
,
0000
0000
0000
0000
,
3003
0000
0000
0000
0000
0000
0000
0000
0000
0000
0000
0000
0000
0000
2002
3003
,
0000
0000
0001
0000
0000
0000
2200
3300
0000
0000
1000
0000
0001
0000
0001
0000
,
0000
0000
1000
0000
0010
0000
0100
0000
0001
0000
0010
0000
0100
0000
2200
3300
,
0000
0000
1000
0000
0000
0000
2002
3003
0000
0000
0001
0000
0100
0000
0100
0000
,
0000
0010
0010
0010
1000
0001
1000
0001
,
0000
0020
0030
0200
0300
2000
3002
0003
,
0000
0000
0000
1000
0100
0010
0002
0000
,
0000
0003
0000
0000
1000
0010
0100
0000
,
0001
0010
0100
1000
0001
1000
1001
0000
,
1000
0100
1000
0000
0001
0000
1000
0000
0001
0010
0001
0000
1000
0000
0001
0000
,
0100
0010
1000
0000
0010
0000
0100
0000
0001
0000
0100
0000
0101
0000
0000
0000
,
0100
0001
0100
0000
0010
0000
0100
0000
0010
1000
0010
0000
0100
0000
0010
0000
,
1000
0001
0100
0000
0001
0000
1000
0000
0100
0000
0010
0000
0011
0000
0000
0000
,
1000
0100
1000
0000
0001
0000
1000
0000
0010
0100
0001
0000
1000
0000
0001
0000
,
0010
0100
1000
0000
0010
0000
0100
0000
0001
0000
1000
0000
0020
0000
0000
0000
,
0000
0000
0030
0000
0000
0000
0000
1000
,
0000
0010
0000
0000
0100
0000
0001
0000
0000
1000
0000
0000
0100
0000
0220
0000
,
0000
0330
0000
0000
0000
0000
0000
0000
,
0000
0000
0000
0000
,
1000
0010
1000
0001
0010
0001
0010
0200
,
0300
0100
2000
0000
3000
1000
0002
0000
0003
0001
2000
0000
3000
0000
0000
0000
,
0010
0100
0001
0010
0100
1000
0010
0200
,
0300
0100
0002
0000
0003
0001
2000
0000
3000
1000
0200
0000
0300
0000
0000
0000
,
1000
0100
0001
0100
1000
0010
0001
0010
,
1000
0001
1000
0100
0010
0001
2000
3000
,
0010
0100
0001
1000
0001
0100
0020
0030
,
0100
0010
1000
0001
1000
0100
0020
0000
,
0000
0032
0003
0011
,
1001
0001
0100
0010
1000
0100
0010
0004
,
0000
1003
0000
0001
,
1000
0001
1000
0100
0010
0001
0100
0002
,
0000
0000
0200
0000
0000
0020
1333
0000
,
0000
0000
0000
0000
0000
0002
4000
0000
,
0000
0000
0000
0000
,
3003
0000
0000
0000
0000
0000
0000
0000
0000
0000
0000
0000
0000
0000
2002
3003
,
0000
0000
1000
0000
0000
0000
0022
0033
0000
0000
0001
0000
1000
0000
1000
0000
,
0000
0000
0001
0000
0100
0000
0010
0000
1000
0000
0100
0000
0010
0000
0022
0033
,
0000
0000
0001
0000
0000
0000
2002
3003
0000
0000
1000
0000
0010
0000
0010
0000
,
0000
0100
0100
0100
0001
1000
0001
1000
,
0000
0200
0300
0020
0030
0200
1300
0000
,
0100
1100
0000
1000
0100
0010
0002
0000
,
0000
0003
0000
0000
0001
0100
0010
0000
,
1000
0100
0010
0001
1000
0001
1001
0000
,
0001
0010
0001
0000
1000
0000
0001
0000
1000
0100
1000
0000
0001
0000
1000
0000
,
0010
0100
0001
0000
0100
0000
0010
0000
1000
0000
0010
0000
1010
0000
0000
0000
,
0010
1000
0010
0000
0100
0000
0010
0000
0100
0001
0100
0000
0010
0000
0100
0000
,
0001
1000
0010
0000
1000
0000
0001
0000
0010
0000
0100
0000
1100
0000
0000
0000
,
0001
0010
0001
0000
1000
0000
0001
0000
0100
0010
1000
0000
0001
0000
1000
0000
,
0100
0010
0001
0000
0100
0000
0010
0000
1000
0000
0001
0000
0200
0000
0000
0000
,
0000
0000
0300
0000
0000
0000
0000
0001
,
0000
0001
0000
0000
1000
0000
1000
0000
0000
0010
0000
0000
0100
0000
0220
0000
,
0330
0000
0000
0000
,
0000
0000
0000
0000
,
0000
0000
0000
0000
,
0000
0000
0000
0000
0000
0000
0000
0000
0000
0000
0000
0000
0000
0000
0000
0000
0000
0000
0000
0000
0000
2222
3333
0000
;

//---------------dance-single - S. Philipp----------------
#NOTES:
     dance-single:
     S. Philipp:
     Easy:
     5:
     0.285,0.372,0.168,0.040,0.000:
0000
0000
0000
0000
,
0000
0000
0000
0000
,
0000
0000
0000
0000
,
0000
0000
0000
0000
,
0000
0000
0000
0000
,
0000
0000
0000
0000
,
0000
0000
0000
0000
,
0000
0000
0000
0000
,
0000
0000
0000
0000
,
1000
0100
0010
0001
0000
1000
0001
0000
,
0000
1001
0000
0110
0000
1001
0000
0000
,
0001
0010
0100
1000
0000
0001
1000
0000
,
0000
0011
0000
0110
0000
1001
0000
0000
,
1000
0010
1000
0000
0001
0100
0001
0000
,
1000
0001
1000
0000
0001
1000
0001
0000
,
0100
0010
0100
0000
0001
0100
0001
0000
,
1000
0001
1000
0000
0001
1000
0002
0000
,
0000
0003
0000
0001
,
1000
0001
0100
0010
1000
0100
0010
0004
,
0000
0000
0003
0000
0000
0001
1000
0000
,
0001
1000
0001
0010
0100
1000
0100
2000
,
0000
0000
0000
0000
,
3000
0000
0000
0000
0000
0001
4000
0000
,
0000
0000
0000
0000
,
3000
0000
0000
0000
0000
0000
0000
1001
,
0000
1000
0000
1100
0000
0010
0001
0000
,
1000
0010
0100
0001
1000
0100
0010
0011
,
0000
0001
0000
1001
0000
1000
0010
0000
,
0000
4004
0000
0000
0000
0000
3003
0000
,
0000
0001
0000
1000
0000
0001
0010
0000
,
0000
0000
0000
1000
0100
0010
0001
0000
,
0000
0000
0000
0000
1000
0010
0100
0000
,
0001
0010
0100
1000
0001
1000
0001
0000
,
1000
0001
1000
0000
0001
1000
0001
0000
,
1000
0001
1000
0001
,
0100
0010
0100
0000
0001
1000
0001
0000
,
1000
0001
1000
0000
0001
0100
0001
0000
,
1000
0010
1000
0000
0001
1000
0001
0000
,
0000
0000
0000
1000
0010
0100
0002
0000
,
0000
0000
0003
0000
0000
0000
0000
4004
,
0000
0000
0000
3003
,
0000
0000
0000
0000
,
0000
0000
0000
0000
,
1000
0100
0010
0001
0000
1000
0001
0000
,
0000
1001
0000
0110
0000
1001
0000
0000
,
0001
0010
0100
1000
0000
0001
1000
0000
,
0000
0011
0000
0110
0000
1001
0000
0000
,
1000
0010
1000
0000
0001
0100
0001
0000
,
1000
0001
1000
0000
0001
1000
0001
0000
,
0100
0010
0100
0000
0001
0100
0001
0000
,
1000
0001
1000
0000
0001
1000
0002
0000
,
0000
0003
0000
0001
,
1000
0001
0100
0010
1000
0100
0010
0004
,
0000
0000
0003
0000
0000
0001
1000
0000
,
0001
1000
0001
0010
0100
1000
0100
2000
,
0000
0000
0000
0000
,
3000
0000
0000
0000
0000
0001
4000
0000
,
0000
0000
0000
0000
,
3000
0000
0000
0000
0000
0000
0000
1001
,
0000
1000
0000
1100
0000
0010
0001
0000
,
1000
0010
0100
0001
1000
0100
0010
0011
,
0000
0001
0000
1001
0000
1000
0010
0000
,
0000
4004
0000
0000
0000
0000
3003
0000
,
0000
0001
0000
1000
0000
0001
0010
0000
,
0000
0000
0000
1000
0100
0010
0001
0000
,
0000
0000
0000
0000
1000
0010
0100
0000
,
0001
0010
0100
1000
0001
1000
0001
0000
,
1000
0001
1000
0000
0001
1000
0001
0000
,
1000
0001
1000
0001
,
0100
0010
0100
0000
0001
1000
0001
0000
,
1000
0001
1000
0000
0001
0100
0001
0000
,
1000
0010
1000
0000
0001
1000
0001
0000
,
0000
0000
0000
1000
0010
0100
0002
0000
,
0000
0000
0003
0000
0000
0000
0000
4004
,
0000
0000
0000
3003
,
0000
0000
0000
0000
,
0000
0000
0000
0000
,
0000
0000
0000
0000
,
0000
0000
0000
0000
0000
0000
0000
1001
;

//---------------dance-single - S. Philipp----------------
#NOTES:
     dance-single:
     S. Philipp:
     Beginner:
     2:
     0.161,0.202,0.040,0.054,0.000:
0000
0000
0000
0000
,
0000
0000
0000
0000
,
0000
0000
0000
0000
,
0000
0000
0000
0000
,
0000
0000
0000
0000
,
0000
0000
0000
0000
,
0000
0000
0000
0000
,
0000
0000
0000
0000
,
0000
0000
0000
0000
,
0100
1000
1000
1000
,
0000
0000
0000
0000
,
1000
0100
1000
0100
,
0000
0000
0000
0000
,
0010
0100
1000
0100
,
1000
1000
0100
1000
,
0100
0010
1000
0001
,
0001
1000
1000
0010
,
0000
1000
0000
1000
,
0110
0001
0001
0010
,
0000
0000
0000
0100
,
0100
0010
0100
0010
,
0000
0001
0000
0000
,
0000
0000
0000
0400
,
0000
0000
0000
0000
,
0300
0000
0000
0000
,
0000
0000
0000
0100
,
1000
1000
0100
0010
,
0000
0000
0000
1000
,
0000
0220
0000
0000
0000
0000
0000
0330
,
0000
0000
0000
1000
,
0000
0000
1000
0010
,
0000
0000
1000
0001
,
1000
0100
0010
0100
,
0100
0010
0100
0010
,
0100
0001
1000
1000
,
0100
0100
0100
0100
,
1000
0010
1000
1000
,
1000
0100
0010
1000
,
0000
0000
1000
0100
,
0000
0000
0000
0000
0000
0000
0000
0220
,
0000
0000
0000
0000
0000
0000
0000
0330
,
0000
0000
0000
0000
,
0000
0000
0000
0000
,
1000
0100
1000
0010
,
0000
0000
0000
0000
,
1000
1000
1000
1000
,
0000
0000
0000
0000
,
1000
0010
0100
0100
,
0001
1000
0100
1000
,
0010
0100
0010
0001
,
0100
1000
0100
0100
,
0000
0100
0000
1000
,
0011
0001
1000
0010
,
0000
0000
0000
1000
,
0100
0010
0100
0100
,
0000
0001
0000
0000
,
0000
0000
0000
0400
,
0000
0000
0000
0000
,
0300
0000
0000
0000
,
0000
0000
0000
0100
,
0100
1000
0010
1000
,
0000
0000
0000
0010
,
0000
0220
0000
0000
0000
0000
0000
0330
,
0000
0000
0000
0010
,
0000
0000
0010
1000
,
0000
0000
0100
0010
,
0100
0100
0010
1000
,
0100
0100
0100
0100
,
0100
1000
0100
0100
,
0010
0001
1000
0010
,
0001
1000
1000
0100
,
0100
1000
0100
0100
,
0000
0100
1000
0100
,
0000
0000
0000
0000
0000
0000
0000
0220
,
0000
0000
0000
0000
0000
0000
0000
0330
;
