#TITLE:Vad Heter Du;
#SUBTITLE:;
#ARTIST:Caramell;
#TITLETRANSLIT:;
#SUBTITLETRANSLIT:;
#ARTISTTRANSLIT:;
#GENRE:;
#CREDIT:Scott "Suko" Philipp;
#BANNER:Vad Heter Du-bn.png;
#BACKGROUND:Vad Heter Du-bg.png;
#LYRICSPATH:;
#CDTITLE:;
#MUSIC:Vad Heter Du-short.ogg;
#OFFSET:-1.701;
#SAMPLESTART:41.000;
#SAMPLELENGTH:15.000;
#SELECTABLE:YES;
#BPMS:0.000=165.820;
#STOPS:;
#BGCHANGES:;
#KEYSOUNDS:;

//---------------dance-single - S. Philipp----------------
#NOTES:
     dance-single:
     S. Philipp:
     Challenge:
     11:
     0.943,0.782,0.203,0.352,0.638:
0000
0000
0000
0000
,
0000
0000
0000
0000
,
0000
0000
0000
0000
,
0000
0000
0000
0000
,
1000
0000
0001
0100
0010
0000
1000
0000
0100
0000
0100
0010
0000
0010
0001
0000
,
0010
0000
0001
1000
0001
0000
1000
0000
0010
0000
0010
1000
0000
1000
0010
0000
,
0100
0000
0001
0100
0001
0000
1000
0000
0010
0000
0010
1000
0000
1000
0100
0000
,
0010
0000
0001
0100
0001
0000
0100
0000
0010
0000
0010
1000
0000
1000
0001
0000
,
1000
0000
0010
1000
0010
1000
0010
0000
0100
0000
0010
0100
0001
0100
0010
0000
,
1000
0000
0001
1000
0001
1000
0001
0000
1000
0000
1000
0100
0000
0100
0010
0000
,
0001
0000
0010
0001
0010
0001
0010
0000
0001
0000
1000
0010
0100
0001
1000
0000
,
0001
0000
1000
0100
0000
0100
0010
0000
0001
0000
0010
0001
0000
0001
0010
0000
,
0001
1000
0010
1000
0001
0100
0001
1000
,
0010
0000
1000
0000
0010
0000
1000
0000
0001
0000
1000
0100
0010
0000
0001
0000
,
1000
0001
0010
0001
0100
1000
0100
0001
,
1000
0000
0100
0010
0100
0000
0010
0001
0010
0000
0001
0010
0100
1000
0001
0000
,
1000
0010
1000
0010
0001
0010
1000
0001
,
0010
0000
0001
0010
0100
0000
1000
0000
0001
0000
1000
0010
0100
0000
0001
0100
,
0010
0000
1000
0000
0010
0000
0100
0000
0001
0000
1000
0010
0100
0000
0001
0000
,
1000
0000
0001
0010
0100
0000
1000
0010
0100
0000
0001
0010
0100
1000
0001
0000
,
1000
1001
0001
0101
0100
0110
0010
1010
,
1000
0000
1100
0000
0100
0000
0110
0000
0010
0000
0001
0010
0100
0000
1000
0000
,
0010
0110
0100
0101
0001
1001
1000
1100
,
0200
0000
0000
0300
2000
0000
3002
0000
0003
0000
1000
0010
0100
0000
0001
0100
,
0010
1000
0010
0100
0001
0010
1000
0010
,
0001
0000
1000
0000
0001
0000
0100
0000
0001
0000
0100
0010
1000
0000
0001
0000
,
0100
0010
1000
0001
1000
0010
0100
0001
,
0100
0000
0010
0100
0002
0000
1003
0100
0020
0000
0000
0030
0200
0000
0000
0300
,
1000
0000
0100
0010
0001
0000
1000
0100
0010
0000
0001
0000
0010
0000
0001
0010
,
0001
0000
1000
0100
0010
0000
0001
0100
0010
0000
1000
0000
0020
0000
0030
0000
,
1000
0000
0010
0100
0001
0000
1000
0010
0100
0000
0001
0000
2000
0000
3000
0000
,
0001
0010
0100
0000
2000
0000
3010
0100
0001
0000
2000
0000
3020
0000
0030
0000
,
1000
0000
0001
0010
0100
0000
1000
0100
0010
0000
0001
0000
1000
0000
0001
0010
,
0001
0000
1000
0100
0010
0000
0001
0100
0010
0000
1000
0000
0020
0000
0030
0000
,
1000
0000
0010
0100
0001
0000
1000
0010
0100
0000
0001
0000
2000
0000
3000
0000
,
0001
0010
0100
1000
0001
0010
0100
1000
0001
0000
1000
0000
0010
0000
1000
0000
,
1010
0000
0010
1000
0001
0000
0100
0000
0010
0000
1000
0010
1000
0000
0001
0000
,
1000
0000
0001
1000
0001
0000
0010
0000
0100
0000
1000
0100
0000
0100
1000
0000
,
0001
0000
1000
0010
0100
0000
0001
0000
0100
0000
0001
0100
0010
0000
1000
0000
,
0010
0000
1000
0100
0010
0000
0001
0000
0010
0000
0010
0001
0000
0001
0010
0000
,
0001
0000
1000
0010
1000
0000
0001
0000
1000
0000
0100
0010
0100
0000
0010
0000
,
0001
0000
1000
0010
0100
0000
0001
0000
0010
0000
0010
0100
0000
0100
1000
0000
,
1000
0000
0001
0010
0100
0000
1000
0000
0001
0000
1000
0010
0100
0000
0001
0000
,
0100
0000
0010
0100
0010
0000
1000
0000
0100
0000
0010
0001
0100
0010
1000
0000
,
0001
1000
0010
1000
0001
0100
0001
1000
,
0010
0000
1000
0000
0010
0000
1000
0000
0001
0000
1000
0100
0010
0000
0001
0000
,
1000
0001
0010
0001
0100
1000
0100
0001
,
1000
0000
0100
0010
0100
0000
0010
0001
0010
0000
0001
0010
0100
1000
0001
0000
,
1000
0010
1000
0010
0001
0010
1000
0001
,
0010
0000
0001
0010
0100
0000
1000
0000
0001
0000
1000
0010
0100
0000
0001
0100
,
0010
0000
1000
0000
0010
0000
0100
0000
0001
0000
1000
0010
0100
0000
0001
0000
,
1000
0000
0001
0010
0100
0000
1000
0010
0100
0000
0001
0010
0100
1000
0010
0100
,
0001
0101
0100
0110
0010
1010
1000
1001
,
0001
0000
0011
0000
0010
0000
0110
0000
0100
0000
1000
0100
0010
0000
0001
0000
,
0010
0011
0001
1001
1000
1010
0010
0110
,
0200
0000
0000
0300
0002
0000
2003
0000
3000
0000
0001
0100
0010
0000
1000
0010
,
0100
0001
0100
0010
1000
0100
0001
0100
,
1000
0000
0001
0000
1000
0000
0010
0000
1000
0000
0010
0100
0001
0000
1000
0000
,
0010
0100
0001
1000
0001
0100
0010
1000
,
0020
0000
0030
0000
2020
3030
0000
0001
0100
0000
0001
0000
0200
0000
0000
0000
,
0300
0000
0010
0100
0001
0000
1000
0100
0020
0000
0000
0030
0200
0000
0000
0300
,
1000
0000
0100
0010
0001
0000
1000
0100
0010
0000
0001
0000
0020
0000
0000
0030
,
0001
0000
1000
0100
0010
0000
0001
0100
0010
0000
1000
0000
0020
0000
0030
0000
,
1000
0000
0010
0100
0001
0000
1000
0010
0100
0000
0001
0000
2000
0000
3000
0000
,
0001
0010
0100
0000
2000
0000
3000
0100
0010
0000
0001
0000
0200
0000
0300
0000
,
0001
0000
1000
0100
0010
0000
0001
0010
0100
0000
1000
0000
0001
0000
1000
0100
,
1000
0000
0001
0010
0100
0000
1000
0010
0100
0000
0001
0000
0200
0000
0300
0000
,
0001
0000
0100
0010
1000
0000
0001
0100
0010
0000
1000
0000
0002
0000
0003
0000
,
0000
0000
0100
0010
2000
0000
3001
0010
0200
0000
0000
0300
0020
0000
0000
0030
,
0001
0000
0010
0100
1000
0000
0001
0010
0100
0000
1000
0000
0100
0000
1000
0100
,
1000
0000
0001
0010
0100
0000
1000
0010
0100
0000
0001
0000
0200
0000
0300
0000
,
0001
0000
0100
0010
1000
0000
0001
0100
0010
0000
1000
0000
0002
0000
0003
0000
,
1000
0100
0010
0000
0002
0000
0003
0100
0010
0000
1000
0000
0020
0000
0030
0000
,
1000
0000
0001
0010
0100
0000
1000
0100
0010
0000
0001
0000
1000
0000
0001
0010
,
0001
0000
1000
0100
0010
0000
0001
0100
0010
0000
1000
0000
0020
0000
0030
0000
,
1000
0000
0010
0100
0001
0000
1000
0010
0100
0000
0001
0000
2000
0000
3000
0000
,
0001
0010
0100
1000
0001
0010
0100
1000
0001
0000
1000
0000
0010
0000
1000
0000
,
2020
3030
0000
0000
;

//---------------dance-single - S. Philipp----------------
#NOTES:
     dance-single:
     S. Philipp:
     Hard:
     10:
     0.921,0.748,0.097,0.537,0.612:
0000
0000
0000
0000
,
0000
0000
0000
0000
,
0000
0000
0000
0000
,
0000
0000
0000
0000
,
1000
0000
0001
0100
0000
0000
0010
0000
0100
0000
0010
1000
0000
1000
0010
0000
,
1000
0000
0001
1000
0000
0000
0100
0000
0010
0000
0001
0010
0000
0010
0001
0000
,
1000
0000
0001
0100
0000
0000
0001
0000
0100
0000
0100
0001
0000
0001
0010
0000
,
0100
0000
1000
0010
0000
0000
0100
0000
0010
0000
0010
1000
0000
1000
0001
0000
,
1000
0000
0001
0100
0001
0000
0100
0000
0010
0000
0100
0001
0000
0001
0100
0000
,
0001
0000
1000
0001
1000
0000
0100
0000
0010
0000
0001
0010
0000
0010
0001
0000
,
1000
0000
0001
0100
0010
0000
1000
0000
0010
0000
0010
0100
0000
0100
0010
0000
,
1000
0000
0001
0100
0001
0000
0100
0000
0010
0000
0010
1000
0000
1000
0001
0000
,
1000
0001
0100
0001
1000
0010
1000
0001
,
0100
0000
0001
0000
0100
0000
0001
0000
1000
0000
0001
0010
0100
0000
1000
0000
,
0001
1000
0100
1000
0010
0001
0010
1000
,
0001
0000
0010
0100
0010
0000
0100
1000
0100
0000
1000
0100
0010
0001
1000
0000
,
0001
0100
0001
0100
1000
0100
0001
1000
,
0100
0000
1000
0100
0010
0000
0001
0000
1000
0000
0001
0100
0010
0000
1000
0010
,
0100
0000
0001
0000
0100
0000
0010
0000
1000
0000
0001
0100
0010
0000
1000
0000
,
0001
0000
1000
0100
0010
0000
0001
0100
0010
0000
1000
0001
0010
0000
0000
0000
,
0022
0000
0003
0030
0002
0000
2000
0003
0000
3000
0020
0000
0000
0030
1010
0000
,
MMMM
0000
0110
0000
MMMM
0000
0101
0000
0000
0000
0002
0000
2000
0003
0020
0030
,
3200
0000
0000
0300
0020
0000
2030
0000
3000
0000
0200
0000
0300
0000
0020
0000
,
0032
0000
0000
0003
2000
0000
3002
0000
0003
0000
1000
0001
0100
0000
0001
1000
,
0010
1000
0010
0100
0001
0010
1000
0010
,
0001
0000
1000
0000
0001
0000
0100
0000
0001
0000
0100
0010
1000
0000
0001
0000
,
0100
0010
1000
0001
1000
0010
0100
0001
,
0100
0000
0010
0100
0002
0000
1003
0100
0020
0000
0000
0030
0200
0000
0000
0300
,
1000
0000
0100
0010
0001
0000
1000
0100
0010
0000
0001
0000
0010
0000
0001
0010
,
0001
0000
1000
0100
0010
0000
0001
0100
0010
0000
1000
0000
0020
0000
0030
0000
,
1000
0000
0010
0100
0001
0000
1000
0010
0100
0000
0001
0000
2000
0000
3000
0000
,
0001
0010
0100
0000
2000
0000
3010
0100
0001
0000
1000
0000
0020
0000
0030
0000
,
1000
0000
0001
0010
0100
0000
1000
0100
0010
0000
0001
0000
1000
0000
0001
0010
,
0001
0000
1000
0100
0010
0000
0001
0100
0010
0000
1000
0000
0020
0000
0030
0000
,
1000
0000
0010
0100
0001
0000
1000
0010
0100
0000
0001
0000
2000
0000
3000
0000
,
0001
0010
0100
1000
0001
0010
0100
1000
0001
0000
1000
0000
0010
0000
1000
0000
,
1010
0000
0010
1000
0001
0000
0100
0000
0010
0000
1000
0010
1000
0000
0001
0000
,
1000
0000
0001
1000
0001
0000
0010
0000
0100
0000
1000
0100
0000
0100
1000
0000
,
0001
0000
1000
0010
0100
0000
0001
0000
0100
0000
0001
0100
0010
0000
1000
0000
,
0010
0000
1000
0100
0010
0000
0001
0000
0010
0000
0010
0001
0000
0001
0010
0000
,
0001
0000
1000
0010
1000
0000
0001
0000
1000
0000
0100
0010
0100
0000
0010
0000
,
0001
0000
1000
0010
0100
0000
0001
0000
0010
0000
0010
0100
0000
0100
1000
0000
,
1000
0000
0001
0010
0100
0000
1000
0000
0001
0000
1000
0010
0100
0000
0001
0000
,
0100
0000
0010
0100
0010
0000
1000
0000
0100
0000
0010
0001
0100
0010
1000
0000
,
0001
1000
0010
1000
0001
0100
0001
1000
,
0010
0000
1000
0000
0010
0000
1000
0000
0001
0000
1000
0100
0010
0000
0001
0000
,
1000
0001
0010
0001
0100
1000
0100
0001
,
1000
0000
0100
0010
0100
0000
0010
0001
0010
0000
0001
0010
0100
1000
0001
0000
,
1000
0010
1000
0010
0001
0010
1000
0001
,
0010
0000
0001
0010
0100
0000
1000
0000
0001
0000
1000
0010
0100
0000
0001
0100
,
0010
0000
1000
0000
0010
0000
0100
0000
0001
0000
1000
0010
0100
0000
0001
0000
,
1000
0000
0001
0010
0100
0000
1000
0010
0100
0000
0001
0010
0100
1000
0010
0100
,
0020
0000
0030
0000
2000
0000
0002
3000
0000
0003
0200
0000
0000
0300
0101
0000
,
MMMM
0000
0110
0000
MMMM
0000
1010
0000
0000
0000
2000
0000
0002
3000
0200
0300
,
0023
0000
0000
0030
0200
0000
0302
0000
0003
0000
0020
0000
0030
0000
0200
0000
,
2300
0000
0000
3000
0002
0000
2003
0000
3000
0000
0001
1000
0010
0000
1000
0001
,
0100
0001
0100
0010
1000
0100
0001
0100
,
1000
0000
0001
0000
1000
0000
0010
0000
1000
0000
0010
0100
0001
0000
1000
0000
,
0010
0100
0001
0010
0001
0100
0010
1000
,
1010
0000
MMMM
0000
1001
0000
0000
0001
0010
0000
0100
0000
2000
0000
3000
0000
,
0010
0000
0100
0010
2000
0000
3001
0010
0200
0000
0000
0300
0020
0000
0000
0030
,
0001
0000
0010
0100
1000
0000
0001
0010
0100
0000
1000
0000
0100
0000
1000
0100
,
1000
0000
0001
0010
0100
0000
1000
0010
0100
0000
0001
0000
0200
0000
0300
0000
,
0001
0000
0100
0010
1000
0000
0001
0100
0010
0000
1000
0000
0002
0000
0003
0000
,
1000
0100
0010
0000
0002
0000
0103
0010
1000
0000
0001
0000
0200
0000
0300
0000
,
0001
0000
1000
0100
0010
0000
0001
0010
0100
0000
1000
0000
0001
0000
1000
0100
,
1000
0000
0001
0010
0100
0000
1000
0010
0100
0000
0001
0000
0200
0000
0300
0000
,
0001
0000
0100
0010
1000
0000
0001
0100
0010
0000
1000
0000
0002
0000
0003
0000
,
MMMM
0000
0100
0010
2000
0000
3001
0010
0200
0000
0000
0300
0020
0000
0000
0030
,
0001
0000
0010
0100
1000
0000
0001
0010
0100
0000
1000
0000
0100
0000
1000
0100
,
1000
0000
0001
0010
0100
0000
1000
0010
0100
0000
0001
0000
0200
0000
0300
0000
,
0001
0000
0100
0010
1000
0000
0001
0100
0010
0000
1000
0000
0002
0000
0003
0000
,
1000
0100
0010
0000
0002
0000
0003
0100
0010
0000
1000
0000
0020
0000
0030
0000
,
1000
0000
0001
0010
0100
0000
1000
0100
0010
0000
0001
0000
1000
0000
0001
0010
,
0001
0000
1000
0100
0010
0000
0001
0100
0010
0000
1000
0000
0020
0000
0030
0000
,
1000
0000
0010
0100
0001
0000
1000
0010
0100
0000
0001
0000
2000
0000
3000
0000
,
0001
0010
0100
1000
0001
0010
0100
1000
0001
0000
1000
0000
0010
0000
1000
0000
,
2020
3030
0000
0000
;

//---------------dance-single - S. Philipp----------------
#NOTES:
     dance-single:
     S. Philipp:
     Medium:
     7:
     0.703,0.645,0.079,0.520,0.145:
0000
0000
0000
0000
,
0000
0000
0000
0000
,
0000
0000
0000
0000
,
0000
0000
0000
0000
,
1000
0001
0100
0010
0100
0010
2000
3000
,
1000
0001
1000
0100
0010
0001
0020
0030
,
0001
1000
0010
1000
0010
0100
0002
0003
,
1000
0010
1000
0010
0100
0010
2000
3000
,
1000
0000
0001
0000
1000
0000
0010
0000
0100
0000
0100
0001
0000
0001
0100
0000
,
0001
0000
1000
0000
0001
0000
1000
0000
0010
0000
0010
1000
0000
1000
0010
0000
,
1000
0000
0001
0000
1000
0000
0001
0000
0010
0000
0010
0001
0000
0001
0010
0000
,
0001
0000
1000
0000
0010
0000
0100
0000
0010
0000
0010
0100
0000
0100
0010
0000
,
1000
0010
1000
0010
1000
0010
1000
0001
,
0100
0001
0100
0001
1000
0001
0020
0030
,
0100
1000
0100
1000
0100
1000
0100
0010
,
0001
0100
0100
0010
0010
1000
0020
0030
,
1000
0010
1000
0001
1000
0001
0010
0001
,
0010
0001
0010
0100
1000
0100
0020
0030
,
0001
0000
0100
0020
0030
1000
0100
0020
,
0030
0011
0000
1001
0000
0002
2003
3000
,
1001
0000
2000
0002
3000
0203
0300
0020
,
0030
0200
0300
0020
0030
1000
0001
0100
,
0020
0000
0230
0302
0003
0020
0030
0200
,
2300
0000
3002
2003
3000
0002
0003
1000
,
0001
1000
0001
1000
0100
0010
0001
1000
,
0001
1000
0001
0100
0010
0100
0010
1000
,
0001
1000
0100
0010
0001
0010
0100
1000
,
0100
0000
0000
0100
1000
0000
0000
1000
0100
0000
0000
0000
2200
0000
3300
0000
,
1000
0000
0000
0000
0001
0000
0000
1000
0010
0000
1000
0000
0010
0000
0000
0000
,
1000
0010
1000
0001
0010
0100
0100
0000
,
1000
0000
0000
0000
0001
0000
0000
1000
0010
0000
1000
0000
0010
0000
0000
0000
,
1000
0010
1000
0001
0010
0100
0010
0000
,
0010
0000
0000
0000
0001
0000
0000
0001
0100
0000
0001
0000
0100
0000
0000
0000
,
0001
0100
0001
1000
0100
0010
0010
0000
,
0001
0000
0000
0000
1000
0000
0000
0001
0100
0000
0001
0000
0100
0000
0000
0000
,
0001
0100
0001
1000
0100
0010
0010
0001
,
1000
0001
0100
0010
0100
0010
2000
3000
,
1000
0001
1000
0100
0010
0001
0020
0030
,
0001
1000
0010
1000
0010
0100
0002
0003
,
1000
0010
1000
0010
0100
0010
2000
3000
,
1000
0000
0001
0000
1000
0000
0010
0000
0100
0000
0100
0001
0000
0001
0100
0000
,
0001
0000
1000
0000
0001
0000
1000
0000
0010
0000
0010
1000
0000
1000
0010
0000
,
1000
0000
0001
0000
1000
0000
0001
0000
0010
0000
0010
0001
0000
0001
0010
0000
,
0001
0000
1000
0000
0010
0000
0100
0000
0010
0000
0010
0100
0000
0100
0010
0000
,
1000
0010
1000
0010
1000
0010
1000
0001
,
0100
0001
0100
0001
1000
0001
0020
0030
,
0100
1000
0100
1000
0100
1000
0100
0010
,
0001
0100
0100
0010
0010
1000
0020
0030
,
1000
0010
1000
0001
1000
0001
0010
0001
,
0010
0001
0010
0100
1000
0100
0020
0030
,
0001
0000
0100
0020
0030
1000
0100
0020
,
0030
0011
0000
1001
0000
0002
2003
3000
,
1001
0000
2000
0002
3000
0203
0300
0020
,
0030
0200
0300
0020
0030
1000
0001
0100
,
0020
0000
0230
0302
0003
0020
0030
0200
,
2300
0000
3002
2003
3000
0002
0003
1000
,
0001
1000
0001
1000
0100
0010
0001
1000
,
0001
1000
0001
0100
0010
0100
0010
1000
,
0001
1000
0100
0010
0001
0010
0100
1000
,
0100
0000
0000
0000
1000
0000
0000
1000
0100
0000
0010
0000
0001
0000
0000
0000
,
2002
0000
0000
3003
,
1000
0000
0000
0000
0001
0000
0000
1000
0010
0000
1000
0000
0010
0000
0000
0000
,
1000
0010
1000
0001
0010
0100
0100
0000
,
1000
0000
0000
0000
0001
0000
0000
1000
0010
0000
1000
0000
0010
0000
0000
0000
,
1000
0000
0010
0000
1000
0000
0000
0010
1000
0000
0010
0000
1000
0000
0000
0000
,
1000
0000
0000
0000
0001
0000
0000
0010
0001
0000
0010
0000
0001
0000
0000
0000
,
1000
0100
0010
0001
0100
0010
1000
0000
,
0001
0000
0000
0000
1000
0000
0000
0001
0100
0000
0001
0000
0100
0000
0000
0000
,
2002
0000
0000
3003
,
1000
0000
0000
0000
0001
0000
0000
1000
0010
0000
1000
0000
0010
0000
0000
0000
,
1000
0010
1000
0001
0010
0100
0100
0000
,
1000
0000
0000
0000
0001
0000
0000
1000
0010
0000
1000
0000
0010
0000
0000
0000
,
1000
0000
0010
0000
1000
0000
0000
0010
1000
0000
0010
0000
1000
0000
0000
0000
,
1000
0000
0000
0000
0001
0000
0000
0010
0001
0000
0010
0000
0001
0000
0000
0000
,
1000
0100
0010
0001
0100
0010
1000
0000
,
0001
0000
0000
0000
1000
0000
0000
0001
0100
0000
0001
0000
0100
0000
0000
0000
,
0001
1000
0100
0010
0001
0010
0100
2000
,
0000
3000
0000
0000
0000
0000
0000
0000
;

//---------------dance-single - S. Philipp----------------
#NOTES:
     dance-single:
     S. Philipp:
     Easy:
     4:
     0.351,0.271,0.000,0.000,0.000:
0000
0000
0000
0000
,
0000
0000
0000
0000
,
0000
0000
0000
0000
,
0000
0000
0000
0000
,
1000
0010
0100
0000
,
0010
1000
0010
0000
,
0100
0001
0010
0000
,
0010
0001
0010
0000
,
0001
0010
0100
1000
,
0001
1000
0001
0000
,
1000
0010
1000
0010
,
1000
0000
0001
0000
,
0001
0010
0001
1000
,
0010
0010
1000
0001
,
0010
0010
0100
0100
,
1000
0100
0010
0100
,
1000
1000
0001
1000
,
0010
0100
0001
0100
,
0010
0010
1000
0100
,
1000
0100
0010
0100
,
1000
0001
0100
0010
,
1000
0100
0010
0100
,
0010
0100
0010
0001
,
0100
0010
0000
1000
,
0010
1000
0001
1000
,
0001
1000
0001
1000
,
0100
0010
0001
0100
,
0010
1000
0010
0100
,
0001
1000
0100
0010
,
0001
0010
0100
1000
,
0001
1000
0010
1000
,
0010
0100
0001
0010
,
0100
0010
0001
1000
,
0001
0100
0010
1000
,
0010
1000
0100
0010
,
0001
0001
0001
0010
,
0010
0001
0010
0100
,
1000
0001
0100
0000
,
0001
0100
0100
0010
,
0010
1000
1000
0000
,
0001
1000
1000
0100
,
0010
0100
0010
0000
,
0001
0100
0001
0100
,
0100
0010
1000
1000
,
0001
0010
0001
1000
,
0010
0100
0001
1000
,
0100
0010
0001
0100
,
0001
0100
0010
0100
,
0010
1000
0001
1000
,
0010
0100
0001
0100
,
0010
1000
0001
0100
,
0001
1000
0100
0010
,
0001
0100
0010
1000
,
0001
0010
0100
0010
,
0001
1000
0010
0100
,
0001
1000
0000
0001
,
0010
0100
1000
0001
,
1000
0001
1000
0001
,
1000
0001
1000
0010
,
0100
0010
0100
0001
,
0000
1000
0001
0100
,
0010
1000
0001
1000
,
0001
0010
0010
0010
,
0001
1000
0100
0010
,
0001
1000
0100
0100
,
0010
0001
0100
0001
,
1000
0100
0100
0100
,
0010
0001
1000
0001
,
0000
1000
0100
0010
,
0001
1000
0100
0100
,
1000
0001
0100
0100
,
0001
1000
0010
1000
,
0001
1000
0100
0010
,
0001
0100
0010
1000
,
0001
0010
0100
0010
,
0001
1000
0010
1000
,
0001
1000
0001
0010
,
0100
0000
0000
0000
;
