#TITLE:Super Mario World;
#SUBTITLE:(Sky Theme);
#ARTIST:Koji Kondo;
#TITLETRANSLIT:;
#SUBTITLETRANSLIT:;
#ARTISTTRANSLIT:;
#GENRE:;
#CREDIT:Scott "Suko" Philipp;
#BANNER:SMW_Sky-bn.png;
#BACKGROUND:SMW_Sky-bg.png;
#LYRICSPATH:;
#CDTITLE:suko 9x1.png;
#MUSIC:SMW_Sky.mp3;
#OFFSET:-0.101;
#SAMPLESTART:20.080;
#SAMPLELENGTH:18.500;
#SELECTABLE:YES;
#BPMS:0.000=155.760;
#STOPS:;
#BGCHANGES:;
#KEYSOUNDS:;

//---------------dance-single - LOLWUT?----------------
#NOTES:
     dance-single:
     LOLWUT?:
     Edit:
     12:
     -1.000,-1.000,-1.000,-1.000,-1.000:
0000
0000
0000
0000
,
0001
0010
0001
0000
0001
0010
0000
0000
0001
0000
0001
0010
0000
0000
0001
0000
,
0000
0000
0001
0010
0001
0010
0000
0000
0001
1000
0001
1000
0000
0000
0010
0000
,
0000
0000
0001
0010
0001
0010
0000
1000
0001
0000
0010
0001
0000
0000
0010
0000
,
0000
0000
1000
0100
0010
0001
0100
0000
1001
0000
1100
0000
0110
0000
0011
0000
,
0000
0000
0000
0000
0010
0000
0001
0000
0010
0000
0001
0000
0010
0000
0000
0001
0000
0000
0000
0000
0000
1000
0000
0000
0001
0000
0000
0000
0000
0000
0010
0000
0000
0001
0000
0000
0000
0000
0000
0000
0000
0000
0010
0000
0000
0000
0000
0000
,
0000
0000
0000
0000
0000
0000
0001
0000
0010
0000
0001
0000
0010
0000
0000
0001
0000
0000
0000
0000
0000
1000
0000
0000
0001
0000
0000
0000
0000
0000
0010
0000
0000
0001
0000
0000
0000
0000
0000
0000
0000
0000
0010
0000
0000
0000
0000
0000
,
0000
0000
0000
0000
0000
0000
0001
0000
0010
0000
0001
0000
0010
0000
0000
0001
0000
0000
0000
0000
0000
1000
0000
0000
0001
0000
0000
0000
0000
0000
0010
0000
0000
0001
0000
0000
0000
0000
0000
0000
0000
0000
0010
0000
0000
0000
0000
0000
,
0000
1000
0100
0010
0000
1000
0100
0010
0001
0000
0001
0000
0001
0000
0000
0000
,
1001
0000
0010
0000
1001
0000
0000
0001
1000
0001
1000
0000
1001
0000
0000
0001
,
0010
0000
0000
0000
1000
0000
0000
0000
1000
0000
0000
0000
0100
0000
0010
0000
0001
0000
0000
0000
0000
0000
0001
0000
0000
0000
0000
0000
0000
0000
0001
0010
,
0001
0000
0000
0000
0000
0000
1000
0100
1000
0000
0000
0000
0000
0000
1000
0000
0100
0000
0010
0000
0000
0000
0001
0000
0000
0000
0000
0000
0000
0000
0001
0000
,
0010
0000
1000
0000
1000
0100
0010
0001
0000
0000
0000
0000
0000
0000
0000
0000
,
1001
0000
0010
0000
1001
0000
0000
0100
0010
0100
0000
0000
1001
0000
0000
0001
,
0010
0000
0000
0000
0000
0000
1000
0000
0000
0000
0000
0000
1000
0000
0100
0000
1000
0000
0100
0000
0000
0010
0000
0000
0001
0000
0000
0000
0000
0000
0000
0000
0000
0001
0000
0000
0000
0000
0000
0000
0000
0000
0000
0000
0000
0001
0000
0000
,
0010
0000
0000
0000
1000
0000
0000
1000
0100
0010
0000
0001
0000
0000
0000
0001
,
0010
0000
0000
0000
0000
0000
0100
0000
1000
0000
0100
0000
1000
0000
0000
0100
0000
0000
0010
0000
0000
0001
0000
0000
0000
0000
0000
0000
0000
0000
0000
0000
0000
0000
0000
0000
0000
0000
0000
0000
0000
0000
0000
0000
0000
0000
0000
0000
,
1000
0000
0000
0000
0001
1000
0001
0000
0000
0000
0000
0000
1000
0000
0000
0000
1000
0000
0000
0000
0001
1000
0001
0000
0000
0000
0000
0000
0000
0000
0000
0000
,
1000
0100
0010
0000
0001
0000
0100
1000
0000
0000
0000
0000
0000
0000
0000
0000
,
1000
0000
0000
0000
0100
1000
0100
0000
0000
0000
0000
0000
1000
0000
0000
0000
1000
0000
0000
0000
0100
0010
0001
0000
0000
0000
0000
0000
0000
0000
0000
0000
,
1000
0100
0010
0000
0001
0000
0000
0000
0000
0000
0000
0000
0000
0000
0000
0000
,
1000
0100
0010
0000
0000
0000
0000
1000
0100
0010
0000
0000
1001
0000
0000
0010
0000
0000
1001
0000
0000
0001
0010
0001
,
0010
0100
1000
0000
1000
0000
0100
0010
0000
0000
0000
0000
0000
0000
0000
0000
,
1001
0000
0000
0000
0000
0000
0100
0000
0000
0000
0000
0000
1001
0000
0000
0000
0000
0000
0010
0000
0000
0000
0000
0000
1001
0000
0000
0000
0000
0000
1000
0000
0100
0000
1000
0000
0100
0000
0000
0010
0000
0000
0001
0000
0000
0000
0000
0000
,
0100
0001
0100
0000
0001
0100
0001
0000
0000
0000
0001
0100
0001
0000
0000
0000
0001
0100
0001
0000
0000
0000
0001
0100
0001
0000
0000
0000
1000
0000
0000
0000
,
0000
0000
0000
0000
0000
0000
0000
0000
0000
0000
0010
0000
0001
0000
0010
0000
0001
0000
0010
0000
0000
0000
0000
0000
0001
0000
0000
0000
0000
0000
0001
0000
0000
0010
0000
0000
0000
0000
0000
0000
0000
0000
0001
0000
0000
0000
0000
0000
,
0000
0000
0000
0000
0000
0000
0001
0000
0010
0000
0001
0000
0010
0000
0001
0000
0000
0000
0000
0000
0000
0000
0000
0000
0001
0000
0000
1000
0000
0000
0001
0000
0000
1000
0000
0000
0000
0000
0000
0000
0000
0000
0010
0000
0000
0000
0000
0000
,
0000
0000
0000
0000
0000
0000
0001
0000
0010
0000
0001
0000
0010
0000
0001
0000
0000
0000
0000
0000
0000
1000
0000
0000
0001
0000
0000
0000
0000
0000
0010
0000
0000
0001
0000
0000
0000
0000
0000
0000
0000
0000
0010
0000
0000
0000
0000
0000
,
0000
0000
1000
0100
0010
0001
0100
0000
1001
0000
1100
0000
0110
0000
0011
0000
,
0000
0000
0000
0000
0000
0000
0001
0000
0010
0000
0001
0000
0010
0000
0001
0000
0000
0000
0000
0000
0000
1000
0000
0000
0001
0000
0000
0000
0000
0000
0010
0000
0000
0001
0000
0000
0000
0000
0000
0000
0000
0000
0010
0000
0000
0000
0000
0000
,
0000
0000
0000
0000
0000
0000
0001
0000
0010
0000
0001
0000
0010
0000
0001
0000
0000
0000
0000
0000
0000
1000
0000
0000
0001
0000
0000
0000
0000
0000
0010
0000
0000
0001
0000
0000
0000
0000
0000
0000
0000
0000
0010
0000
0000
0000
0000
0000
,
0000
0000
0000
0000
0000
0000
0001
0000
0010
0000
0001
0000
0010
0000
0001
0000
0000
0000
0000
0000
0000
1000
0000
0000
0001
0000
0000
0000
0000
0000
0010
0000
0000
0001
0000
0000
0000
0000
0000
0000
0000
0000
0010
0000
0000
0000
0000
0000
,
0000
1000
0100
0010
0000
1000
0100
0010
0001
0000
0001
0000
0001
0000
0000
0000
,
1001
0000
0010
0000
1001
0000
0000
0001
1000
0001
0010
0000
1001
0000
0000
0001
,
0010
0000
0000
0000
0000
0000
1000
0000
0000
0000
0000
0000
1000
0000
0100
0000
1000
0000
0100
0000
0000
0010
0000
0000
0001
0000
0000
0000
0000
0000
0000
0000
0000
0001
0000
0000
0000
0000
0000
0000
0000
0000
0000
0000
0000
0001
0000
0000
,
0010
0000
0000
0000
0000
0000
0000
0000
0000
0000
0000
0000
1000
0000
0000
0000
0000
0000
0000
0000
0000
1000
0000
0000
0100
0000
0000
0010
0000
0000
0000
0000
0000
0001
0000
0000
0000
0000
0000
0000
0000
0000
0010
0000
0001
0000
0010
0000
,
0001
0000
0000
0000
0000
0000
0001
0000
1000
0000
0001
0000
1000
0000
0000
0100
0000
0000
0010
0000
0000
0001
0000
0000
0000
0000
0000
0000
0000
0000
0000
0000
0000
0000
0000
0000
0000
0000
0000
0000
0000
0000
0000
0000
0000
0000
0000
0000
,
1001
0000
0010
0000
1001
0000
0100
0000
1001
0000
0010
0000
1001
0000
0000
0001
,
0010
0000
0000
0000
0000
0000
1000
0000
0000
0000
0000
0000
1000
0000
0000
0000
0000
0000
0100
0000
0000
0010
0000
0000
0001
0000
0000
0000
0000
0000
0000
0000
0000
0001
0000
0000
0000
0000
0000
0000
0000
0000
0001
0000
0010
0000
0001
0000
,
0010
0000
0000
0000
1000
0000
0000
1000
0100
0010
0000
0001
0000
0000
0000
0001
,
0010
0000
0000
0000
0000
0000
0100
0000
1000
0000
0100
0000
1000
0000
0000
0100
0000
0000
0010
0000
0000
0001
0000
0000
0000
0000
0000
0000
0000
0000
0000
0000
0000
0000
0000
0000
0000
0000
0000
0000
0000
0000
0000
0000
0000
0000
0000
0000
,
1000
0000
0000
0000
0001
1000
0001
0000
0000
0000
0000
0000
1000
0000
0000
0000
1000
0000
0000
0000
0001
1000
0001
0000
0000
0000
0000
0000
0000
0000
0000
0000
,
1000
0100
0010
0000
0001
0000
0100
1000
0000
0000
0000
0000
0000
0000
0000
0000
,
1000
0000
0000
0000
0100
1000
0100
0000
0000
0000
0000
0000
1000
0000
0000
0000
1000
0000
0000
0000
0100
1000
0100
0000
0000
0000
0000
0000
0000
0000
0000
0000
,
1000
0100
0010
0000
0001
0000
0000
0000
0000
0000
0000
0000
0000
0000
0000
0000
,
1001
0000
0000
0010
0000
0000
1001
0000
0000
0100
0000
0000
1001
0000
0000
0010
0000
0000
1001
0000
0000
0001
0010
0001
,
0010
0000
0000
0100
0000
0000
1000
0000
0000
0000
0000
0000
1000
0000
0000
0000
0000
0000
0100
0000
0000
0010
0000
0000
0000
0000
0000
0000
0000
0000
0000
0000
0000
0000
0000
0000
0000
0000
0000
0000
0000
0000
0000
0000
0000
0000
0100
0000
,
1000
0000
0000
0000
0000
0000
0100
0000
0000
0000
0000
0000
1000
0000
0000
0000
0000
0000
0010
0000
0000
0000
0000
0000
1000
0000
0000
0000
0000
0000
1000
0000
0100
0000
1000
0000
0100
0000
0000
0010
0000
0000
0001
0000
0000
0000
0000
0000
,
0100
0000
0001
0100
0000
0001
0100
0000
0001
0100
0000
0001
0100
0000
1000
0000
;

//---------------dance-single - S.Philipp----------------
#NOTES:
     dance-single:
     S.Philipp:
     Medium:
     6:
     0.481,0.413,0.345,0.000,0.093:
0000
0000
0000
0000
,
1000
0000
0001
0000
0010
0100
1000
0000
,
0001
0000
0100
0000
0010
1000
0100
0000
,
0010
0000
0001
0000
0100
0001
1000
0000
,
0010
0000
0100
0000
0001
0100
1000
0100
,
0000
0001
0000
0010
0000
0010
0000
0001
,
0000
0010
0000
1000
0000
1000
0000
0100
,
0000
1000
0010
0000
0100
0001
0000
0010
,
0000
1001
0000
1000
0100
0010
0001
0000
,
0011
0000
0011
0000
0001
0100
0010
0000
,
0010
0000
0100
0000
0001
0000
1000
0000
0100
0000
0000
1000
0000
0000
0000
0000
,
1001
0000
1001
0000
0001
0010
0100
0000
,
1000
0010
1000
0010
1000
0000
0000
0000
,
1010
0000
1001
0000
0001
0100
0001
0000
,
1000
0000
0100
0000
0010
0000
0001
0000
0010
0000
0000
0100
0000
0000
0000
0000
,
0110
0000
1001
0000
0001
0100
1000
0000
,
1000
0100
0010
0100
0001
0000
0000
0000
,
1000
0000
0000
0100
0000
0000
0010
0000
0001
0000
0000
0010
0000
0000
0000
0000
,
0001
0000
0100
0000
0010
0000
0000
0110
0000
0000
0000
0000
0000
0000
0000
0000
,
1000
0000
0000
0100
0000
0000
0010
0000
0001
0000
0000
0100
0000
0000
0000
0000
,
0010
1000
1010
0000
0000
0000
0000
0000
,
1000
0000
0100
0000
0010
0001
0010
0000
,
0100
1000
0100
1000
1100
0000
0000
0000
,
1000
0010
1000
0001
0010
0000
0100
1000
,
1001
0000
0000
0000
,
0000
1000
0100
0010
,
0000
0001
0100
0010
,
0000
1000
0100
0010
,
0000
0001
0001
0000
1000
0001
1000
0001
,
0000
0100
0100
0000
0010
1000
0000
1000
,
0000
0001
1000
0000
0001
1000
0000
0001
,
0000
1000
0100
0000
0010
0001
0000
0011
,
0000
0001
0000
0001
0010
0100
1000
0000
,
1100
0000
1100
0000
1000
0010
0100
0000
,
0100
0000
0010
0000
1000
0000
0001
0000
0010
0000
0000
0001
0000
0000
0000
0000
,
1001
0000
1001
0000
1000
0100
0010
0000
,
0001
0100
0001
0100
0001
0000
0000
0000
,
0101
0000
1001
0000
1000
0010
1000
0000
,
0001
0000
0010
0000
0100
0000
1000
0000
0100
0000
0000
0010
0000
0000
0000
0000
,
0110
0000
1001
0000
1000
0010
0001
0000
,
0001
0010
0100
0010
1000
0000
0000
0000
,
0001
0000
0000
0010
0000
0000
0100
0000
1000
0000
0000
0100
0000
0000
0000
0000
,
1000
0000
0010
0000
0100
0000
0000
0110
0000
0000
0000
0000
0000
0000
0000
0000
,
0001
0000
0000
0010
0000
0000
0100
0000
1000
0000
0000
0010
0000
0000
0000
0000
,
0100
0001
0101
0000
0000
0000
0000
0000
,
0001
0000
0010
0000
0100
1000
0100
0000
,
0010
0001
0010
0001
0011
0000
0000
0000
,
0001
0100
0001
1000
0100
0000
0010
0001
,
1001
0000
0000
0000
;

//---------------dance-single - S.Philipp----------------
#NOTES:
     dance-single:
     S.Philipp:
     Challenge:
     9:
     0.790,0.745,0.570,0.000,0.921:
0000
0000
0000
0000
,
0010
0001
0010
0000
0001
0010
0000
0000
0001
0000
0100
0001
0000
0000
0101
0000
,
0000
0000
0001
0010
0001
0100
0000
0000
0010
1000
0100
1000
0000
0000
1001
0000
,
0000
0000
1000
0100
1000
0100
0000
0010
0001
0000
1000
0001
0000
0000
1001
0000
,
0000
0000
1000
0100
0010
0001
1000
0000
1001
0000
0101
0000
0110
0000
1010
0000
,
0000
0000
0001
0010
0001
0010
0000
0001
1000
0000
0010
0100
0000
0000
0110
0000
,
0000
0000
0010
1000
0010
1000
0000
0010
1000
0000
0001
1000
0000
0000
1001
0000
,
0000
0000
0001
0010
0001
0010
0000
0100
1000
0000
0100
0010
0000
0000
0110
0000
,
0000
0010
0100
1000
0000
0001
0010
0100
1000
0000
0001
0000
1000
0000
0000
0000
,
1001
0000
0010
0000
0011
0000
0001
0000
1001
0000
1000
0000
1010
0000
0000
0010
,
0100
0000
0001
0000
1000
0000
0100
0010
0001
0000
0000
0001
0000
0000
0000
0001
,
0010
0000
0000
0000
0100
0000
0000
1000
0100
0010
0000
0001
0000
0000
0000
0001
,
0010
0000
0100
0000
1000
0100
0010
0001
0000
0000
0000
0000
0000
0000
0000
0000
,
1001
0000
0100
0000
1100
0000
1000
0000
1001
0000
0001
0000
0101
0000
0000
0100
,
0010
0000
1000
0000
0001
0000
0010
0100
1000
0000
0000
1000
0000
0000
0000
1000
,
0100
0000
0000
0000
0010
0000
0000
0001
0010
0100
0000
1000
0000
0000
0000
1000
,
0100
0000
0010
0000
0001
0010
0100
1000
0000
0000
0000
0000
0000
0000
0000
0000
,
1000
0000
0001
1000
0000
0000
0010
0000
0100
0000
0001
1000
0000
0000
0000
0000
,
1000
0100
0010
0000
0001
0000
0100
0001
0000
0000
0000
0000
0000
0000
0000
0000
,
1000
0000
0100
1000
0000
0000
0001
0000
1000
0000
0100
0010
0000
0000
0000
0000
,
0001
0010
0100
0000
1000
0000
0000
0000
0000
0000
0000
0000
0000
0000
0000
0000
,
1010
0000
0000
0000
0101
0000
0000
1000
0001
0100
0000
0001
0000
0000
0000
0001
,
0010
0100
1000
0000
1000
0000
0100
0010
0000
0000
0000
0000
0000
0000
0000
0010
,
0001
0000
0010
0000
0001
0000
0010
0000
0001
0000
0000
0001
0100
0010
1000
0000
,
0100
0000
1000
0100
0000
1000
0001
0000
1000
0100
0000
1000
0001
0000
1001
0000
,
0000
1000
0001
1000
0001
1000
0000
0000
0001
0000
0100
0010
0000
0000
0110
0000
,
0000
0000
0010
0100
0010
0100
0000
0000
0001
1000
0001
1000
0000
0000
1001
0000
,
0000
0000
1000
0100
1000
0100
0000
1000
0001
0000
0010
0100
0000
0000
0110
0000
,
0000
0000
1000
0100
0010
0001
0100
0000
0101
0000
1001
0000
1100
0000
1001
0000
,
0000
0000
1000
0100
1000
0100
0000
1000
0100
0000
0010
0100
0000
0000
0110
0000
,
0000
0000
0001
0010
0001
0010
0000
0001
1000
0000
0010
1000
0000
0000
1010
0000
,
0000
0000
0001
0010
0001
0010
0000
0001
1000
0000
0010
0100
0000
0000
0110
0000
,
0000
0010
1000
0100
0000
1000
0100
0010
0001
0000
1000
0000
1001
0000
0000
0000
,
1001
0000
0100
0000
1100
0000
1000
0000
1001
0000
0001
0000
0101
0000
0000
0100
,
0010
0000
1000
0000
0001
0000
0010
0100
1000
0000
0000
1000
0000
0000
0000
1000
,
0100
0000
0000
0000
0010
0000
0000
0001
0010
0100
0000
1000
0000
0000
0000
1000
,
0100
0000
0010
0000
0001
0010
0100
1000
0000
0000
0000
0000
0000
0000
0000
0000
,
1001
0000
0010
0000
0011
0000
0001
0000
1001
0000
1000
0000
1010
0000
0000
0010
,
0100
0000
0001
0000
1000
0000
0100
0010
0001
0000
0000
0001
0000
0000
0000
0001
,
0010
0000
0000
0000
0100
0000
0000
1000
0100
0010
0000
0001
0000
0000
0000
0001
,
0010
0000
0100
0000
1000
0100
0010
0001
0000
0000
0000
0000
0000
0000
0000
0000
,
0001
0000
1000
0001
0000
0000
0100
0000
0010
0000
1000
0001
0000
0000
0000
0000
,
0001
0010
0100
0000
1000
0000
0010
1000
0000
0000
0000
0000
0000
0000
0000
0000
,
0001
0000
0010
0001
0000
0000
1000
0000
0001
0000
0010
0100
0000
0000
0000
0000
,
1000
0100
0010
0000
0001
0000
0000
0000
0000
0000
0000
0000
0000
0000
0000
0000
,
0101
0000
0000
0000
1010
0000
0000
0001
1000
0010
0000
1000
0000
0000
0000
1000
,
0100
0010
0001
0000
0001
0000
0010
0100
0000
0000
0000
0000
0000
0000
0000
0100
,
1000
0000
0100
0000
1000
0000
0100
0000
1000
0000
0000
1000
0010
0100
0001
0000
,
0010
0000
0001
0010
0000
0001
1000
0000
0001
0010
0000
0001
1000
0000
1001
0000
;

//---------------dance-single - S.Philipp----------------
#NOTES:
     dance-single:
     S.Philipp:
     Hard:
     9:
     0.636,0.551,0.477,0.000,0.630:
0000
0000
0000
0000
,
1000
0000
0100
0000
0010
0001
0000
0000
0001
0000
0001
0100
0000
0000
1001
0000
,
0000
0000
4000
0400
0000
0000
3300
0000
0004
0040
0000
0000
0033
0000
0011
0000
,
0000
0000
0004
0400
0000
0000
0303
0000
0040
4000
0000
0000
3030
0000
1010
0000
,
0000
0000
1000
0100
0010
0000
0000
0000
0011
0000
0110
0000
1100
0000
1001
0000
,
0000
0000
0004
0040
0000
0000
0033
0000
0004
4000
0000
0000
3003
0000
1001
0000
,
0000
0000
0040
4000
0000
0000
3030
0000
0004
4000
0000
0000
3003
0000
1001
0000
,
0000
0000
0004
0040
0000
0000
0033
0000
0400
4000
0000
0000
3300
0000
1100
0000
,
0000
0000
1000
0100
0010
0000
0001
0010
0001
0000
1000
0000
0001
0000
0000
0001
,
0100
0000
0000
0100
0001
0000
0000
0001
0100
0000
0010
0000
1000
0000
0000
0010
,
1000
0000
0001
0000
1000
0000
0010
0000
1000
0000
0000
1010
0000
0000
0000
1000
,
0010
0000
0000
0010
1000
0000
0000
1000
0010
0000
0100
0000
0001
0000
0000
0100
,
0001
0000
1000
0000
0004
4000
0000
0000
3003
0000
0000
0000
0000
0000
0000
1000
,
0010
0000
0000
0010
0100
0000
0000
0100
0001
0000
0010
0000
0100
0000
0000
1000
,
0100
0000
0001
0000
0100
0000
1000
0000
0001
0000
0000
1001
0000
0000
0000
0001
,
0100
0000
0000
0100
0010
0000
0000
0010
1000
0000
0100
0000
1000
0000
0000
0010
,
1000
0000
0001
0000
4000
0004
0000
0000
3003
0000
0000
0000
0000
0000
0000
0000
,
1000
0000
0001
1000
0000
0000
0010
0000
0100
0000
0001
1000
0000
0000
0000
0000
,
1000
0000
0100
0000
0010
0000
0001
0100
0000
0000
0000
0000
0000
0000
0000
0000
,
0001
0000
1000
0001
0000
0000
0100
0000
0010
0000
1000
0001
0000
0000
0000
0000
,
0001
1000
0001
0000
1001
0000
0000
0000
0000
0000
0000
0000
0000
0000
0000
0000
,
1010
0000
0000
0000
0101
0000
0000
0001
0100
0010
0000
1000
0000
0000
0000
0001
,
0010
0100
1000
0000
0100
0000
1000
0100
0000
0000
0000
0000
0000
0000
0000
0010
,
0001
0000
0010
0000
0001
0000
0010
0000
0001
0000
0000
0001
0100
0010
1000
0000
,
0100
0000
4000
0400
0000
0000
0000
0000
0000
0000
0000
0000
3300
0000
0000
0000
,
0000
4000
0004
0000
0000
3003
0000
0000
0001
0000
0100
0010
0000
0000
0110
0000
,
0000
0000
0040
0400
0000
0000
0330
0000
0010
0000
1000
0001
0000
0000
1001
0000
,
0000
0000
4000
0400
0000
0000
3300
0000
0100
0000
0010
0001
0000
0000
0011
0000
,
0000
0000
0004
0040
0000
0000
0033
0000
0011
0000
0011
0000
0011
0000
0011
0000
,
0000
0000
0004
4000
0000
0000
3003
0000
1000
0000
0010
0100
0000
0000
0110
0000
,
0000
0000
0400
0040
0000
0000
0330
0000
0100
0000
0001
1000
0000
0000
1001
0000
,
0000
0000
0004
0040
0000
0000
0033
0000
0010
0000
0100
1000
0000
0000
1100
0000
,
0000
0000
1000
0100
0010
0000
0100
0000
0010
0000
0001
0000
0011
0000
0000
0000
,
1001
0000
0000
0000
0101
0000
0000
0001
0100
0000
0010
0000
1000
0000
0000
1000
,
0100
0000
1000
0000
0001
0000
1000
0000
0100
0000
0000
0110
0000
0000
0000
0010
,
0001
0000
0000
0000
0011
0000
0000
0001
0100
0000
0001
0000
1000
0000
0000
0001
,
0100
0000
0010
0000
4000
0040
0000
0000
3030
0000
0000
0000
0000
0000
0000
0000
,
1001
0000
0000
0000
1010
0000
0000
1000
0010
0000
0100
0000
0001
0000
0000
0001
,
0010
0000
0001
0000
1000
0000
0001
0000
0010
0000
0000
0011
0000
0000
0000
0100
,
1000
0000
0000
0000
1100
0000
0000
0100
1000
0000
0010
0000
1000
0000
0000
0100
,
0010
0000
0001
0000
0040
0004
0000
0000
0033
0000
0000
0000
0000
0000
0000
0000
,
0001
0000
1000
0001
0000
0000
0100
0000
0010
0000
1000
0010
0000
0000
0000
0000
,
1000
0001
1000
0000
0100
0000
0010
0001
0000
0000
0000
0000
0000
0000
0000
0000
,
0001
0000
0010
0001
0000
0000
1000
0000
0001
0000
0010
0100
0000
0000
0000
0000
,
1000
0100
0010
0000
0001
0000
0000
0000
0000
0000
0000
0000
0000
0000
0000
0000
,
0101
0000
0000
0000
1010
0000
0000
0001
1000
0010
0000
1000
0000
0000
0000
4000
,
0004
0000
3003
0000
0001
0000
0010
0100
0000
0000
0000
0000
0000
0000
0000
0010
,
0100
0000
0010
0000
0100
0000
0010
0000
0100
0000
0000
0010
0001
1000
0100
0000
,
0010
0000
0004
0040
0000
0000
0000
0000
0000
0000
0000
0000
0000
0000
0033
0000
;

//---------------dance-single - S.Philipp----------------
#NOTES:
     dance-single:
     S.Philipp:
     Easy:
     3:
     0.322,0.254,0.000,0.000,0.000:
0000
0000
0000
0000
,
1000
0001
0010
0100
,
0001
0100
0010
0100
,
0010
0001
0100
0001
,
0010
0100
0001
0100
,
0100
0001
0010
0010
,
0001
0010
1000
1000
,
0100
0010
0100
0001
,
0010
0001
0100
0001
,
0001
0001
0001
0010
,
0010
0001
0100
1000
,
0001
0001
0001
0010
,
1000
0010
0010
0000
,
0010
0001
0001
0001
,
1000
0010
0001
0100
,
0010
0001
0001
0100
,
1000
0010
0001
0000
,
1000
0100
0001
0010
,
0001
0010
0010
0000
,
1000
0100
0001
0100
,
0010
0010
0000
0000
,
1000
0100
0010
0001
,
0100
0100
0100
0000
,
1000
0010
0001
0100
,
0001
0000
0000
0000
,
0000
1000
0100
0010
,
0000
0001
0100
0010
,
0000
1000
0100
0010
,
0000
0001
1000
0001
,
0001
0100
0010
1000
,
1000
0001
0001
1000
,
0001
0100
0010
0001
,
0001
0001
0001
0100
,
0100
0100
1000
0010
,
0100
0010
0001
0001
,
0001
0001
1000
0010
,
0001
0001
0001
0000
,
0001
0001
1000
0010
,
0001
0010
0100
0010
,
0010
0001
1000
0001
,
0001
0010
0010
0000
,
0001
0010
0100
0100
,
1000
0010
0010
0000
,
0001
0010
0100
0010
,
0100
0001
0000
0000
,
0001
0010
0100
0100
,
0010
0001
0001
0000
,
0001
0001
0100
0010
,
0001
0000
0000
0000
;

//---------------dance-single - S. Philipp----------------
#NOTES:
     dance-single:
     S. Philipp:
     Beginner:
     2:
     0.240,0.223,0.000,0.000,0.000:
0000
0000
0000
0000
,
1000
0001
0000
0100
,
0001
0000
0010
0100
,
0000
0001
0100
0001
,
0000
0100
0001
0100
,
0000
0001
0000
0010
,
0001
0010
1000
0000
,
0100
0010
0000
0001
,
0010
0000
0100
0001
,
0000
0001
0001
0000
,
0010
0001
0100
0000
,
0001
0000
0000
0010
,
1000
0000
0010
0000
,
0010
0001
0000
0000
,
1000
0010
0001
0100
,
0010
0001
0000
0100
,
1000
0010
0001
0000
,
1000
0100
0000
0010
,
0001
0000
0010
0000
,
1000
0100
0001
0000
,
0010
0000
0000
0000
,
1000
0100
0010
0001
,
0000
0100
0100
0000
,
1000
0010
0001
0000
,
0001
0000
0000
0000
,
0000
1000
0100
0010
,
0000
0001
0100
0010
,
0000
1000
0100
0010
,
0000
0001
1000
0001
,
0000
0100
0010
1000
,
0000
0001
0001
1000
,
0000
0100
0010
0001
,
0000
0001
0000
0100
,
0100
0000
1000
0010
,
0100
0000
0001
0000
,
0001
0000
1000
0010
,
0000
0001
0000
0000
,
0000
0001
1000
0010
,
0001
0000
0100
0010
,
0000
0001
1000
0001
,
0000
0010
0010
0000
,
0001
0010
0100
0000
,
1000
0010
0010
0000
,
0001
0010
0100
0010
,
0100
0001
0000
0000
,
0001
0010
0100
0000
,
0010
0001
0000
0000
,
0001
0000
0100
0010
,
0001
0000
0000
0000
;
