#TITLE:Super Driver;
#SUBTITLE:(Theme from Haruhi Suzumiya);
#ARTIST:Aya Hirano;
#TITLETRANSLIT:;
#SUBTITLETRANSLIT:;
#ARTISTTRANSLIT:;
#GENRE:;
#CREDIT:Scott "Suko" Philipp;
#BANNER:SuperDriver-bn.png;
#BACKGROUND:SuperDriver-bg.png;
#LYRICSPATH:;
#CDTITLE:suko 9x1.png;
#MUSIC:Super Driver.ogg;
#OFFSET:-0.030;
#SAMPLESTART:44.398;
#SAMPLELENGTH:19.190;
#SELECTABLE:YES;
#BPMS:0.000=200.000;
#STOPS:;
#BGCHANGES:2.500=Super Driver.avi=1.000=1=0=1===CrossFade==,
300.000=SuperDriver-bg.png=1.000=1=0=1===CrossFade==,
99999=-nosongbg-=1.000=0=0=0 // don't automatically add -songbackground-
;
#KEYSOUNDS:;

//---------------dance-single - S. Philipp----------------
#NOTES:
     dance-single:
     S. Philipp:
     Challenge:
     9:
     0.715,0.791,0.490,0.348,0.011:
0000
0000
0000
0000
,
0000
0000
0000
0000
,
0000
0000
0010
0010
,
1000
0100
0010
0001
0010
0000
0001
0010
,
0100
1000
0100
0000
1000
0000
1000
0000
,
0010
0100
0001
1000
0000
1000
0002
0000
,
0000
0103
0010
1000
0100
0000
0100
0000
,
0010
0100
1000
0001
0100
0010
0200
0000
,
0010
0310
1100
0101
,
1001
0000
0000
0000
0100
0001
1000
0100
,
0010
0000
0100
0000
1000
0001
0100
1000
,
0100
0000
0001
0000
0010
0100
1000
0010
,
0100
0000
0001
0000
1000
0100
0010
0000
,
0110
0110
1100
1100
,
0011
0011
1100
1001
,
0110
0001
0100
0010
,
1000
0000
1100
0000
0100
0010
0001
0010
,
0001
0000
0101
0000
0100
0001
1000
0001
,
0100
0000
1010
0000
1000
0100
0001
0100
,
0010
0000
0101
0000
0100
1000
0100
0001
,
0100
0000
0110
0000
1000
0001
0100
0000
,
0110
0110
1100
1100
,
1010
1010
0101
0101
,
1000
0000
0001
0000
0100
0010
0001
0010
,
0001
0000
0101
0000
0100
0001
1000
0000
,
1000
0100
0001
0100
0001
0100
1000
0100
,
1000
0010
0100
0001
0010
0000
0010
0000
,
0100
1000
0001
0100
1000
0100
0001
0010
,
0100
1000
0001
0100
0010
0000
0010
0000
,
0100
0001
0100
1000
0100
0001
0010
0100
,
0010
0001
1000
0100
0010
0000
0010
0000
,
2200
0000
3300
0022
0000
0033
0000
0000
,
0200
0000
0000
0001
0000
0000
1300
0000
,
0220
0000
0330
0000
0000
0001
0010
0200
,
0000
0000
0300
0000
,
1100
1MMM
0011
MMM1
,
4000
0004
0000
0000
0000
0000
0000
0000
0000
0000
0000
0000
3003
0000
0000
0000
,
0010
1000
0001
0010
0100
1000
0100
0010
,
0001
1000
0010
1000
0001
0100
0001
1000
,
0010
0100
1000
0100
0010
0001
0010
0100
,
0001
0010
0001
0010
0100
1000
0100
0010
,
0100
0000
0202
0303
0100
0000
0022
0033
,
0001
0000
2002
3003
1000
0000
2020
3030
,
0020
0000
0000
0030
0000
0000
0100
0000
,
0001
1000
0000
0100
0000
1001
1001
0000
,
1000
0100
0010
0100
1000
0100
0010
0100
,
1000
0100
0010
0001
0100
0001
1000
0001
,
0100
0001
1000
0001
0100
1000
0100
0001
,
0100
1000
0100
0001
0100
1000
0100
0000
,
0100
0101
0001
0011
,
0010
0110
0100
1100
,
0220
0000
0000
0330
0000
0000
0010
0000
,
0001
0100
0010
2000
0000
3000
0000
0000
,
1000
0100
0010
0001
0100
0010
1000
0100
,
0010
0001
0100
0010
0100
0000
0100
0000
,
0001
0100
1000
0100
0001
1000
0010
1000
,
0001
0100
1000
0001
0010
0000
0010
0000
,
1000
0100
0010
0001
0100
0010
1000
0100
,
0010
0001
0100
0010
1000
0000
1000
0000
,
0100
0001
1000
0010
0001
1000
0100
0002
,
0000
0000
0003
0000
,
0010
0001
0010
0001
0100
0001
0100
0001
,
1000
0001
1000
0001
1000
0010
1000
0010
,
1000
0001
0010
0100
1000
0010
0100
0001
,
0020
0000
0100
0030
0001
0000
1000
0000
,
1000
0100
0010
0100
1000
0010
0100
0001
,
1000
0100
1000
0010
1000
0001
0100
0000
,
2002
0000
3003
0000
0220
0330
0000
2002
,
0000
0000
0000
0000
0000
3003
0000
0000
,
1000
0001
0100
2000
0000
3100
0001
0000
,
0000
1000
0010
0001
0010
0000
1000
0000
,
0010
0100
0001
0010
0100
1000
0020
0000
,
0000
0000
0000
0000
,
0000
0000
0000
0000
,
0000
0000
0000
0000
,
0000
0000
0000
0000
0000
0000
0000
0000
0000
0000
0000
0000
4030
0004
0000
0000
,
0000
0000
3003
0000
;

//---------------dance-single - S. Philipp----------------
#NOTES:
     dance-single:
     S. Philipp:
     Hard:
     8:
     0.530,0.618,0.599,0.381,0.000:
0000
0000
0000
0000
,
0000
0000
0000
0000
,
0000
0000
0010
0010
,
0000
0000
0000
0000
,
0000
0000
1000
1000
,
0010
0100
0001
0010
0000
0100
2000
0000
,
0000
3001
0100
0010
,
1000
0100
0010
0001
0000
0100
0020
0000
,
0000
0000
0000
0030
0101
0000
1001
0000
,
1100
0000
1000
0000
,
0010
0000
0100
0000
0001
0000
0010
0100
,
1000
0000
0010
0100
,
0001
0000
0100
0010
1000
0000
0000
0000
,
1100
0100
0101
0100
,
0110
0010
0011
0010
,
1010
0010
0100
1000
,
0001
0000
1000
0100
,
0220
0330
0001
0000
,
1000
0000
0001
0000
0010
0000
0100
1000
,
0001
0000
0010
0100
,
0010
0000
1000
0001
,
0101
0001
0011
0001
,
1001
1000
1010
1000
,
1100
1000
0100
0010
,
0001
0000
1000
0001
,
1000
0100
0001
0000
0100
1000
0010
0000
,
1000
0100
0010
0000
0110
0000
0100
0000
,
1000
0100
0010
0000
0001
1000
0010
0100
,
0002
0003
1000
1000
,
0001
0010
1000
0000
0010
0001
0100
0000
,
0001
0010
0100
0000
1100
0000
0001
0000
,
1000
0000
0000
2000
0000
0000
3000
0000
,
0001
0000
0000
0002
0000
0000
0003
0000
,
0202
0000
0303
0000
0000
1000
0100
0002
,
0000
0000
0003
0000
,
1100
0100
0101
0100
,
1000
0100
0010
0001
0010
0000
0000
0000
,
1001
0000
0001
0000
1000
0000
0001
0100
,
0000
0010
0000
0000
1000
0000
0100
0000
,
0010
0000
0001
0000
1000
0000
0001
0100
,
0000
0010
0000
0000
0100
0000
0010
0000
,
0000
2200
3300
0202
,
0303
0220
0330
2002
,
3003
1000
0001
1000
,
0001
0010
0000
0100
0000
0000
0000
0000
,
1001
0000
0001
0000
1000
0000
0100
0010
,
0000
0001
0000
0000
1000
0000
0010
0000
,
0100
0000
0001
0000
0100
0000
0010
1000
,
0000
0100
0000
0000
0010
0000
0100
0000
,
0000
2020
3030
0022
,
0033
0202
0303
2200
,
3300
0010
0100
0010
,
1000
0100
0010
0001
0000
0000
0000
0000
,
0011
0010
1010
0010
,
0110
0100
1100
0100
,
0110
0010
0011
0010
,
0220
0000
0330
0000
,
0101
0001
0011
0001
,
1001
1000
1010
0010
,
1100
0000
0100
0000
1000
0100
0010
0002
,
0000
0000
0003
0000
,
1001
1001
0101
0101
,
0110
0110
1010
1010
,
0010
0000
0100
0000
0010
0100
0001
2000
,
0000
3001
0100
0010
,
1000
0110
0001
1100
,
0010
0101
1000
1010
,
0101
0000
0000
0000
0010
0100
0000
0220
,
0000
0000
0330
0000
,
1000
0100
0010
0001
0000
0100
0020
0000
,
0000
0130
0001
0010
,
0001
0100
0010
0001
0000
2000
0002
0000
,
0000
0000
0000
0000
,
0000
0000
0000
0000
,
0000
0000
0000
0000
,
0000
0000
0000
3003
;

//---------------dance-single - S. Philipp----------------
#NOTES:
     dance-single:
     S. Philipp:
     Medium:
     5:
     0.451,0.536,0.239,0.348,0.000:
0000
0000
0000
0000
,
0000
0000
0000
0000
,
0000
0000
0010
0010
,
0000
0000
0000
0000
,
0000
0000
1000
1000
,
0010
0100
0001
2000
,
3000
0000
0100
0100
,
1000
0100
0010
0001
0000
0001
2000
0000
,
0000
3000
0001
0001
,
0100
0000
0010
0000
,
1000
1000
0001
0010
,
0100
0000
0010
0100
,
1000
0000
0001
1000
,
0110
0110
1001
1001
,
0110
0110
1001
1001
,
0010
0010
0100
0100
,
0001
0001
0000
0000
,
0110
0000
1001
0000
,
1000
0000
0001
0000
0010
0000
0100
1000
,
0001
0000
0010
0100
,
0010
0000
1000
0001
,
0100
0100
0100
0100
,
0010
0010
0010
0010
,
0100
0001
1000
0100
,
0020
0030
0000
0000
,
1000
0100
1000
0000
0001
1000
0001
0000
,
0001
0100
0001
0000
0010
0000
0010
0000
,
1000
0010
1000
0000
0001
1000
0001
2000
,
0000
3000
0001
0001
,
0010
0100
0010
0000
0010
0001
0010
0000
,
0001
1000
0001
0000
0100
0000
0100
0000
,
0001
0000
0000
2000
0000
0000
3000
0000
,
0001
0000
0000
0002
0000
0000
0003
0000
,
0202
0000
0303
0000
0000
1000
0100
0020
,
0000
0000
0030
0000
,
0001
0001
1000
1000
,
0001
0010
0100
1000
0000
0000
0000
0000
,
0001
0000
0001
0000
1000
0000
0001
0100
,
0000
0010
0000
0000
1000
0000
0100
0000
,
0010
0000
0001
0000
1000
0000
0001
0100
,
0000
0010
0000
0000
0100
0000
0010
0000
,
0000
2200
3300
0202
,
0303
0220
0330
2002
,
3003
0000
0000
1000
,
0001
0010
0000
0100
0000
0000
0000
0000
,
0001
0000
0001
0000
1000
0000
0100
0010
,
0000
0001
0000
0000
1000
0000
0010
0000
,
0100
0000
0001
0000
0100
0000
0010
1000
,
0000
0100
0000
0000
0010
0000
0100
0000
,
0000
2020
3030
0022
,
0033
0202
0303
2200
,
3300
0010
0100
0010
,
1000
0100
0010
0001
0000
0000
0000
0000
,
1000
1000
1000
1000
,
0001
0001
0001
0001
,
0010
0010
0010
0010
,
0100
0100
0100
0100
,
1000
1000
1000
1000
,
0010
0010
0010
0010
,
0100
0000
0100
0000
0100
0000
0100
0002
,
0000
0003
0000
0000
,
0001
1000
0001
1000
,
0100
0010
0100
0010
,
0001
0000
1000
0000
0001
0000
1000
0002
,
0000
0003
0000
0000
,
1000
0001
1000
0001
,
0010
0100
0010
0100
,
0110
0000
0000
0000
1001
0000
0000
0220
,
0000
0330
0000
0000
,
1000
0100
0010
0001
0000
0100
0020
0000
,
0030
0100
0100
0100
,
0001
1000
0001
1000
0000
0002
2000
0000
,
0000
0000
0000
0000
,
0000
0000
0000
0000
,
0000
0000
0000
0000
,
0000
0000
0000
3003
;

//---------------dance-single - S. Philipp----------------
#NOTES:
     dance-single:
     S. Philipp:
     Easy:
     4:
     0.305,0.490,0.283,0.141,0.000:
0000
0000
0000
0000
,
0000
0000
0000
0000
,
0000
0000
0010
0010
,
0000
0000
0000
0000
,
0000
0000
1000
1000
,
0000
0000
0000
0000
,
0000
0000
0000
0000
,
0000
0000
0000
0000
,
0000
0000
0000
0000
,
0001
0000
0010
0000
,
0100
0000
1000
0000
,
0001
0000
0000
0000
,
1000
0000
0000
0000
,
1001
0000
0110
0000
,
1001
0000
0110
0000
,
1001
0000
0000
0000
,
1001
0000
0000
0000
,
1000
0000
0001
0000
,
0010
0001
1000
0000
,
0001
0000
0000
0100
,
0010
0000
0000
0000
,
0001
1000
0001
1000
,
0010
0100
0010
0100
,
0000
0000
0000
0000
,
0000
0000
0000
0000
,
1000
0100
0010
0000
,
1000
0100
0010
0000
,
0001
0010
0100
0000
,
0002
0000
0003
0000
,
0001
0001
0001
0001
,
1000
1000
1000
1000
,
1001
0000
0000
1001
0000
0000
0000
0000
,
0110
0000
0000
0110
0000
0000
0000
0000
,
2002
0000
0000
3003
0000
1000
0001
2000
,
0000
0000
3000
0000
,
1001
0000
1001
0000
,
1001
0000
0000
0000
,
0010
0010
0010
0000
,
1000
1000
1000
0000
,
0001
0001
0001
0000
,
0100
0100
0100
0000
,
0000
1001
0000
0110
,
0000
1001
0000
0220
,
0000
0330
0000
0000
,
1000
0001
0000
1000
0000
0000
0000
0000
,
1000
0100
0010
0000
,
1000
0100
0010
0000
,
0001
0010
0100
0000
,
0001
0010
0100
0000
,
0000
1001
0000
0110
,
0000
1001
0000
0110
,
0000
1001
0000
1000
,
0001
1000
0001
0000
,
1000
1000
1000
1000
,
0001
0001
0001
0001
,
0100
0100
0100
0100
,
0200
0000
0300
0000
,
0010
0010
0010
0010
,
1000
1000
1000
1000
,
0001
0001
0001
0001
,
0002
0000
0003
0000
,
1000
0100
0010
0000
,
1000
0100
0010
0000
,
0001
0010
0100
1000
,
0002
0000
0003
0000
,
1000
0100
0010
0000
,
1000
0100
0010
0000
,
1001
0000
0000
0000
0110
0000
0000
2002
,
0000
3003
0000
0000
,
1000
0001
1000
0002
,
0003
0100
0010
0100
,
0001
0000
0001
2000
,
0000
0000
0000
0000
,
0000
0000
0000
0000
,
0000
0000
0000
0000
,
3000
0000
0000
0000
;

//---------------dance-single - S. Philipp----------------
#NOTES:
     dance-single:
     S. Philipp:
     Beginner:
     2:
     0.215,0.273,0.000,0.000,0.000:
0000
0000
0000
0000
,
0000
0000
0000
0000
,
0000
0000
0010
0010
,
0000
0000
0000
0000
,
0000
0000
1000
1000
,
0000
0000
0000
0000
,
0000
0000
0000
0000
,
0000
0000
0000
0000
,
0000
0000
0000
0000
,
0001
0000
0010
0000
,
0100
0000
1000
0000
,
0001
0000
0000
0000
,
1000
0000
0000
0000
,
0001
0000
0010
0000
,
0001
0000
0010
0000
,
0001
0000
0000
0000
,
0001
0000
0000
0000
,
1000
0000
0001
0000
,
0010
0001
1000
0000
,
0001
0000
0000
0100
,
0010
0000
0000
0000
,
0001
1000
0001
1000
,
0010
0100
0010
0100
,
0000
0000
0000
0000
,
0000
0000
0000
0000
,
1000
0100
0010
0000
,
1000
0100
0010
0000
,
0001
0010
0100
0000
,
0001
0000
0000
0000
,
0001
0000
0001
0000
,
1000
0000
1000
0000
,
0001
0000
0001
0000
,
0010
0000
0010
0000
,
0001
0000
0000
0001
,
1000
0000
0000
0000
,
0001
0000
0001
0000
,
0001
0000
0000
0000
,
0010
0010
0010
0000
,
1000
1000
1000
0000
,
0001
0001
0001
0000
,
0100
0100
0100
0000
,
0000
0001
0000
0010
,
0000
0001
0000
0010
,
0000
0000
0000
0000
,
1000
0001
1000
0000
,
1000
0100
0010
0000
,
1000
0100
0010
0000
,
0001
0010
0100
0000
,
0001
0010
0100
0000
,
0000
0001
0000
0010
,
0000
0001
0000
0010
,
0000
0001
0000
1000
,
0001
1000
0001
0000
,
1000
0000
1000
0000
,
0001
0000
0001
0000
,
0100
0000
0100
0000
,
0100
0000
0000
0000
,
0010
0000
0010
0000
,
1000
0000
1000
0000
,
0001
0000
0001
0000
,
0001
0000
0000
0000
,
1000
0100
0010
0000
,
1000
0100
0010
0000
,
0001
0010
0100
1000
,
0001
0000
0000
0000
,
1000
0100
0010
0000
,
1000
0100
0010
0000
,
0001
0000
0010
0000
,
0001
0000
0000
0000
,
1000
0001
1000
0000
,
0000
0100
0010
0100
,
0000
0000
0001
1000
;
