#TITLE:Summer Party;
#SUBTITLE:;
#ARTIST:Smile.DK;
#TITLETRANSLIT:;
#SUBTITLETRANSLIT:;
#ARTISTTRANSLIT:;
#GENRE:;
#CREDIT:Scott "Suko" Philipp;
#BANNER:summer_party-bn.png;
#BACKGROUND:summer_party-bg.png;
#LYRICSPATH:;
#CDTITLE:;
#MUSIC:Summer Party.mp3;
#OFFSET:-0.015;
#SAMPLESTART:51.400;
#SAMPLELENGTH:14.500;
#SELECTABLE:YES;
#BPMS:0.000=135.000;
#STOPS:;
#BGCHANGES:;
#KEYSOUNDS:;

//---------------dance-single - S. Philipp----------------
#NOTES:
     dance-single:
     S. Philipp:
     Challenge:
     9:
     0.719,0.787,0.307,0.568,0.599:
0000
0000
0000
0000
,
0000
0000
0000
0000
,
0000
0000
0000
0000
,
0000
0000
0000
0000
,
0000
0000
0000
0000
,
1000
0000
0001
0100
0000
0010
0000
1000
,
0010
0100
0001
0010
0200
0300
0000
0000
,
1000
0010
0100
0001
0010
0000
0100
1000
,
0010
0100
0001
0000
0110
0000
0000
0000
,
1000
0001
0000
0001
1000
0000
1000
0010
0000
0010
0100
0000
0001
0000
0001
0000
,
0001
1000
0000
1000
0001
0000
0001
0010
0000
0010
0100
0000
1000
0001
1000
0001
,
1000
0010
0000
0010
0100
0000
0100
0001
0000
0001
1000
0000
0100
0000
0100
0000
,
0100
0010
0000
0010
0100
0000
0100
1000
0000
1000
0001
0000
0001
0100
0001
0100
,
0001
1000
0000
1000
0001
0000
0001
0100
0000
0100
0010
0000
1000
0000
1000
0000
,
1000
0001
0000
0001
1000
0000
1000
0100
0000
0100
0010
0000
0001
1000
0001
1000
,
0001
0100
0000
0100
0010
0000
0010
1000
0000
1000
0001
0000
0010
0000
0010
0000
,
0010
0100
0000
0100
0010
0000
0010
0001
0000
0001
1000
0000
0001
0000
0000
0000
,
0001
0100
0110
0000
0100
1000
1100
0000
,
0100
0010
0101
0001
1000
0000
1001
0000
,
1000
0000
0001
0100
0000
0000
0000
0000
0001
0000
0010
0001
0000
0000
0000
0000
,
0001
0010
0110
0100
0010
0000
1100
0000
,
1000
0000
0100
0010
0000
0000
0000
0000
0100
0000
1000
0100
0000
0000
0000
0000
,
1000
0001
1001
0100
0001
0000
0101
0000
,
0100
0000
0001
1000
0000
0000
0000
0000
1000
0000
0010
1000
0000
0000
0000
0000
,
1000
0001
1001
1000
0100
0000
2200
3300
,
0000
0000
2000
3000
0020
0030
0200
0300
0002
0003
0000
0010
0000
0000
0220
0000
,
0000
0000
0000
0330
,
0000
0000
0020
0030
0002
0003
0200
0300
0020
0030
0000
0100
0000
0000
0220
0000
,
0000
0000
0000
0330
,
0001
1000
0000
1000
0001
0000
0001
0100
0000
0100
0010
0000
1010
0000
1010
0000
,
1000
0001
0000
0001
1000
0000
1000
0100
0000
0100
0010
0000
0011
0000
0011
0000
,
0001
0100
0000
0100
0010
0000
0010
1000
0000
1000
0100
0000
1100
0000
1100
0000
,
0100
0010
0000
0010
0001
0000
0001
1000
0000
1000
0010
0000
1010
0000
1010
0000
,
1000
0001
0000
0001
1000
0000
1000
0010
0000
0010
0100
0000
0101
0000
0101
0000
,
0001
1000
0000
1000
0001
0000
0001
0010
0000
0010
0100
0000
1100
0000
0000
0000
,
2000
3200
0320
0032
0203
0300
0020
2030
,
3200
0320
0032
0203
0320
0030
0000
0000
,
1000
0001
1000
0001
1000
0000
0010
1000
0010
1000
0010
0000
0100
0000
0100
0000
,
0001
1000
0001
1000
0001
0000
0100
0001
0100
0001
0100
0000
0101
0000
1001
0000
,
0001
0010
0100
1000
0010
0000
0100
0010
1000
0001
0010
0000
0100
0000
0100
0000
,
1000
0001
1000
0001
1000
0000
0010
1000
0010
1000
0010
0000
1010
0000
1001
0000
,
0010
1000
0100
1000
0010
0000
0100
0001
0010
0001
0100
0000
0110
0000
0110
0000
,
0100
0001
0010
0001
0100
0000
0010
1000
0100
1000
0010
0000
1001
0000
1001
0000
,
1000
0100
0010
0001
0100
0000
0010
0100
0001
1000
0100
0000
0010
0000
0010
0000
,
0001
1000
0001
1000
0001
0000
0100
0001
0100
0001
0100
0000
0101
0000
0000
0000
,
0010
0000
1000
0100
0000
0000
0000
0000
1000
0000
0020
0230
0300
0000
0000
0000
,
0010
1000
0100
0001
0010
1000
0200
0300
,
0010
0000
0001
1000
0000
0000
0000
0000
1000
0000
0020
0230
0300
0000
0000
0000
,
0010
1000
0100
0001
0010
1000
0200
0300
,
0010
0000
0001
0010
0000
0000
0000
0000
0001
0000
0100
0010
0000
0000
0000
0000
,
2000
3200
2300
3002
0023
0030
0200
0300
,
1000
0000
0001
0010
0000
0000
0000
0000
0001
0000
1000
0010
0000
0000
0000
0000
,
0020
0230
0302
2003
3020
0030
0200
0300
,
0000
0000
0100
0000
0010
0000
0100
0000
0001
0000
0000
2000
0000
3000
0200
0000
,
0000
0000
0000
0000
0000
0000
0000
0000
0000
0000
0320
0030
0200
0300
2000
0000
,
3000
0000
0010
0000
0100
0000
0001
0000
0100
0000
0000
0020
0000
0030
2000
0000
,
0000
0000
0000
3000
,
0001
1000
0000
1000
0001
0000
0001
0100
0000
0100
0010
0000
1000
0000
1000
0000
,
1000
0001
0000
0001
1000
0000
1000
0100
0000
0100
0010
0000
0001
0010
0001
0010
,
0001
0100
0000
0100
0010
0000
0010
1000
0000
1000
0001
0000
0010
0000
0010
0000
,
0010
0100
0000
0100
0010
0000
0010
0001
0000
0001
1000
0000
1000
0010
1000
0010
,
1000
0001
0000
0001
1000
0000
1000
0010
0000
0010
0100
0000
0001
0000
0001
0000
,
0001
1000
0000
1000
0001
0000
0001
0010
0000
0010
0100
0000
1000
0000
0000
0000
,
0002
0023
0230
2300
3020
0030
0200
0302
,
0023
0230
2300
3020
0230
0300
0000
0000
,
0001
1000
0001
1000
0001
0000
0100
0001
0100
0001
0100
0000
0110
0000
0110
0000
,
0100
0001
0010
0001
0100
0000
0010
1000
0100
1000
0010
0000
1001
0000
1001
0000
,
1000
0100
0010
0001
0100
0000
0010
0100
0001
1000
0100
0000
0010
0000
0010
0000
,
0001
1000
0001
1000
0001
0000
0100
0001
0100
0001
0100
0000
0101
0000
1001
0000
,
2000
0000
3100
0002
0003
0100
0000
2000
,
3200
0320
0032
0203
0320
0030
0000
0000
,
1000
0100
0010
0001
0100
0000
0001
1000
,
0100
0010
0001
1000
2002
0000
0000
0000
,
0000
3003
0000
0000
;

//---------------dance-single - S. Philipp----------------
#NOTES:
     dance-single:
     S. Philipp:
     Hard:
     7:
     0.487,0.422,0.215,0.230,0.115:
0000
0000
0000
0000
,
0000
0000
0000
0000
,
0000
0000
0000
0000
,
2002
0000
0000
0000
,
3003
0000
0000
0000
,
1000
0001
0010
0010
,
0100
0100
1000
0001
,
0100
0010
1000
0001
0010
0000
0001
1000
,
0010
0100
0001
0000
2002
3003
0000
0000
,
1000
0000
1100
0000
0100
0010
0011
0000
,
0100
0000
1100
0000
1000
0001
1001
0000
,
0100
0000
0110
0000
1000
0010
1010
0000
,
0010
0000
1010
0000
1000
0001
1001
0000
,
0001
0000
0011
0000
0100
1000
1100
0000
,
1000
0000
1100
0000
0100
0010
0011
0000
,
0001
0000
1001
0000
0100
0010
0110
0000
,
0100
0000
0101
0000
0100
0001
2000
3000
,
0001
0100
1000
0000
1000
0100
1000
0000
,
0100
0010
1000
0001
0010
0000
0110
0000
,
0010
0001
0100
0000
0001
0010
0100
0000
,
1000
0010
0100
0001
1001
0000
1100
0000
,
1000
0010
0001
0000
0010
1000
0001
0000
,
0010
0100
0001
1000
1010
0000
1001
0000
,
0010
0010
0100
0000
0100
0100
0001
0000
,
1000
0001
1000
0010
1001
0000
0110
0000
,
0000
0000
1000
0000
0010
0000
0100
0000
0001
0000
0000
0100
0000
0000
0200
0000
,
0000
0000
0000
0000
0000
0300
0000
0000
,
0000
0000
0001
0000
0010
0000
0100
0000
1000
0000
0000
1000
0000
0000
2002
0000
,
0000
0000
0000
3003
,
0010
1000
0001
0010
0100
1000
0010
0100
,
0001
0010
0100
1000
0020
0000
0030
0000
,
1000
0100
0010
0001
0100
0010
1000
0100
,
0010
0001
0100
0010
2000
0000
3000
0000
,
0001
0010
0100
1000
0010
0100
0001
0010
,
0100
1000
0010
0100
0002
0000
0003
0000
,
1000
1000
0100
0001
0001
0000
0001
0100
,
1000
0100
0010
0001
0200
0000
0300
0000
,
1000
0001
0000
0001
1000
0000
0000
0000
0010
0000
1000
0000
0100
0000
0000
0000
,
0010
0001
0000
0001
0100
0000
0000
0000
0010
0000
0100
0000
0010
0000
0000
0000
,
0001
1000
0000
1000
0001
0000
0000
0000
0100
0000
0001
0000
0010
0000
0000
0000
,
0100
1000
0000
1000
0010
0000
0000
0000
0100
0000
0010
0000
0100
0000
0000
0000
,
0001
1000
0000
1000
0001
0000
0000
0000
0100
0000
0001
0000
0010
0000
0000
0000
,
0100
1000
0000
1000
0010
0000
0000
0000
0100
0000
0010
0000
0100
0000
0000
0000
,
1000
0001
0000
0001
1000
0000
0000
0000
0010
0000
1000
0000
0100
0000
0000
0000
,
0010
0001
0000
0001
0100
0000
0000
0000
0010
0000
0100
0000
0010
0000
0000
0000
,
1000
0100
0001
0000
0001
0100
1000
0000
,
0001
0100
1000
0010
0001
0100
1000
0000
,
1000
0100
0001
0000
0001
0100
0010
0000
,
1000
0010
0001
0100
1000
0010
0001
0000
,
0001
0000
1000
0100
0000
0000
0000
0000
0010
0000
0100
0001
0000
0000
0000
0000
,
0010
0001
0100
1000
0020
0030
0100
0000
,
1000
0000
0001
1000
0000
0000
0000
0000
0010
0000
0100
0010
0000
0000
0000
0000
,
0010
0001
0100
1000
0020
0030
0200
0300
,
0000
1000
0100
0010
,
0220
0000
0000
0330
,
0000
0100
1000
0001
,
2002
0000
0000
3003
,
0010
1000
0001
0010
0100
1000
0010
0100
,
0001
0010
0100
1000
0020
0000
0030
0000
,
1000
0100
0010
0001
0100
0010
1000
0100
,
0010
0001
0100
0010
2000
0000
3000
0000
,
0001
0010
0100
1000
0010
0100
0001
0010
,
0100
1000
0010
0100
0002
0000
0003
0000
,
1000
0001
1000
0001
0200
0300
0100
0001
,
0100
0010
0100
1000
0200
0000
0300
0000
,
0001
1000
0000
1000
0001
0000
0000
0000
0100
0000
0001
0000
0010
0000
0000
0000
,
0100
1000
0000
1000
0010
0000
0000
0000
0100
0000
0010
0000
0100
0000
0000
0000
,
1000
0001
0000
0001
1000
0000
0000
0000
0010
0000
1000
0000
0100
0000
0000
0000
,
0010
0001
0000
0001
0100
0000
0000
0000
0010
0000
0100
0000
0010
0000
0000
0000
,
2000
3000
0100
0010
0000
0002
0003
0100
,
0010
1000
0100
0010
0002
0003
0000
0000
,
0100
0010
1000
0001
0020
0030
0100
1000
,
0010
0100
0001
1000
2002
0000
0000
0000
,
0000
3003
0000
0000
;

//---------------dance-single - S. Philipp----------------
#NOTES:
     dance-single:
     S. Philipp:
     Medium:
     6:
     0.458,0.422,0.338,0.184,0.123:
0000
0000
0000
0000
,
0000
0000
0000
0000
,
0000
0000
0000
0000
,
0000
0000
0000
0000
,
0000
0000
0000
0000
,
1000
0001
0010
0010
,
0100
0100
1000
1000
,
1000
0100
0010
0001
1000
0000
0010
0100
,
0001
0010
0100
1000
1001
0000
0000
0000
,
1000
1001
0010
0110
,
0100
1001
0010
0110
,
1000
1001
0001
0011
,
0010
0110
0100
1100
,
1000
1010
0010
0110
,
0100
0101
0001
0011
,
0010
0110
0100
1100
,
1000
1010
0010
1001
,
1000
0100
1000
0000
0001
0100
0001
0000
,
0010
0001
1000
0100
0010
0000
0011
0000
,
0001
0010
0100
0000
1000
0001
0100
0000
,
0001
0010
0100
1000
0100
0000
1001
0000
,
0001
0000
1000
0001
0000
0000
0000
0000
1000
0000
0001
1000
0000
0000
0000
0000
,
1000
0100
0010
0001
2000
3000
1100
0000
,
1000
0000
0001
1000
0000
0000
0000
0000
0001
0000
1000
0001
0000
0000
0000
0000
,
0001
0010
0100
1000
0002
0003
0011
0000
,
0000
1001
0000
1010
,
0000
0000
0101
0000
0000
0001
0100
0010
,
0000
1000
0100
0010
0002
0003
1000
0000
,
2002
0000
0000
3003
,
1000
0100
0010
0001
0000
0001
0000
0001
,
0010
0100
1000
0100
1000
0000
1000
0000
,
0001
0010
0100
1000
0000
1000
0000
1000
,
0100
0010
0001
0010
0001
0000
0001
0000
,
1000
0100
0010
0001
1000
0100
0010
0001
,
1000
0100
0010
0001
0002
0000
0003
0000
,
0001
0100
0010
1000
0002
0003
0001
0100
,
0010
1000
0100
0010
0022
0033
0000
0000
,
0001
1000
0000
1000
0001
0000
0000
0000
0100
0000
0000
0000
0010
0000
0000
0000
,
0010
0100
0000
0100
0010
0000
0000
0000
1000
0000
0000
0000
0100
0000
0000
0000
,
0100
1000
0000
1000
0100
0000
0000
0000
0010
0000
0000
0000
0001
0000
0000
0000
,
0001
0010
0000
0010
0001
0000
0000
0000
1000
0000
0000
0000
0010
0000
0000
0000
,
0010
0100
0000
0100
0010
0000
0000
0000
1000
0000
0000
0000
0001
0000
0000
0000
,
0001
1000
0000
1000
0001
0000
0000
0000
1000
0000
0000
0000
0100
0000
0000
0000
,
0100
1000
0000
1000
0100
0000
0000
0000
0010
0000
0000
0000
0001
0000
0000
0000
,
0001
0010
0000
0010
0001
0000
0000
0000
1000
0000
0001
0000
1001
0000
0000
0000
,
1000
0100
1000
0000
0001
0100
0001
0000
,
0010
0001
1000
0100
0010
0000
0011
0000
,
0001
0010
0100
0000
1000
0001
0100
0000
,
0001
0010
0100
1000
0100
0000
1001
0000
,
0001
0000
1000
0001
0000
0000
0000
0000
1000
0000
0001
1000
0000
0000
0000
0000
,
1000
0100
0010
0001
2000
3000
1100
0000
,
1000
0000
0001
1000
0000
0000
0000
0000
0001
0000
1000
0001
0000
0000
0000
0000
,
0001
0010
0100
1000
0002
0003
0011
0000
,
0000
1001
0000
1010
,
0000
0000
0101
0000
0000
0001
0100
0010
,
0000
1000
0100
0010
0002
0003
1000
0000
,
2002
0000
0000
3003
,
1000
0100
0010
0001
0000
0001
0000
0001
,
0010
0100
1000
0100
1000
0000
1000
0000
,
0001
0010
0100
1000
0000
1000
0000
1000
,
0100
0010
0001
0010
0001
0000
0001
0000
,
1000
0100
0010
0001
0000
0001
0000
0001
,
0010
0100
1000
0100
1000
0000
1000
0000
,
0001
0100
0010
1000
0002
0003
0001
0100
,
0010
1000
0100
0010
0022
0033
0000
0000
,
0001
1000
0000
1000
0001
0000
0000
0000
0100
0000
0000
0000
0110
0000
0000
0000
,
0010
0100
0000
0100
0010
0000
0000
0000
1000
0000
0000
0000
1100
0000
0000
0000
,
0100
1000
0000
1000
0100
0000
0000
0000
0010
0000
0000
0000
0011
0000
0000
0000
,
0001
0010
0000
0010
0001
0000
0000
0000
1000
0000
0000
0000
0010
0000
0000
0000
,
2020
0000
0030
3000
0200
0000
0000
0300
,
0020
0000
0000
0030
0002
0000
0000
0003
,
0101
0000
0110
0000
,
1010
0000
2002
0000
,
0000
3003
0000
0000
;

//---------------dance-single - S. Philipp----------------
#NOTES:
     dance-single:
     S. Philipp:
     Easy:
     4:
     0.297,0.337,0.384,0.107,0.000:
0000
0000
0000
0000
,
0000
0000
0000
0000
,
0000
0000
0000
0000
,
0000
0000
0000
0000
,
0000
0000
0000
0000
,
1000
0001
0010
0010
,
0100
0100
1000
1000
,
1000
0010
1000
0010
,
0001
0100
0001
0000
,
1000
0001
0010
0010
,
0100
0001
0010
0010
,
1000
0001
0001
0001
,
0010
0010
0100
0100
,
1000
0010
0010
0010
,
0100
0001
0001
0001
,
0010
0010
0100
0100
,
1000
0010
0010
0001
,
1001
0000
0110
0000
,
0010
1000
0010
0001
,
1001
0000
0110
0000
,
0001
0100
0100
0001
,
1001
0000
0110
0000
,
1000
0010
1000
0100
,
1001
0000
0110
0000
,
0001
0100
1001
1001
,
0000
1001
0000
0110
,
0000
1001
0000
0110
,
0000
0100
0001
1000
,
0002
0000
0003
0000
,
1000
0100
0010
0001
,
1001
1001
1001
0000
,
0001
0010
0100
1000
,
1001
1001
1001
0000
,
1000
0100
0010
0001
,
1001
1001
1001
0000
,
0001
0010
0001
0001
,
0010
0100
1000
0000
,
0001
0001
0000
0000
,
1000
1000
0000
0000
,
0100
0100
0000
0000
,
0010
0010
0000
0000
,
0001
0001
0000
0000
,
1000
1000
0000
0000
,
0100
0100
0000
0000
,
0010
0010
0000
0000
,
1001
0000
0110
0000
,
0100
0001
0100
1000
,
1001
0000
0110
0000
,
1000
0010
0010
1000
,
1001
0000
0110
0000
,
0001
0100
0001
0010
,
1001
0000
0110
0000
,
0001
0100
1001
1001
,
0000
1001
0000
0110
,
0000
1001
0000
0110
,
0000
0010
1000
0001
,
2000
0000
3000
0000
,
0001
0010
0100
1000
,
1001
1001
1001
0000
,
1000
0100
0010
0001
,
1001
1001
1001
0000
,
0001
0010
0100
1000
,
1001
1001
1001
0000
,
1000
0100
1000
1000
,
0100
0010
0001
0000
,
1000
1000
0010
0100
,
0100
0100
0001
0010
,
0010
0010
0100
1000
,
1000
1000
0001
0100
,
0020
0030
2000
3000
,
0200
0300
0020
0030
,
2002
3003
0202
0303
,
2020
3030
0220
0000
,
0000
0330
0000
0000
;

//---------------dance-single - S. Philipp----------------
#NOTES:
     dance-single:
     S. Philipp:
     Beginner:
     1:
     0.169,0.167,0.000,0.000,0.000:
0000
0000
0000
0000
,
0000
0000
0000
0000
,
0000
0000
0000
0000
,
0000
0000
0000
0000
,
0000
0000
0000
0000
,
1000
0001
0000
0010
,
0000
0100
1000
0000
,
1000
0010
1000
0000
,
0001
0100
0000
0000
,
1000
0001
0000
0010
,
0100
0001
0000
0010
,
1000
0001
0000
0001
,
0010
0000
0100
0000
,
1000
0010
0000
0010
,
0100
0001
0000
0001
,
0010
0000
0100
0000
,
1000
0010
0010
0000
,
0001
0000
0010
0000
,
0010
1000
0010
0000
,
0001
0000
0010
0000
,
0001
0000
0100
0001
,
0000
0000
0010
0000
,
1000
0010
0000
0100
,
0001
0000
0010
0000
,
0001
0100
0001
0000
,
0000
0001
0000
0010
,
0000
0001
0000
0010
,
0000
0100
0001
1000
,
0001
0000
0000
0000
,
1000
0100
0010
0001
,
0000
0000
0000
0000
,
0001
0010
0100
1000
,
0000
0000
0000
0000
,
1000
0100
0010
0001
,
0000
0000
0000
0000
,
0001
0010
0001
0000
,
0000
0100
1000
0000
,
0001
0001
0000
0000
,
1000
1000
0000
0000
,
0100
0100
0000
0000
,
0010
0010
0000
0000
,
0001
0001
0000
0000
,
1000
1000
0000
0000
,
0100
0100
0000
0000
,
0010
0010
0000
0000
,
0001
0000
0010
0000
,
0100
0001
0100
0000
,
0001
0000
0010
0000
,
1000
0000
0010
1000
,
0001
0000
0010
0000
,
0001
0100
0000
0010
,
0001
0000
0010
0000
,
0001
0100
0000
0001
,
0000
0001
0000
0010
,
0000
0001
0000
0010
,
0000
0010
1000
0000
,
1000
0000
0000
0000
,
0001
0010
0100
1000
,
0000
0000
0000
0000
,
1000
0100
0010
0001
,
0000
0000
0000
0000
,
0001
0010
0100
1000
,
0000
0000
0000
0000
,
1000
0100
0000
1000
,
0100
0010
0001
0000
,
1000
0000
0010
0100
,
0000
0000
0001
0010
,
0000
0000
0100
1000
,
0000
0000
0001
0100
,
0010
0000
1000
0000
,
0100
0000
0010
0000
,
0001
0000
0001
0000
,
0010
0000
0010
0000
;
