#TITLE:Stamp On The Ground;
#SUBTITLE:;
#ARTIST:ItaloBrothers;
#TITLETRANSLIT:;
#SUBTITLETRANSLIT:;
#ARTISTTRANSLIT:;
#GENRE:;
#CREDIT:Scott "Suko" Philipp;
#BANNER:stamp_on_the_ground-bn.png;
#BACKGROUND:stamp_on_the_ground-bg.png;
#LYRICSPATH:;
#CDTITLE:;
#MUSIC:Stamp On The Ground.mp3;
#OFFSET:1.080;
#SAMPLESTART:30.800;
#SAMPLELENGTH:14.960;
#SELECTABLE:YES;
#BPMS:0.000=149.980;
#STOPS:;
#BGCHANGES:7.000=stamp.avi=1.000=1=0=1===CrossFade==,
368.000=stamp_on_the_ground-bg.png=1.000=1=0=1=Centered==CrossFade==,
99999=-nosongbg-=1.000=0=0=0 // don't automatically add -songbackground-
;
#KEYSOUNDS:;

//---------------dance-single - S. Philipp----------------
#NOTES:
     dance-single:
     S. Philipp:
     Hard:
     8:
     0.528,0.690,0.465,0.622,0.308:
0000
0000
0000
0000
,
0000
0000
0000
0000
,
0000
0000
0000
0000
,
0000
0000
0000
0000
,
0000
0000
0000
0000
,
0000
0000
0000
0000
,
1000
0010
0100
0001
,
1000
0000
0100
0010
0000
0001
0100
0000
0010
1000
0000
0100
,
0010
0001
0100
0010
,
1000
0000
0010
0100
0000
0001
0010
0000
0100
1000
0000
0010
,
0100
0010
0100
0001
,
1000
0100
0010
0001
0000
0001
1000
0000
1000
0001
0000
0000
,
1001
0100
0101
0001
,
0011
0010
0110
0100
,
1001
1000
1010
0100
,
0101
1000
1001
0001
,
1100
1000
1001
0001
,
0101
0100
0110
0010
,
1010
0010
1100
0000
,
1000
0100
0010
0001
0000
0001
0100
0000
0010
1000
0000
0000
,
0020
0230
0302
0003
,
0202
0303
0000
2200
3300
0000
2020
3030
0000
0022
0033
0000
,
1000
0000
0100
0010
0000
0001
1000
0000
0000
0000
0000
0000
,
0010
0000
0000
1000
0000
0010
0100
0000
0000
0000
0000
0000
,
2000
3200
0320
0030
,
0202
0303
0000
0220
0330
0000
2002
3003
0000
2020
3030
0000
,
1000
0000
0001
0010
0000
0100
1000
0000
0000
0000
0000
0000
,
0011
0110
1100
0000
,
1001
MM1M
1001
0000
,
1001
0000
0000
M1MM
0000
0000
1001
0000
0000
0001
0000
100M
,
0001
1000
0110
0000
,
1000
0000
0000
0010
0000
10M0
0001
0000
0000
0000
0000
0000
,
0110
1MMM
0110
0000
,
0110
0000
0000
MMM1
0000
0000
0110
0000
0000
1000
0000
M001
,
1000
0100
0110
0000
,
0001
0000
0100
0010
0000
1000
0001
0000
0000
0000
0000
0000
,
2000
3200
0302
0003
,
0200
0000
0000
2000
0000
0000
3301
0000
0000
1000
0000
0001
,
1000
0002
0203
0300
,
0010
0000
0000
0100
0000
0001
1000
0000
0000
0000
0000
0000
,
0002
0023
2030
3000
,
0020
0000
0000
0200
0000
0000
0331
0000
0000
0100
0000
1000
,
0001
2000
3020
0030
,
2000
0200
3311
0000
,
0001
0000
0000
100M
0000
0000
M200
0000
0300
0000
0000
0000
,
1000
0000
0000
M010
0000
0000
01M0
0000
0000
0M01
0000
1000
,
010M
0000
0000
0010
0000
0000
00M2
0000
0003
0000
0000
0000
,
0010
0000
0000
0001
0000
0100
002M
0000
0000
0030
0000
0000
,
1000
0000
0000
M001
0000
0000
002M
0000
0030
0000
0000
0000
,
0001
0000
0000
010M
0000
0000
0M10
0000
0000
10M0
0000
0001
,
M010
0000
0000
0100
0000
0000
2M00
0000
3000
0000
0000
0000
,
0100
0000
0000
0M10
0000
0100
2000
0000
0000
3000
0000
0000
,
0000
0000
0000
MMMM
,
1000
0100
1000
0200
0300
0000
0010
0100
0010
0200
0300
0000
,
0001
0100
0001
0200
0300
0000
1000
0001
0100
0020
0030
0000
,
0001
0010
0100
0020
0030
0000
0100
0010
0100
0020
0030
0000
,
1000
0010
1000
0020
0030
0000
0100
0010
1000
0002
0003
0000
,
0100
0001
0100
0002
0003
0000
1000
0001
1000
0002
0003
0000
,
0010
0000
0001
0000
0010
0000
0002
0000
0003
0000
0000
0000
0010
0000
0100
0000
1000
0000
0200
0000
0000
0300
0000
0000
,
0110
1001
0110
0000
,
2000
0000
3000
0002
0000
0103
0020
0000
0030
0000
0000
0000
,
1100
1010
0011
0101
,
0100
0000
0001
1000
0000
0100
0010
0000
0000
0000
0000
0000
,
0001
0000
0000
0010
0000
0001
1000
0000
0000
0000
0000
0000
,
2000
3000
0000
0002
0003
0100
0020
0000
0030
0000
0000
0000
,
1010
0011
0110
1001
,
0010
0000
1000
0001
0000
0010
0100
0000
0000
0000
0000
0000
,
1000
0000
0100
0001
0000
0100
1000
0000
0000
0000
0000
0000
,
0001
0000
0000
1000
0000
0010
0200
0300
0000
0000
0000
0000
,
1010
1100
0011
0101
,
0100
0000
0100
0010
0000
0010
2000
3000
0000
0000
0000
0000
,
0010
0000
0000
01M0
0000
0001
1000
0000
0000
0000
0000
0000
,
2000
0000
0000
3200
0000
0310
0002
0003
0000
0000
0000
0000
,
0011
0110
1100
0101
,
0010
0000
1000
0100
0000
0100
0020
0030
0000
0000
0000
0000
,
2002
0000
0000
0000
0000
3003
2002
0000
0000
0000
0000
3003
1001
0000
0000
0000
0000
0000
MMMM
0000
0000
0000
0000
0000
,
1000
0000
0100
1000
0000
0000
0001
0000
0010
0001
0000
0000
,
0010
0001
0100
0010
0000
0000
1000
0010
1000
0010
0000
0000
,
1000
0000
0001
0010
0000
0000
0001
0000
0010
0100
0000
0000
,
1001
0110
1001
0000
,
0001
0000
0010
0001
0000
0000
1000
0000
0010
1000
0000
0000
,
0001
0010
0100
1000
0000
0000
1000
0010
0100
0001
0000
0000
,
0010
0000
0100
1000
0000
0000
0001
0000
0100
0001
0000
0000
,
1001
0110
1001
0000
,
2000
0200
3311
0000
,
0002
0200
1313
0000
,
0200
0020
1331
0000
,
0100
0000
0000
0010
0000
1000
0020
0000
0000
0030
0000
0000
,
2000
3200
0302
0003
,
0002
0203
2300
3020
,
0032
2003
3200
0300
,
2002
0000
0000
3003
;

//---------------dance-single - S. Philipp----------------
#NOTES:
     dance-single:
     S. Philipp:
     Challenge:
     9:
     0.713,0.881,0.397,1.000,0.684:
0000
0000
0000
0000
,
0000
0000
0000
0000
,
0000
0000
0000
0000
,
0000
0000
0000
0000
,
0010
0100
0001
1000
,
0001
0000
0010
0100
0000
1000
0010
0000
0100
0001
0000
1000
,
0010
0100
0001
1000
,
0001
0000
0010
0100
0000
1000
0010
0000
0100
0001
0000
1000
,
0100
0010
0100
0010
,
0100
0000
1000
0100
0000
0001
0010
0000
1000
0100
0000
0001
,
0010
0001
1000
0100
,
1000
0100
0010
0001
0000
0001
0100
0000
0010
0100
0000
0000
,
0202
0000
0000
0000
0000
0000
0000
0000
0000
0000
0000
0000
0000
0000
0000
0000
0000
0000
0000
0000
0000
0000
0000
0000
0000
0000
0000
0000
0000
0000
0000
0000
0000
0000
0000
0000
0000
0000
0000
0000
0000
0000
0300
0000
0000
0000
0000
0000
0200
0000
0000
0000
0000
0000
0000
0000
0000
0000
0000
0000
0000
0000
0000
0000
0003
0000
0000
0000
0000
0000
0000
0000
0000
0000
0000
0000
0000
0000
0000
0000
0000
0000
0000
0000
0000
0000
0000
0000
0000
0000
0300
0000
0000
0000
0000
0000
0220
0000
0000
0000
0000
0000
0000
0000
0000
0000
0000
0000
0000
0000
0000
0000
0000
0000
0000
0000
0000
0000
0000
0000
0000
0000
0000
0000
0000
0000
0000
0000
0000
0000
0000
0000
0000
0000
0000
0000
0000
0000
0030
0000
0000
0000
0000
0000
0020
0000
0000
0000
0000
0000
0000
0000
0000
0000
0000
0000
0000
0000
0000
0000
0300
0000
0000
0000
0000
0000
0000
0000
0000
0000
0000
0000
0000
0000
0000
0000
0000
0000
0000
0000
0000
0000
0000
0000
0000
0000
0030
0000
0000
0000
0000
0000
,
2020
0000
0000
0000
0000
0000
0000
0000
0000
0000
0000
0000
0000
0000
0000
0000
0000
0000
0000
0000
0000
0000
0000
0000
0000
0000
0000
0000
0000
0000
0000
0000
0000
0000
0000
0000
0000
0000
0000
0000
0000
0000
3000
0000
0000
0000
0000
0000
2000
0000
0000
0000
0000
0000
0000
0000
0000
0000
0000
0000
0000
0000
0000
0000
0030
0000
0000
0000
0000
0000
0000
0000
0000
0000
0000
0000
0000
0000
0000
0000
0000
0000
0000
0000
0000
0000
0000
0000
0000
0000
3000
0000
0000
0000
0000
0000
2200
0000
0000
0000
0000
0000
0000
0000
0000
0000
0000
0000
0000
0000
0000
0000
0000
0000
0000
0000
0000
0000
0000
0000
0000
0000
0000
0000
0000
0000
0000
0000
0000
0000
0000
0000
0000
0000
0000
0000
0000
0000
0300
0000
0000
0000
0000
0000
0200
0000
0000
0000
0000
0000
0000
0000
0000
0000
0000
0000
0000
0000
0000
0000
3000
0000
0000
0000
0000
0000
0000
0000
0000
0000
0000
0000
0000
0000
0000
0000
0000
0000
0000
0000
0000
0000
0000
0000
0000
0000
0300
0000
0000
0000
0000
0000
,
0220
0000
0000
0000
0000
0000
0000
0000
0000
0000
0000
0000
0000
0000
0000
0000
0000
0000
0000
0000
0000
0000
0000
0000
0000
0000
0000
0000
0000
0000
0000
0000
0000
0000
0000
0000
0000
0000
0000
0000
0000
0000
0030
0000
0000
0000
0000
0000
0020
0000
0000
0000
0000
0000
0000
0000
0000
0000
0000
0000
0000
0000
0000
0000
0300
0000
0000
0000
0000
0000
0000
0000
0000
0000
0000
0000
0000
0000
0000
0000
0000
0000
0000
0000
0000
0000
0000
0000
0000
0000
0030
0000
0000
0000
0000
0000
0022
0000
0000
0000
0000
0000
0000
0000
0000
0000
0000
0000
0000
0000
0000
0000
0000
0000
0000
0000
0000
0000
0000
0000
0000
0000
0000
0000
0000
0000
0000
0000
0000
0000
0000
0000
0000
0000
0000
0000
0000
0000
0003
0000
0000
0000
0000
0000
0002
0000
0000
0000
0000
0000
0000
0000
0000
0000
0000
0000
0000
0000
0000
0000
0030
0000
0000
0000
0000
0000
0000
0000
0000
0000
0000
0000
0000
0000
0000
0000
0000
0000
0000
0000
0000
0000
0000
0000
0000
0000
0003
0000
0000
0000
0000
0000
,
2002
0000
0000
0000
0000
0000
0000
0000
0000
0000
0000
0000
0000
0000
0000
0000
0000
0000
0000
0000
0000
0000
0000
0000
0000
0000
0000
0000
0000
0000
0000
0000
0000
0000
0000
0000
0000
0000
0000
0000
0000
0000
0003
0000
0000
0000
0000
0000
0002
0000
0000
0000
0000
0000
0000
0000
0000
0000
0000
0000
0000
0000
0000
0000
3000
0000
0000
0000
0000
0000
0000
0000
0000
0000
0000
0000
0000
0000
0000
0000
0000
0000
0000
0000
0000
0000
0000
0000
0000
0000
0003
0000
0000
0000
0000
0000
0202
0000
0000
0000
0000
0000
0000
0000
0000
0000
0000
0000
0000
0000
0000
0000
0000
0000
0000
0000
0000
0000
0000
0000
0000
0000
0000
0000
0000
0000
0000
0000
0000
0000
0000
0000
0000
0000
0000
0000
0000
0000
0300
0000
0000
0000
0000
0000
0200
0000
0000
0000
0000
0000
0000
0000
0000
0000
0000
0000
0000
0000
0000
0000
0003
0000
0000
0000
0000
0000
0000
0000
0000
0000
0000
0000
0000
0000
0000
0000
0000
0000
0000
0000
0000
0000
0000
0000
0000
0000
0300
0000
0000
0000
0000
0000
,
0220
0000
0000
0000
0000
0000
0000
0000
0000
0000
0000
0000
0000
0000
0000
0000
0000
0000
0000
0000
0000
0000
0000
0000
0000
0000
0000
0000
0000
0000
0000
0000
0000
0000
0000
0000
0000
0000
0000
0000
0000
0000
0030
0000
0000
0000
0000
0000
0020
0000
0000
0000
0000
0000
0000
0000
0000
0000
0000
0000
0000
0000
0000
0000
0300
0000
0000
0000
0000
0000
0000
0000
0000
0000
0000
0000
0000
0000
0000
0000
0000
0000
0000
0000
0000
0000
0000
0000
0000
0000
0030
0000
0000
0000
0000
0000
2020
0000
0000
0000
0000
0000
0000
0000
0000
0000
0000
0000
0000
0000
0000
0000
0000
0000
0000
0000
0000
0000
0000
0000
0000
0000
0000
0000
0000
0000
0000
0000
0000
0000
0000
0000
0000
0000
0000
0000
0000
0000
3000
0000
0000
0000
0000
0000
2000
0000
0000
0000
0000
0000
0000
0000
0000
0000
0000
0000
0000
0000
0000
0000
0030
0000
0000
0000
0000
0000
0000
0000
0000
0000
0000
0000
0000
0000
0000
0000
0000
0000
0000
0000
0000
0000
0000
0000
0000
0000
3000
0000
0000
0000
0000
0000
,
2200
0000
0000
0000
0000
0000
0000
0000
0000
0000
0000
0000
0000
0000
0000
0000
0000
0000
0000
0000
0000
0000
0000
0000
0000
0000
0000
0000
0000
0000
0000
0000
0000
0000
0000
0000
0000
0000
0000
0000
0000
0000
0300
0000
0000
0000
0000
0000
0200
0000
0000
0000
0000
0000
0000
0000
0000
0000
0000
0000
0000
0000
0000
0000
3000
0000
0000
0000
0000
0000
0000
0000
0000
0000
0000
0000
0000
0000
0000
0000
0000
0000
0000
0000
0000
0000
0000
0000
0000
0000
0300
0000
0000
0000
0000
0000
0220
0000
0000
0000
0000
0000
0000
0000
0000
0000
0000
0000
0000
0000
0000
0000
0000
0000
0000
0000
0000
0000
0000
0000
0000
0000
0000
0000
0000
0000
0000
0000
0000
0000
0000
0000
0000
0000
0000
0000
0000
0000
0030
0000
0000
0000
0000
0000
0020
0000
0000
0000
0000
0000
0000
0000
0000
0000
0000
0000
0000
0000
0000
0000
0300
0000
0000
0000
0000
0000
0000
0000
0000
0000
0000
0000
0000
0000
0000
0000
0000
0000
0000
0000
0000
0000
0000
0000
0000
0000
0030
0000
0000
0000
0000
0000
,
0022
0000
0000
0000
0000
0000
0000
0000
0000
0000
0000
0000
0000
0000
0000
0000
0000
0000
0000
0000
0000
0000
0000
0000
0000
0000
0000
0000
0000
0000
0000
0000
0000
0000
0000
0000
0000
0000
0000
0000
0000
0000
0003
0000
0000
0000
0000
0000
0002
0000
0000
0000
0000
0000
0000
0000
0000
0000
0000
0000
0000
0000
0000
0000
0030
0000
0000
0000
0000
0000
0000
0000
0000
0000
0000
0000
0000
0000
0000
0000
0000
0000
0000
0000
0000
0000
0000
0000
0000
0000
0003
0000
0000
0000
0000
0000
2002
0000
0000
0000
0000
0000
0000
0000
0000
0000
0000
0000
0000
0000
0000
0000
0000
0000
0000
0000
0000
0000
0000
0000
0000
0000
0000
0000
0000
0000
0000
0000
0000
0000
0000
0000
0000
0000
0000
0000
0000
0000
0000
0000
0000
0000
0000
0000
0000
0000
0000
0000
0000
0000
0000
0000
0000
0000
0000
0000
0000
0000
0000
0000
3003
0000
0000
0000
0000
0000
0000
0000
0000
0000
0000
0000
0000
0000
0000
0000
0000
0000
0000
0000
0000
0000
0000
0000
0000
0000
0000
0000
0000
0000
0000
0000
,
0001
0100
0010
1000
0000
0100
0010
0000
0001
0100
0000
0000
,
1111
1111
1111
0000
,
2020
3030
0000
2002
3003
0000
0022
0033
0000
0220
0330
0000
,
1000
0000
0100
0001
0000
0001
0100
0000
0000
0000
0000
0000
,
1000
0000
0000
0001
0000
1000
0020
0000
0030
0000
0000
0000
,
1111
1111
1111
0000
,
0202
0303
0000
2002
3003
0000
2200
3300
0000
0220
0330
0000
,
0001
0000
0010
1000
0000
0001
0100
0000
0000
0000
0000
0000
,
1000
0000
0100
0001
0000
1000
0020
0000
0030
0000
0000
0000
,
0001
0010
0100
1000
0000
0010
0100
0000
0000
0000
0000
0000
,
0010
1000
0100
0010
0000
0001
0100
0000
0010
1000
0000
0000
,
1000
0100
0010
0001
0000
0100
0010
0000
0000
0000
0000
0000
,
1000
0000
0000
0010
0000
0100
0001
0000
0000
0000
0000
0000
,
0001
0010
0100
1000
0000
0010
0100
0000
0000
0000
0000
0000
,
0100
0001
0010
0100
0000
1000
0010
0000
0100
0001
0000
0000
,
0001
0010
0100
1000
0000
0010
0100
0000
0000
0000
0000
0000
,
0100
0000
0010
0100
0000
0001
1000
0000
0000
MMMM
0000
0000
,
0010
0100
0001
1000
0100
0010
0100
1000
0010
0100
0010
1000
,
0001
0100
0001
0100
0010
1000
0001
0010
0100
0010
0001
0100
,
0010
0100
0001
1000
0010
1000
0001
1000
0100
0010
0000
0000
,
0220
0330
0000
0022
0033
1000
0002
0003
0000
0010
0100
1000
,
0001
0010
0100
0010
0001
0100
0010
0100
0001
1000
0010
1000
,
0010
0100
0001
1000
0100
0010
0100
1000
0010
0100
0010
1000
,
0001
0100
0001
1000
0001
0010
0200
0300
0000
0000
0000
0000
,
1001
0000
0110
0110
0000
1001
1001
0000
0000
0000
0000
0000
,
2000
0200
3310
0000
,
0002
0000
0000
0200
0000
0000
0313
0000
0000
0100
0000
0001
,
1000
0200
2000
0000
,
0001
0000
0000
0010
0000
0001
3310
0000
0000
0000
0000
0000
,
0002
0200
0313
0000
,
2000
0000
0000
0200
0000
0000
3310
0000
0000
1000
0000
0100
,
0010
0002
0200
0000
,
0010
0000
1000
0010
0000
0010
1303
0000
0000
0000
0000
0000
,
0000
0000
0000
MMMM
,
1000
0100
1000
0002
M003
0000
0010
0100
0010
0200
03M0
0000
,
1000
0010
1000
0020
M030
0000
0100
0001
0100
0002
0M03
0000
,
1000
0100
0010
0002
00M3
0000
0010
0100
1000
0020
0M30
0000
,
1000
0010
0100
0002
0M03
0000
1000
0100
1000
0200
M300
0000
,
1000
0100
0001
0200
030M
0000
1000
0010
0001
0020
003M
0000
,
0100
0001
1000
0002
M003
0000
0010
0100
1000
0002
M003
0000
,
0202
0000
0303
2002
0000
3003
2200
0000
3300
0000
0000
0000
,
1000
0000
0000
0010
0000
0100
0001
0000
0000
0000
0000
0000
,
0220
0330
0000
2002
3003
0000
0220
0330
0000
2002
3003
0000
,
1000
0000
0100
0001
0000
0100
0020
0000
0030
0000
0000
0000
,
0010
0000
0000
0100
0000
1000
0002
0000
0003
0000
0000
0000
,
0001
0000
0000
0100
0000
0010
1000
0000
0000
0000
0000
0000
,
0220
0330
0000
2002
3003
0000
0220
0330
0000
2002
3003
0000
,
0001
0000
0010
1000
0000
0010
0200
0000
0300
0000
0000
0000
,
0110
0000
1100
1100
0000
1001
1001
0000
0000
0000
0000
0000
,
0100
0010
1000
0001
0010
0100
0010
0001
0100
0010
0100
0001
,
1000
0010
1000
0010
0100
0001
1000
0100
0010
0100
1000
0010
,
0100
0010
1000
0001
0100
0001
1000
0001
0010
0100
0000
0000
,
2002
3003
0000
0220
0330
0010
2000
3000
0000
0000
0000
0000
,
0010
0100
0001
1000
0100
0010
0100
1000
0010
0100
0010
1000
,
0001
0100
0001
0100
0010
1000
0001
0010
0100
0010
0001
0100
,
0010
0100
0001
1000
0010
1000
0001
1000
0100
0010
0000
0000
,
1001
0000
0100
0110
0000
0010
0110
0000
0000
0000
0000
0000
,
2000
3200
0302
0003
,
0200
2300
3020
0032
,
2003
3200
0302
0003
,
0200
0000
0000
0301
0000
2000
0002
0000
0000
3003
0000
0000
,
2000
0000
0000
3000
0200
0000
0000
0300
0002
0000
0000
0003
0020
0000
0000
0030
,
2000
0000
0000
3000
0002
0000
0000
0003
0200
0000
0000
0300
2000
0000
0000
3000
,
0020
0000
0000
0030
0002
0000
0000
0003
2000
0000
0000
3000
0000
0000
0000
0000
,
0001
0000
0100
0010
0000
1000
0100
0000
0000
0000
0000
0000
,
0201
0000
0000
2000
0300
0000
0002
3000
0000
0000
0000
0000
,
0020
0000
0000
0000
0003
0000
0000
0000
0000
0000
0000
0000
2000
0000
0000
0000
0030
0000
0000
0000
0000
3000
0000
0000
0200
0000
0000
0000
0000
0000
0000
0000
0000
0300
0000
0000
0002
0000
0000
0000
0000
0000
0000
0000
0000
0003
0000
0000
,
2000
0000
0000
3000
0200
0000
0000
0300
0002
0000
0000
0000
0003
0000
0000
0000
,
0010
0000
0000
0001
0000
1000
0001
0000
0000
0000
0000
0000
,
1020
0000
0000
0002
0030
0000
2000
0003
0000
0000
0000
0000
,
0200
0000
0000
0000
3000
0000
0000
0000
0000
0300
0000
0000
0002
0000
0000
0000
0000
0000
0000
0000
0000
0003
0000
0000
0020
0000
0000
0000
0000
0000
0000
0000
0000
0030
0000
0000
2000
0000
0000
0000
0000
0000
0000
0000
0000
3000
0000
0000
,
0002
0000
0000
0003
0020
0000
0000
0030
2000
0000
0000
3000
0000
0000
0000
0000
,
0010
0000
1000
0001
0000
0002
2000
0000
0000
0000
0000
0000
,
3003
0000
0000
0000
;

//---------------dance-single - Alt4Null----------------
#NOTES:
     dance-single:
     Alt4Null:
     Edit:
     9:
     -1.000,-1.000,-1.000,-1.000,-1.000:
0000
0000
0000
0000
,
0000
0000
0000
0000
,
0000
0000
0000
0000
,
0000
0000
0000
0000
,
0010
0100
0001
1000
,
0001
0000
0010
0100
0000
1000
0010
0000
0100
0001
0000
1000
,
0010
0100
0001
1000
,
0001
0000
0010
0100
0000
1000
0010
0000
0100
0001
0000
1000
,
0100
0010
0100
0010
,
0100
0000
1000
0100
0000
0001
0010
0000
1000
0100
0000
0001
,
0010
0001
1000
0100
,
1000
0100
0010
0001
0000
0001
0100
0000
0010
0100
0000
0000
,
0202
0000
0000
0000
0000
0000
0000
0000
0000
0000
0000
0000
0000
0000
0000
0000
0000
0000
0000
0000
0000
0000
0000
0000
0000
0000
0000
0000
0000
0000
0000
0000
0000
0000
0000
0000
0000
0000
0000
0000
0000
0000
0300
0000
0000
0000
0000
0000
0200
0000
0000
0000
0000
0000
0000
0000
0000
0000
0000
0000
0000
0000
0000
0000
0003
0000
0000
0000
0000
0000
0000
0000
0000
0000
0000
0000
0000
0000
0000
0000
0000
0000
0000
0000
0000
0000
0000
0000
0000
0000
0300
0000
0000
0000
0000
0000
0220
0000
0000
0000
0000
0000
0000
0000
0000
0000
0000
0000
0000
0000
0000
0000
0000
0000
0000
0000
0000
0000
0000
0000
0000
0000
0000
0000
0000
0000
0000
0000
0000
0000
0000
0000
0000
0000
0000
0000
0000
0000
0030
0000
0000
0000
0000
0000
0020
0000
0000
0000
0000
0000
0000
0000
0000
0000
0000
0000
0000
0000
0000
0000
0300
0000
0000
0000
0000
0000
0000
0000
0000
0000
0000
0000
0000
0000
0000
0000
0000
0000
0000
0000
0000
0000
0000
0000
0000
0000
0030
0000
0000
0000
0000
0000
,
2020
0000
0000
0000
0000
0000
0000
0000
0000
0000
0000
0000
0000
0000
0000
0000
0000
0000
0000
0000
0000
0000
0000
0000
0000
0000
0000
0000
0000
0000
0000
0000
0000
0000
0000
0000
0000
0000
0000
0000
0000
0000
3000
0000
0000
0000
0000
0000
2000
0000
0000
0000
0000
0000
0000
0000
0000
0000
0000
0000
0000
0000
0000
0000
0030
0000
0000
0000
0000
0000
0000
0000
0000
0000
0000
0000
0000
0000
0000
0000
0000
0000
0000
0000
0000
0000
0000
0000
0000
0000
3000
0000
0000
0000
0000
0000
2200
0000
0000
0000
0000
0000
0000
0000
0000
0000
0000
0000
0000
0000
0000
0000
0000
0000
0000
0000
0000
0000
0000
0000
0000
0000
0000
0000
0000
0000
0000
0000
0000
0000
0000
0000
0000
0000
0000
0000
0000
0000
0300
0000
0000
0000
0000
0000
0200
0000
0000
0000
0000
0000
0000
0000
0000
0000
0000
0000
0000
0000
0000
0000
3000
0000
0000
0000
0000
0000
0000
0000
0000
0000
0000
0000
0000
0000
0000
0000
0000
0000
0000
0000
0000
0000
0000
0000
0000
0000
0300
0000
0000
0000
0000
0000
,
0220
0000
0000
0000
0000
0000
0000
0000
0000
0000
0000
0000
0000
0000
0000
0000
0000
0000
0000
0000
0000
0000
0000
0000
0000
0000
0000
0000
0000
0000
0000
0000
0000
0000
0000
0000
0000
0000
0000
0000
0000
0000
0030
0000
0000
0000
0000
0000
0020
0000
0000
0000
0000
0000
0000
0000
0000
0000
0000
0000
0000
0000
0000
0000
0300
0000
0000
0000
0000
0000
0000
0000
0000
0000
0000
0000
0000
0000
0000
0000
0000
0000
0000
0000
0000
0000
0000
0000
0000
0000
0030
0000
0000
0000
0000
0000
0022
0000
0000
0000
0000
0000
0000
0000
0000
0000
0000
0000
0000
0000
0000
0000
0000
0000
0000
0000
0000
0000
0000
0000
0000
0000
0000
0000
0000
0000
0000
0000
0000
0000
0000
0000
0000
0000
0000
0000
0000
0000
0003
0000
0000
0000
0000
0000
0002
0000
0000
0000
0000
0000
0000
0000
0000
0000
0000
0000
0000
0000
0000
0000
0030
0000
0000
0000
0000
0000
0000
0000
0000
0000
0000
0000
0000
0000
0000
0000
0000
0000
0000
0000
0000
0000
0000
0000
0000
0000
0003
0000
0000
0000
0000
0000
,
2002
0000
0000
0000
0000
0000
0000
0000
0000
0000
0000
0000
0000
0000
0000
0000
0000
0000
0000
0000
0000
0000
0000
0000
0000
0000
0000
0000
0000
0000
0000
0000
0000
0000
0000
0000
0000
0000
0000
0000
0000
0000
0003
0000
0000
0000
0000
0000
0002
0000
0000
0000
0000
0000
0000
0000
0000
0000
0000
0000
0000
0000
0000
0000
3000
0000
0000
0000
0000
0000
0000
0000
0000
0000
0000
0000
0000
0000
0000
0000
0000
0000
0000
0000
0000
0000
0000
0000
0000
0000
0003
0000
0000
0000
0000
0000
0202
0000
0000
0000
0000
0000
0000
0000
0000
0000
0000
0000
0000
0000
0000
0000
0000
0000
0000
0000
0000
0000
0000
0000
0000
0000
0000
0000
0000
0000
0000
0000
0000
0000
0000
0000
0000
0000
0000
0000
0000
0000
0300
0000
0000
0000
0000
0000
0200
0000
0000
0000
0000
0000
0000
0000
0000
0000
0000
0000
0000
0000
0000
0000
0003
0000
0000
0000
0000
0000
0000
0000
0000
0000
0000
0000
0000
0000
0000
0000
0000
0000
0000
0000
0000
0000
0000
0000
0000
0000
0300
0000
0000
0000
0000
0000
,
0220
0000
0000
0000
0000
0000
0000
0000
0000
0000
0000
0000
0000
0000
0000
0000
0000
0000
0000
0000
0000
0000
0000
0000
0000
0000
0000
0000
0000
0000
0000
0000
0000
0000
0000
0000
0000
0000
0000
0000
0000
0000
0030
0000
0000
0000
0000
0000
0020
0000
0000
0000
0000
0000
0000
0000
0000
0000
0000
0000
0000
0000
0000
0000
0300
0000
0000
0000
0000
0000
0000
0000
0000
0000
0000
0000
0000
0000
0000
0000
0000
0000
0000
0000
0000
0000
0000
0000
0000
0000
0030
0000
0000
0000
0000
0000
2020
0000
0000
0000
0000
0000
0000
0000
0000
0000
0000
0000
0000
0000
0000
0000
0000
0000
0000
0000
0000
0000
0000
0000
0000
0000
0000
0000
0000
0000
0000
0000
0000
0000
0000
0000
0000
0000
0000
0000
0000
0000
3000
0000
0000
0000
0000
0000
2000
0000
0000
0000
0000
0000
0000
0000
0000
0000
0000
0000
0000
0000
0000
0000
0030
0000
0000
0000
0000
0000
0000
0000
0000
0000
0000
0000
0000
0000
0000
0000
0000
0000
0000
0000
0000
0000
0000
0000
0000
0000
3000
0000
0000
0000
0000
0000
,
2200
0000
0000
0000
0000
0000
0000
0000
0000
0000
0000
0000
0000
0000
0000
0000
0000
0000
0000
0000
0000
0000
0000
0000
0000
0000
0000
0000
0000
0000
0000
0000
0000
0000
0000
0000
0000
0000
0000
0000
0000
0000
0300
0000
0000
0000
0000
0000
0200
0000
0000
0000
0000
0000
0000
0000
0000
0000
0000
0000
0000
0000
0000
0000
3000
0000
0000
0000
0000
0000
0000
0000
0000
0000
0000
0000
0000
0000
0000
0000
0000
0000
0000
0000
0000
0000
0000
0000
0000
0000
0300
0000
0000
0000
0000
0000
0220
0000
0000
0000
0000
0000
0000
0000
0000
0000
0000
0000
0000
0000
0000
0000
0000
0000
0000
0000
0000
0000
0000
0000
0000
0000
0000
0000
0000
0000
0000
0000
0000
0000
0000
0000
0000
0000
0000
0000
0000
0000
0030
0000
0000
0000
0000
0000
0020
0000
0000
0000
0000
0000
0000
0000
0000
0000
0000
0000
0000
0000
0000
0000
0300
0000
0000
0000
0000
0000
0000
0000
0000
0000
0000
0000
0000
0000
0000
0000
0000
0000
0000
0000
0000
0000
0000
0000
0000
0000
0030
0000
0000
0000
0000
0000
,
0022
0000
0000
0000
0000
0000
0000
0000
0000
0000
0000
0000
0000
0000
0000
0000
0000
0000
0000
0000
0000
0000
0000
0000
0000
0000
0000
0000
0000
0000
0000
0000
0000
0000
0000
0000
0000
0000
0000
0000
0000
0000
0003
0000
0000
0000
0000
0000
0002
0000
0000
0000
0000
0000
0000
0000
0000
0000
0000
0000
0000
0000
0000
0000
0030
0000
0000
0000
0000
0000
0000
0000
0000
0000
0000
0000
0000
0000
0000
0000
0000
0000
0000
0000
0000
0000
0000
0000
0000
0000
0003
0000
0000
0000
0000
0000
2002
0000
0000
0000
0000
0000
0000
0000
0000
0000
0000
0000
0000
0000
0000
0000
0000
0000
0000
0000
0000
0000
0000
0000
0000
0000
0000
0000
0000
0000
0000
0000
0000
0000
0000
0000
0000
0000
0000
0000
0000
0000
0000
0000
0000
0000
0000
0000
0000
0000
0000
0000
0000
0000
0000
0000
0000
0000
0000
0000
0000
0000
0000
0000
3003
0000
0000
0000
0000
0000
0000
0000
0000
0000
0000
0000
0000
0000
0000
0000
0000
0000
0000
0000
0000
0000
0000
0000
0000
0000
0000
0000
0000
0000
0000
0000
,
0001
0100
0010
1000
0000
0100
0010
0000
0001
0100
0000
0000
,
1111
1111
1111
0000
,
2020
3030
0000
2002
3003
0000
0022
0033
0000
0220
0330
0000
,
1000
0000
0100
0001
0000
0001
0100
0000
0000
0000
0000
0000
,
1000
0000
0000
0001
0000
1000
0020
0000
0030
0000
0000
0000
,
1111
1111
1111
0000
,
0202
0303
0000
2002
3003
0000
2200
3300
0000
0220
0330
0000
,
0001
0000
0010
1000
0000
0001
0100
0000
0000
0000
0000
0000
,
1000
0000
0100
0001
0000
1000
0020
0000
0030
0000
0000
0000
,
0001
0010
0100
1000
0000
0010
0100
0000
0000
0000
0000
0000
,
0010
1000
0100
0010
0000
0001
0100
0000
0010
1000
0000
0000
,
1000
0100
0010
0001
0000
0100
0010
0000
0000
0000
0000
0000
,
0010
1000
0100
0010
0000
0001
0100
0000
0000
0000
0000
0000
,
0001
0010
0100
1000
0000
0010
0100
0000
0000
0000
0000
0000
,
0100
0001
0010
0100
0000
1000
0010
0000
0100
0001
0000
0000
,
0001
0010
0100
1000
0000
0010
0100
0000
0000
0000
0000
0000
,
0100
0000
0010
0100
0000
0001
1000
0000
0000
MMMM
0000
0000
,
0010
0100
0001
1000
0100
0010
0100
1000
0010
0100
0010
1000
,
0001
0100
0001
0100
0010
1000
0001
0010
0100
0010
0001
0100
,
0010
0100
0001
1000
0010
1000
0001
1000
0100
0010
0000
0000
,
0220
0330
0000
0022
0033
1000
0002
0003
0000
0100
0010
1000
,
0001
0010
0100
0010
0001
0100
0010
0100
0001
1000
0010
1000
,
0010
0100
0001
1000
0100
0010
0100
1000
0010
0100
0010
1000
,
0001
0100
0001
1000
0001
0010
0200
0300
0000
0000
0000
0000
,
1001
0000
0110
0110
0000
1001
1001
0000
0000
0000
0000
0000
,
2000
0200
3310
0000
,
0002
0000
0000
0200
0000
0000
0313
0000
0000
0100
0000
0001
,
1000
0200
2000
0000
,
0001
0000
0000
0010
0000
0001
3310
0000
0000
0000
0000
0000
,
0002
0200
0313
0000
,
2000
0000
0000
0200
0000
0000
3310
0000
0000
1000
0000
0100
,
0010
0002
0200
0000
,
0010
0000
0000
1000
0000
0010
1303
0000
0000
0000
0000
0000
,
0040
0400
0000
0000
0000
0330
0000
0000
0000
MMMM
0000
0000
,
0010
0100
0001
0001
0000
0000
1000
0100
0010
0010
0000
0000
,
0001
0100
0010
0010
0000
0000
1000
0100
0001
0001
0000
0000
,
0001
0100
1000
1000
0000
0000
0010
0100
1000
1000
0000
0000
,
1000
0100
0001
0001
0000
0000
0001
0010
1000
1000
0000
0000
,
1000
0010
0001
0001
0000
0000
0100
0010
0001
0001
0000
0000
,
0001
0010
1000
1000
0000
0000
0100
0010
0001
0001
0000
0000
,
2200
0000
3300
0202
0000
0303
2002
0000
3003
0000
0000
0000
,
1000
0000
0000
0010
0000
0100
0001
0000
0000
0000
0000
0000
,
0220
0330
0000
2002
3003
0000
0220
0330
0000
2002
3003
0000
,
1000
0000
0100
0001
0000
0100
0020
0000
0030
0000
0000
0000
,
0010
0000
0000
0100
0000
0001
2000
0000
3000
0000
0000
0000
,
0001
0000
0000
0100
0000
0010
1000
0000
0000
0000
0000
0000
,
0220
0330
0000
2002
3003
0000
0220
0330
0000
2002
3003
0000
,
0001
0000
0010
1000
0000
0010
0200
0000
0300
0000
0000
0000
,
4000
0000
3000
0004
0000
0003
0100
0000
0000
0000
0000
0000
,
0100
0010
1000
0001
0010
0100
0010
0001
0100
0010
0100
0001
,
1000
0010
1000
0010
0100
0001
1000
0100
0010
0100
1000
0010
,
0100
0010
1000
0001
0100
0001
1000
0001
0010
0100
0000
0000
,
2002
3003
0000
0220
0330
0100
0002
0003
0000
0000
0000
0000
,
0010
0100
0001
1000
0100
0010
0100
1000
0010
0100
0010
1000
,
0001
0100
0001
0100
0010
1000
0001
0010
0100
0010
0001
0100
,
0010
0100
0001
1000
0010
1000
0001
1000
0100
0010
0000
0000
,
1001
0000
0100
0110
0000
0010
0110
0000
0000
0000
0000
0000
,
2000
3200
0302
0003
,
0200
2300
3020
0032
,
2003
3200
0302
0003
,
0200
0000
0000
0301
0000
2000
0002
0000
0000
3003
0000
0000
,
2000
3200
0302
0023
,
2030
3002
0203
2300
,
3020
0032
2003
3000
,
0001
0000
0100
0010
0000
1000
0100
0000
0000
0000
0000
0000
,
0201
0000
0000
200M
0300
0000
0M02
3000
0000
M000
0000
0000
,
0020
0003
0000
200M
0030
0000
02M0
3000
0000
M002
0300
0000
,
2M00
0003
0000
0002
3000
0000
M200
0003
0000
030M
0000
0000
,
0001
0000
0000
0100
0000
1000
0001
0000
0000
0000
0000
0000
,
1020
0000
0000
M002
0030
0000
20M0
0003
0000
000M
0000
0000
,
0200
3000
0000
M002
0300
0000
0M20
0003
0000
200M
0030
0000
,
00M2
3000
0000
2000
0003
0000
002M
3000
0000
M030
0000
0000
,
0100
0000
0010
0001
0000
0002
2000
0000
0000
0000
0000
0000
,
3003
0000
0000
0000
;

//---------------dance-single - ----------------
#NOTES:
     dance-single:
     :
     Easy:
     3:
     0.251,0.315,0.472,0.137,0.000:
0000
0000
0000
0000
,
0000
0000
0000
0000
,
0000
0000
0000
0000
,
0000
0000
0000
0000
,
0000
0000
0000
0000
,
0000
0000
0000
0000
,
0000
0000
0000
0000
,
0000
0000
0000
0000
,
0010
0000
0100
0000
,
0001
0000
1000
0000
,
0100
0000
0010
0000
,
1000
0000
0001
0000
,
2002
0000
0000
3003
,
0220
0000
0000
0330
,
0202
0000
0000
0303
,
2020
0000
0000
3030
,
0220
0000
0000
0330
,
2200
0000
0000
3300
,
0220
0000
0000
0330
,
2020
0000
0000
3030
,
1001
1001
1001
0000
,
1000
0000
0001
0000
,
0100
0001
1000
0000
,
0010
0100
0001
0000
,
0110
0110
0110
0000
,
0010
0100
0001
0010
,
1010
0000
1000
0000
,
0001
0000
0100
0000
,
0110
0000
1001
0000
,
0110
0000
1010
0000
,
0101
0000
0011
0000
,
1100
0000
1001
0000
,
0110
0000
0011
0000
,
0101
0000
1100
0000
,
1010
0000
0110
0000
,
2002
0000
3003
0000
,
1000
0000
0001
0000
,
0010
0000
0100
0000
,
0001
0000
1000
0000
,
0010
0000
0100
0000
,
0001
0000
1000
0000
,
0010
0000
0100
0000
,
1000
0000
0100
0000
,
0010
0000
0001
0000
,
1001
0000
0010
0000
,
0100
0000
1000
0000
,
0100
0000
0010
0000
,
0001
1000
0010
0000
,
1001
0000
0100
0000
,
0010
0000
1000
0000
,
0001
0000
0100
0000
,
1001
0000
0000
0000
,
0010
0000
0000
0000
,
0100
0000
0001
0000
,
1000
0000
0100
0000
,
0001
0000
0100
0000
,
1000
0000
0010
0000
,
0001
0000
0010
0000
,
1000
0000
0010
0000
,
0001
0000
1001
0000
,
1000
0000
0001
0000
,
0110
0000
1001
0000
,
0110
0000
0000
0000
,
0011
0000
0110
0000
,
1010
0000
0000
0000
,
1001
0000
0110
0000
,
1001
0000
0000
0000
,
1001
1001
1001
0000
,
0010
0000
0100
0000
,
0001
0000
0010
0000
,
1000
0000
0010
0000
,
0100
0000
0001
0000
,
1001
0000
0110
0000
,
0110
0000
1000
0001
,
1001
0000
1000
0000
,
0010
0100
0001
0000
,
1001
0000
0000
0000
,
0110
0000
0000
0000
,
1001
0110
1001
0000
,
0000
0000
0000
0000
,
1001
0000
0110
0000
,
1000
0010
0100
0001
,
0011
0000
1010
0000
,
1001
0000
0000
0000
,
0100
0010
1001
0000
,
0100
0010
1001
0000
,
1001
0100
0110
0000
,
0010
1000
1001
0000
,
0001
0010
0110
0000
,
1000
1010
0110
0000
,
0001
0010
0100
0000
,
2002
0000
0000
0000
,
3003
0000
0000
0000
;

//---------------dance-single - Blank----------------
#NOTES:
     dance-single:
     Blank:
     Medium:
     5:
     0.407,0.439,0.554,0.294,0.086:
0000
0000
0000
0000
,
0000
0000
0000
0000
,
0000
0000
0000
0000
,
0000
0000
0000
0000
,
0000
0000
0000
0000
,
0000
0000
0000
0000
,
0010
1000
0001
0010
,
0001
1000
0010
0100
,
0001
0010
0100
1000
,
0010
0100
0001
0010
,
0001
0100
0010
1000
,
0001
1000
0001
1000
,
2002
0000
3003
0000
,
2002
0000
3003
0000
,
0220
0000
0330
0000
,
0220
0000
0330
0000
,
2020
0000
3030
0000
,
0022
0000
0033
0000
,
0202
0000
0303
0000
,
2200
0000
3300
0000
,
2000
3002
2003
3000
,
1001
1001
1001
1001
,
0100
0010
0100
0000
,
0001
0000
0010
0100
1000
0000
0000
0000
,
0010
1000
0001
0000
,
1001
1001
1001
1001
,
1000
0000
0010
0100
0000
0000
0011
0000
0000
0000
0000
0000
,
0001
0000
1000
0010
0000
1000
0001
0000
0000
0000
0000
0000
,
1001
0010
1001
0000
,
0110
0000
0000
1000
0000
0000
0110
0000
0000
1000
0000
0010
,
1000
0001
0010
0000
,
0010
0000
0000
0100
0000
0010
0100
0000
0000
0000
0000
0000
,
0010
1000
0001
0000
,
0010
0100
1000
0010
,
1001
0100
0010
0000
,
1001
0000
0010
1000
0000
1000
0010
0000
0000
0000
0000
0000
,
1000
0001
0220
0330
,
0001
1000
0110
0100
,
1001
0010
0220
0330
,
0010
0000
0000
1000
0000
0001
0010
0000
0000
0000
0000
0000
,
0001
1000
0010
0000
,
0010
0001
0100
0010
,
1000
0010
0100
0000
,
0001
0000
0000
0010
0000
0001
1000
0000
0000
0000
0000
0000
,
1010
0011
0110
0000
,
1001
1010
0110
0101
,
0011
0110
1010
0000
,
0110
1001
0110
0000
,
1010
0101
0011
0000
,
0110
1100
1010
1001
,
0011
0110
1010
0000
,
0001
0000
0000
1000
0000
0010
0100
0000
0000
0000
0000
0000
,
0040
0400
0000
0000
0000
0000
0000
0000
0000
0000
0000
0000
0330
0000
0000
0000
,
0001
1000
0010
0100
,
0001
0010
0100
1000
,
0010
0100
0001
0010
,
0100
1000
0010
0100
,
0001
0010
0001
0010
,
0100
1000
0100
1000
,
0010
1000
1001
0000
,
0001
0000
0000
1000
0000
0010
0100
0000
0000
0000
0000
0000
,
0011
0100
1010
1001
,
0001
0000
1000
0010
0000
0100
0001
0000
0000
0000
0000
0000
,
0010
0000
0000
0001
0000
1000
0010
0000
0000
0000
0000
0000
,
0100
0000
0000
0010
0000
1000
0001
0000
0000
0000
0000
0000
,
1001
0110
1001
0110
,
0010
0000
0100
0010
0000
0000
0101
0000
0000
0000
0000
0000
,
0010
1000
0001
0000
,
0001
0000
0000
1000
0000
0010
0100
0000
0000
0000
0000
0000
,
1001
0110
1001
0110
,
0001
1000
0010
0000
,
0100
0001
0010
0000
,
0100
0001
0100
0000
,
0110
1001
0110
1001
,
0010
0000
0100
0001
0000
1000
0010
0000
0000
0000
0000
0000
,
1010
0101
1001
0000
,
0001
0000
0000
1000
0000
0000
0220
0330
0000
0000
0000
0000
,
0001
0000
0000
0010
0000
0000
0220
0330
0000
1000
0000
0001
,
0100
0000
0000
0010
0000
0000
0220
0330
0000
0000
0000
0000
,
1000
0000
0000
0010
0000
0100
0001
0000
0000
0000
0000
0000
,
0001
0000
0000
0010
0000
0000
2200
3300
0000
0000
0000
0000
,
1000
0000
0000
0010
0000
0000
0100
0000
0000
0001
0000
0010
,
0001
0000
0000
0100
0000
0000
0220
0330
0000
0000
0000
0000
,
1000
0000
0000
0010
0000
0100
0001
0000
0000
0000
0000
0000
,
1001
0000
0000
0110
0000
0000
2002
3003
0000
0000
0000
0000
,
0001
0010
0100
1000
,
0010
0000
0000
0100
0000
0000
2002
3003
0000
0000
0000
0000
,
0010
0000
0000
0100
0000
1000
0010
0000
0000
0000
0000
0000
,
0100
0000
0000
0010
0000
0000
0220
0330
0000
0000
0000
0000
,
1000
0000
0000
0010
0000
0000
0100
0000
0000
0002
0003
0000
,
0010
0000
0000
0100
0000
0000
2000
3000
0000
0000
0000
0000
,
2002
0000
0000
3003
;

//---------------dance-single - S. Philipp----------------
#NOTES:
     dance-single:
     S. Philipp:
     Beginner:
     1:
     0.157,0.187,0.000,0.000,0.000:
0000
0000
0000
0000
,
0000
0000
0000
0000
,
0000
0000
0000
0000
,
0000
0000
0000
0000
,
0000
0000
0000
0000
,
0000
0000
0000
0000
,
0000
0000
0000
0000
,
0000
0000
0000
0000
,
0010
0000
0100
0000
,
0001
0000
1000
0000
,
0100
0000
0010
0000
,
1000
0000
0001
0000
,
0001
0000
0000
0000
,
0010
0000
0000
0000
,
0001
0000
0000
0000
,
0010
0000
0000
0000
,
0010
0000
0000
0000
,
0100
0000
0000
0000
,
0010
0000
0000
0000
,
0010
0000
0000
0000
,
0001
0000
0001
0000
,
1000
0000
0001
0000
,
0100
0000
1000
0000
,
0010
0000
0001
0000
,
0010
0000
0010
0000
,
0000
0100
0001
0010
,
0000
0000
1000
0000
,
0001
0000
0100
0000
,
0010
0000
0001
0000
,
1000
0000
0010
0000
,
1000
0000
0001
0000
,
0100
0000
0001
0000
,
0010
0000
0001
0000
,
0001
0000
0100
0000
,
0010
0000
0010
0000
,
0001
0000
0000
0000
,
1000
0000
0001
0000
,
0010
0000
0100
0000
,
0001
0000
1000
0000
,
0010
0000
0100
0000
,
0001
0000
1000
0000
,
0010
0000
0100
0000
,
1000
0000
0100
0000
,
0010
0000
0001
0000
,
0001
0000
0010
0000
,
0100
0000
1000
0000
,
0100
0000
0010
0000
,
0001
1000
0010
0000
,
0001
0000
0100
0000
,
0010
0000
1000
0000
,
0001
0000
0100
0000
,
0001
0000
0000
0000
,
0010
0000
0000
0000
,
0100
0000
0001
0000
,
1000
0000
0100
0000
,
0001
0000
0100
0000
,
1000
0000
0010
0000
,
0001
0000
0010
0000
,
1000
0000
0010
0000
,
0001
0000
0001
0000
,
1000
0000
0001
0000
,
0010
0000
0001
0000
,
0010
0000
0000
0000
,
0001
0000
0010
0000
,
0010
0000
0000
0000
,
0001
0000
0010
0000
,
0001
0000
0000
0000
,
0001
1000
0001
0000
,
0010
0000
0100
0000
,
0001
0000
0010
0000
,
1000
0000
0010
0000
,
0100
0000
0001
0000
,
0001
0000
0010
0000
,
0010
0000
1000
0001
,
0001
0000
1000
0000
,
0010
0100
0001
0000
,
0001
0000
0000
0000
,
0010
0000
0000
0000
,
0001
0010
0001
0000
,
0000
0000
0000
0000
,
0001
0000
0010
0000
,
1000
0010
0100
0000
,
0001
0000
0010
0000
,
0001
0000
0000
0000
,
0100
0010
0001
0000
,
0100
0010
0001
0000
,
0001
0100
0010
0000
,
0010
1000
0001
0000
,
0001
0010
0010
0000
,
1000
0010
0010
0000
,
0001
0010
0100
0000
,
0001
0000
0000
0000
;
