#TITLE:Spread Your Wings;
#SUBTITLE:;
#ARTIST:System F;
#TITLETRANSLIT:;
#SUBTITLETRANSLIT:;
#ARTISTTRANSLIT:;
#GENRE:;
#CREDIT:Scott "Suko" Philipp;
#BANNER:spread_your_wings.png;
#BACKGROUND:spread_your_wings-bg.png;
#LYRICSPATH:;
#CDTITLE:suko 9x1.png;
#MUSIC:System F-Spread Your Wings.mp3;
#OFFSET:-1.030;
#SAMPLESTART:42.710;
#SAMPLELENGTH:14.480;
#SELECTABLE:YES;
#BPMS:0.000=143.700,148.000=71.850,166.000=143.700;
#STOPS:;
#BGCHANGES:;
#KEYSOUNDS:;

//---------------dance-single - S. Philipp----------------
#NOTES:
     dance-single:
     S. Philipp:
     Challenge:
     9:
     0.626,0.687,0.047,0.047,0.640:
0000
0000
0000
0000
,
0000
0000
0000
0000
,
0000
0000
0000
0000
,
0000
0000
0000
0000
,
0000
0000
0000
0000
,
1000
0000
0001
1000
0000
0010
1000
0000
,
0100
0010
0000
0001
,
0100
0000
0010
0000
0000
0000
0100
0001
,
0100
0000
0001
1000
0000
1000
0001
0000
,
1000
0000
0100
0010
0000
0010
0001
0100
,
0001
1000
0010
0000
0000
0000
0010
0100
,
0001
1000
0100
0000
0000
0000
0010
0001
,
1000
0000
1000
0001
0000
0001
0100
0000
,
0010
0000
0000
0010
0000
0000
0010
0000
0000
0010
0000
0000
1000
0000
0010
0000
,
0100
0000
0000
0100
0000
0000
0100
0000
0000
0100
0000
0000
0010
0000
1000
0000
,
0001
0000
0000
0001
0000
0000
0001
0000
0000
0001
0000
0000
0010
0000
0100
0000
,
1000
0000
0000
1000
0000
0000
1000
0000
0000
1000
0000
0000
0010
0000
0100
0000
,
0001
0000
0001
1000
0000
1000
0100
0000
0010
0100
0010
0000
0001
0000
0010
0000
,
0001
0000
0010
0100
0000
0100
1000
0000
0010
1000
0010
0000
0100
0000
0001
0000
,
0100
0000
0100
0001
0000
0001
1000
0000
0100
1000
0100
0000
0010
0000
0001
0000
,
0010
0000
0010
0100
0000
0100
1000
0000
1000
0100
0010
0001
1000
0100
0010
0000
,
0001
0000
1000
0001
1000
0000
0001
0100
0001
0000
0100
0010
0100
0000
0010
1000
,
0010
0000
1000
0100
1000
0000
0100
0010
0100
0000
0010
0001
0010
0000
0001
1000
,
0001
0000
0100
0001
0100
0000
0010
0100
0010
0000
0000
0000
0100
0000
0001
0000
,
0100
1000
0100
0001
0010
1000
0010
0000
,
0001
0000
0010
0100
1000
0000
1000
0100
0010
0000
0001
1000
0001
0000
0100
0010
,
1000
0000
1000
0010
0100
0000
0001
1000
0001
0000
0010
0100
1000
0000
1000
0100
,
0010
0000
0001
1000
0001
0000
1000
0010
0100
0000
0000
0000
0001
0000
0010
0000
,
0100
0000
1000
0100
1000
0000
0010
0100
0010
0000
0100
0001
0100
0001
0100
0001
,
0100
0000
0000
0001
0000
0000
1000
0000
0000
0100
0000
0100
0010
0000
0001
0000
,
1000
0000
0000
0100
0000
0000
0010
0000
0000
0001
0000
0001
0010
0000
0100
0000
,
1000
0000
0000
0010
0000
0000
0100
0000
0000
0001
0000
0001
0010
0000
0100
0000
,
1000
0000
0000
0100
0000
0000
1000
0000
0000
0100
0000
0100
0010
0000
0001
0000
,
1000
0000
0000
0010
0000
0000
0100
0000
0000
0001
0000
0100
0010
0100
0010
0000
,
1000
0000
0000
0001
0000
0000
0100
0000
0000
0010
0000
1000
0010
1000
0010
0000
,
1000
0000
0000
0100
0000
0000
1000
0000
0000
0100
0000
0010
0001
0010
0001
0000
,
1000
0000
0000
0001
0000
0000
1000
0000
0000
0001
0000
0100
0010
0100
0010
0000
,
0110
0000
0010
1000
0000
1000
0100
0000
1100
0000
1000
0100
0000
0100
0010
0000
,
0011
0000
0001
0100
0000
0100
0010
0100
0010
0000
0100
0001
0000
0001
0010
0000
,
0011
0000
0001
0100
0000
0100
0010
0100
0010
0000
0010
1000
0000
1000
0100
0010
,
0001
0000
0001
0010
0000
0010
0100
0000
2200
0000
3300
0000
1000
0000
0100
0000
,
0010
0000
0001
0000
1000
0000
0001
0000
1000
0000
0001
1000
0001
0000
1000
0010
,
1000
0000
0010
0100
0010
0000
0100
0001
0100
0000
0001
0010
0001
0000
0010
0100
,
0010
0000
0100
1000
0100
0000
1000
0001
1000
0000
0010
1000
0010
0000
0100
0010
,
0100
0000
0010
1000
0100
0001
0010
1000
,
0100
0000
0010
0000
0001
0000
0000
0000
1000
0000
0001
0010
0001
0000
1000
0100
,
1000
0000
0001
0100
0001
0000
1000
0010
1000
0000
0001
1000
0001
0000
1000
0100
,
1000
0000
0100
0010
0100
0000
0010
0001
0010
0000
0001
1000
0001
0000
1000
0010
,
1000
0000
1000
0010
0100
0001
0010
0100
,
1000
0000
0010
0000
0200
0000
0300
0000
0001
0000
0001
0010
0000
0010
0001
0000
,
0010
0000
0100
0000
1000
0000
0000
0000
0010
0000
0010
0100
0000
0100
0010
0000
,
0100
0000
0001
0000
0010
0000
0000
0000
0100
0000
0100
1000
0000
1000
0100
0000
,
0001
0100
1000
0010
0001
0010
1000
0100
,
0001
0000
0100
0000
2000
3000
0000
0000
0010
0000
0100
0001
0000
0100
0001
0000
,
1000
0010
0100
0001
1000
0000
0000
0000
1000
0000
0100
0010
0000
0100
0010
0000
,
0001
0010
0100
1000
0001
0000
0000
0000
0001
0000
1000
0100
0000
1000
0100
0000
,
1000
0100
0010
0001
1000
0000
0001
0000
1000
0000
0001
0010
0100
0000
1000
0010
,
0100
0000
0001
0010
0100
1000
0001
0010
0200
0000
0000
0000
0000
0000
0000
0000
,
0300
0000
0000
0000
;

//---------------dance-single - S.Philipp----------------
#NOTES:
     dance-single:
     S.Philipp:
     Hard:
     8:
     0.501,0.681,0.047,0.142,0.341:
0000
0000
0000
0000
,
0000
0000
0000
0000
,
0000
0000
0000
0000
,
0000
0000
0000
0000
,
0000
0000
0000
0000
,
1000
0000
0001
1000
0000
0010
1000
0000
,
0100
0010
0000
0001
,
0100
0000
0010
0000
0000
0000
0100
0001
,
0100
0000
0001
1000
0000
1000
0001
0000
,
1000
0000
0100
0010
0000
0010
0001
0100
,
0001
1000
0010
0000
0000
0000
0010
0100
,
0001
1000
0100
0000
0000
0000
0010
0001
,
1000
0000
1000
0001
0000
0001
0100
0000
,
0010
0000
0000
0010
0000
0000
0010
0000
0000
0010
0000
0000
1000
0000
0010
0000
,
0100
0000
0000
0100
0000
0000
0100
0000
0000
0100
0000
0000
0010
0000
1000
0000
,
0001
0000
0000
0001
0000
0000
0001
0000
0000
0001
0000
0000
0010
0000
0100
0000
,
1000
0000
0000
1000
0000
0000
1000
0000
0000
1000
0000
0000
0010
0000
0100
0000
,
0001
0000
0001
1000
0000
1000
0100
0000
0010
0000
0010
0000
0001
0000
0010
0000
,
0001
0000
0010
0100
0000
0100
1000
0000
0010
0000
0010
0000
0100
0000
0001
0000
,
0100
0000
0100
0001
0000
0001
1000
0000
0100
0000
0100
0000
0010
0000
0001
0000
,
0010
0000
0000
0010
0000
0000
0100
0000
0000
0100
0000
0000
1000
0000
0010
0000
,
1000
0100
0001
0100
1000
0010
0001
0010
,
1000
0100
0001
0100
1000
0010
1000
0010
,
1000
0100
0010
0001
0010
0001
1000
0001
,
0200
0000
0310
0010
0000
1000
1000
0000
,
0001
0010
1000
0010
0001
0100
1000
0100
,
0001
0010
1000
0010
0001
0100
0001
0100
,
0001
0010
0100
1000
0100
1000
0001
1000
,
0020
0000
0130
0100
0000
0001
0001
0000
,
2000
0000
0000
0100
3000
0010
0002
0000
0000
0000
0003
0000
0000
0000
0001
0000
,
1000
0000
0000
0010
0000
0100
0020
0000
0000
0000
0030
0000
0000
0000
1000
0000
,
0001
0000
0000
0100
0000
0010
0200
0000
0000
0000
0300
0000
0000
0000
0001
0000
,
1000
0000
0000
0010
0000
0100
0020
0000
0000
0000
0030
0000
0000
0000
0100
0000
,
0010
0000
0000
1000
0000
0001
2000
0000
0000
0000
3000
0000
0000
0000
0100
0000
,
0010
0000
0000
0001
0000
1000
0002
0000
0000
0000
0003
0000
0000
0000
0001
0000
,
1000
0000
0000
0010
0000
0100
0020
0000
0000
0000
0030
0000
0000
0000
1000
0000
,
0001
0000
0000
0100
0000
0010
0200
0000
0000
0000
0300
0000
0000
0000
0000
0000
,
0110
0000
0010
1000
0000
1000
0100
0000
1100
0000
1000
0100
0000
0100
0010
0000
,
0011
0000
0001
0100
0000
0010
0100
0010
0100
0000
0100
0001
0000
0001
0010
0000
,
0011
0000
0001
0100
0000
0100
0010
0100
0010
0000
0010
1000
0000
1000
0100
0010
,
0001
0000
0001
0010
0000
0010
0100
0000
2200
0000
3300
0000
1000
0000
0001
0000
,
2000
0000
0000
0000
3000
0000
0000
0000
0001
0000
0000
0001
0100
0000
0000
0000
,
0100
0000
0000
0100
0010
0000
0000
0000
0010
0000
0000
0010
1000
0000
0000
0000
,
1000
0000
0000
1000
0100
0000
0000
0000
0100
0000
0000
0100
0010
0000
0001
0000
,
1000
0000
1000
0100
0001
0100
1000
0010
,
0001
0000
0010
0000
1000
0000
0000
0000
1000
0000
0000
1000
0010
0000
0000
0000
,
0010
0000
0000
0010
0100
0000
0000
0000
0100
0000
0000
0100
0001
0000
0000
0000
,
0001
0000
0000
0001
0010
0000
0000
0000
0010
0000
0000
0010
0100
0000
1000
0000
,
0001
0000
0001
0010
1000
0010
0001
0100
,
1000
0000
0100
0000
0001
0000
0000
0000
1000
0000
0001
0010
0000
0010
0001
0000
,
0010
0000
0100
0000
1000
0000
0000
0000
0010
0000
0010
0100
0000
0100
0010
0000
,
0100
0000
0001
0000
0010
0000
0000
0000
0100
0000
0100
1000
0000
1000
0100
0000
,
0010
0100
0010
0001
1000
0010
1000
0100
,
0010
0000
0001
0000
2000
3000
0000
0000
0001
0000
1000
0100
0000
0100
1000
0000
,
0100
0000
0010
0000
0001
0000
0000
0000
0100
0000
0100
0010
0000
0010
0100
0000
,
0010
0000
1000
0000
0100
0000
0000
0000
0100
0000
0100
1000
0000
1000
0100
0000
,
0010
0100
0010
0001
0010
0001
1000
0001
,
1000
0000
0004
4000
0000
0000
0000
0000
3003
0000
0000
0000
0000
0000
0000
0000
;

//---------------dance-single - S.Philipp----------------
#NOTES:
     dance-single:
     S.Philipp:
     Medium:
     6:
     0.416,0.382,0.009,0.142,0.000:
0000
0000
0000
0000
,
0000
0000
0000
0000
,
0000
0000
0000
0000
,
0000
0000
0000
0000
,
0000
0000
0000
0000
,
1000
0000
0001
1000
0000
0010
1000
0000
,
0100
0010
0000
0001
,
0100
0000
0010
0000
0000
0000
0100
0001
,
0100
0000
0001
1000
0000
1000
0001
0000
,
1000
0000
0100
0010
0000
0010
0001
0100
,
0001
1000
0010
0000
0000
0000
0010
0100
,
0001
1000
0100
0000
0000
0000
0010
0001
,
1000
0000
1000
0001
0000
0001
0100
0000
,
0010
0000
0010
0010
0000
0010
1000
0010
,
0100
0000
0100
0100
0000
0100
0010
1000
,
0001
0000
0001
0001
0000
0001
0010
0100
,
1000
0000
1000
1000
0000
1000
0010
0100
,
0001
0001
1000
0100
0010
0010
0001
0000
,
0001
0010
0100
0100
0010
0010
0100
0000
,
0001
1000
0001
1000
0100
0100
0010
0000
,
0010
0001
0010
0100
0010
0100
1000
0000
,
1000
0100
0001
0100
1000
0100
0010
0000
,
0001
0010
1000
0010
0001
0010
0001
0000
,
0100
0001
0010
0001
0100
0001
1000
0000
,
0010
1000
0100
1000
0010
1000
0010
0000
,
1000
0100
0001
0100
1000
0100
0010
0000
,
0001
0010
1000
0010
0001
0010
0001
0000
,
0100
0001
0010
0001
0100
0001
1000
0000
,
0010
1000
0100
1000
0010
1000
0010
0000
,
2000
0000
3000
0002
0000
0003
0000
0001
,
1000
0000
0010
0020
0000
0030
0000
1000
,
0001
0000
0100
0200
0000
0300
0000
0001
,
1000
0000
0010
0020
0000
0030
0000
0100
,
0010
0000
1000
2000
0000
3000
0000
0100
,
0010
0000
0001
0002
0000
0003
0000
0001
,
1000
0000
0010
0020
0000
0030
0000
1000
,
0001
0000
0100
0200
0000
0300
0000
0000
,
0010
1000
0100
0010
,
0001
0000
0100
0010
0010
0100
0001
0000
,
0001
0100
0010
1000
,
0001
0001
0010
0010
2200
3300
1000
0001
,
2000
3000
0001
0001
,
0100
0010
0010
0010
,
1000
0000
0100
0000
0100
0000
0010
0001
,
1000
0000
0001
0100
0010
0000
0001
1000
,
0010
1000
0001
0000
1000
0000
0100
0001
,
0000
1000
1000
0000
0001
0000
0001
1000
,
0000
0001
0001
0000
1000
0000
0100
0001
,
0000
1000
1000
0000
0001
0000
0001
1000
,
0000
0001
0001
0000
1000
0001
1000
0001
,
1000
0001
1000
0000
0010
0100
0010
0100
,
0010
0100
0010
0000
0100
0001
0100
0001
,
0100
0001
0100
0000
1000
0100
1000
0000
,
1000
0100
2000
3000
0001
0010
0100
0000
,
0100
0010
0001
0000
0100
0001
1000
0000
,
1000
0001
0100
0000
0001
1000
0001
0000
,
1000
0001
1000
0100
1000
0001
0100
0001
,
1000
0002
2000
0000
3003
0000
0000
0000
;

//---------------dance-single - S.Philipp----------------
#NOTES:
     dance-single:
     S.Philipp:
     Easy:
     3:
     0.248,0.300,0.009,0.057,0.000:
0000
0000
0000
0000
,
0000
0000
0000
0000
,
0000
0000
0000
0000
,
0000
0000
0000
0000
,
0000
0000
0000
0000
,
1000
0001
0000
1000
,
0100
0010
0000
0001
,
0100
0010
0000
0100
,
0100
0001
0000
0001
,
1000
0100
0000
0001
,
0001
0010
0000
0010
,
0001
0100
0000
0010
,
1000
1000
0000
0100
,
0010
0010
0000
1000
,
0100
0100
0000
0010
,
0001
0001
0000
0010
,
1000
1000
0000
0010
,
0001
1000
0010
0001
,
0001
0100
0010
0100
,
0001
0001
0100
0010
,
0010
0010
0010
1000
,
1000
0001
1000
0010
,
0001
1000
0001
0001
,
0100
0010
0100
1000
,
0010
0100
0010
0010
,
1000
0001
1000
0010
,
0001
1000
0001
0001
,
0100
0010
0100
1000
,
0010
0100
0010
0010
,
2000
3000
0000
0000
,
1000
0010
0000
0000
,
0001
0100
0000
0000
,
1000
0010
0000
0000
,
0010
1000
0000
0000
,
0010
0001
0000
0000
,
1000
0010
0000
0000
,
0001
0100
0000
0000
,
0010
1000
0100
0010
,
0001
0100
0010
0001
,
0001
0100
0010
1000
,
0001
0000
0010
0000
2200
3300
1000
0000
,
2000
3000
0001
0001
,
0100
0010
0010
0010
,
1000
0100
0100
0010
,
1000
0001
0010
0001
,
0010
0001
1000
0100
,
0000
1000
0001
0001
,
0000
0001
1000
0100
,
0000
1000
0001
0001
,
0000
0001
1000
1000
,
1000
1000
0010
0010
,
0010
0010
0100
0100
,
0100
0100
1000
1000
,
1000
0000
2000
3000
0001
0000
0100
0000
,
0100
0001
0100
1000
,
1000
0100
0001
0001
,
1000
1000
1000
0100
,
1000
2000
3000
0000
;

//---------------dance-single - S. Philipp----------------
#NOTES:
     dance-single:
     S. Philipp:
     Beginner:
     2:
     0.183,0.163,0.000,0.000,0.000:
0000
0000
0000
0000
,
0000
0000
0000
0000
,
0000
0000
0000
0000
,
0000
0000
0000
0000
,
0000
0000
0000
0000
,
1000
0001
0000
1000
,
0000
0010
0000
0001
,
0000
0010
0000
0100
,
0000
0001
0000
0001
,
0000
0100
0000
0001
,
0000
0010
0000
0010
,
0000
0100
0000
0010
,
0000
1000
0000
0100
,
0000
0010
0000
1000
,
0000
0100
0000
0010
,
0000
0001
0000
0010
,
0000
1000
0000
0010
,
0000
1000
0010
0001
,
0000
0100
0010
0100
,
0000
0001
0100
0010
,
0000
0010
0010
1000
,
0000
0001
1000
0010
,
0000
1000
0001
0001
,
0000
0010
0100
1000
,
0000
0100
0010
0010
,
0000
0001
1000
0010
,
0000
1000
0001
0001
,
0000
0010
0100
1000
,
0000
0100
0010
0010
,
0000
0000
0000
0000
,
1000
0010
0000
0000
,
0001
0100
0000
0000
,
1000
0010
0000
0000
,
0010
1000
0000
0000
,
0010
0001
0000
0000
,
1000
0010
0000
0000
,
0001
0100
0000
0000
,
0010
1000
0100
0010
,
0000
0100
0010
0001
,
0000
0100
0010
1000
,
0000
0010
0100
1000
,
0000
0000
0001
0001
,
0000
0010
0010
0010
,
0000
0100
0100
0010
,
0000
0001
0010
0001
,
0000
0001
1000
0100
,
0000
1000
0001
1000
,
0000
0001
1000
0100
,
0000
1000
0001
1000
,
0000
0001
1000
0000
,
0001
1000
0010
0000
,
0010
0010
0100
0000
,
0100
0100
1000
0000
,
1000
1000
0001
0000
,
0100
0001
0100
0000
,
1000
0100
0000
0001
,
1000
0000
1000
0100
,
0000
1000
0000
0000
;
