#TITLE:Green Hill Zone;
#SUBTITLE:From Sonic Mania;
#ARTIST:Masato Nakamura | Tee Lopes;
#TITLETRANSLIT:;
#SUBTITLETRANSLIT:;
#ARTISTTRANSLIT:;
#GENRE:;
#CREDIT:Scott "Suko" Philipp;
#BANNER:green_hill-bn.png;
#BACKGROUND:green_hill-bg.png;
#JACKET:green_hill-jacket.png;
#LYRICSPATH:;
#CDTITLE:suko-CDtitle.png;
#MUSIC:Green Hill Zone.mp3;
#OFFSET:-0.060;
#SAMPLESTART:28.090;
#SAMPLELENGTH:17.000;
#SELECTABLE:YES;
#BPMS:0.000=150.000;
#STOPS:;
#BGCHANGES:;
#KEYSOUNDS:;

//---------------dance-single - S.Philipp----------------
#NOTES:
     dance-single:
     S.Philipp:
     Easy:
     3:
     0.176,0.218,0.000,0.042,0.000:
0000
0000
0000
0000
,
0001
1000
0000
0001
,
1000
0000
0010
0010
,
0010
1000
0000
1000
,
0001
0010
0001
0010
,
0001
0010
0000
0010
,
0001
1000
0000
1000
,
0001
0001
0000
0000
,
0000
0000
1000
1000
,
1000
0000
0010
0000
,
1000
0001
0000
0000
,
0000
0000
0010
0000
,
0001
0100
0000
0000
,
0000
0000
0010
0000
,
0001
1000
0000
0000
,
0000
0000
1000
0000
,
0010
0100
0000
0000
,
0000
0000
0100
0000
,
0001
1000
0000
0000
,
0000
0000
0100
0000
,
0001
0010
0000
0000
,
0000
0000
0100
0000
,
1000
0001
0000
0000
,
0000
0000
0001
0000
,
0100
0010
0000
1000
,
1000
1000
0000
0010
,
0010
0000
0100
0001
,
0002
0000
0000
0000
,
0000
0003
0001
0100
,
0020
0000
0000
0000
,
0000
0030
0100
0010
,
0000
1000
0000
1000
,
0000
0001
0001
0010
,
0000
0000
0010
0000
,
1000
0001
0000
0000
,
0000
0000
0010
0000
,
0001
0100
0000
0000
,
0000
0000
0010
0000
,
0001
1000
0000
0000
,
0000
0000
1000
0000
,
0010
0100
0000
0000
,
0000
0000
0100
0000
,
0001
1000
0000
0000
,
0000
0000
0100
0000
,
0001
0010
0000
0000
,
0000
0000
0100
0000
,
1000
0001
0000
0000
,
0000
0000
0001
0000
,
0100
0010
0000
1000
,
1000
1000
0000
0010
,
0010
0000
0100
0001
,
0002
0000
0000
0000
,
0000
0003
0001
0100
,
0020
0000
0000
0000
,
0000
0030
0100
0010
,
0000
1000
0000
1000
,
0000
0001
0001
0010
,
0000
1000
0000
0001
,
0000
1000
0000
0001
,
0000
1000
0000
0001
;

//---------------dance-single - S.Philipp----------------
#NOTES:
     dance-single:
     S.Philipp:
     Hard:
     8:
     0.649,0.715,0.460,0.825,0.104:
4000
0004
0000
0000
0000
0000
0000
0000
0000
0000
0000
0000
3003
0000
0000
0000
,
0001
0000
1000
0010
0000
0010
0100
0000
,
0100
0010
0000
0010
1000
0000
0100
0000
,
2200
3300
0000
0022
0033
0000
2002
3003
,
0000
1000
0001
1000
0001
1000
0001
1000
,
0002
0003
0000
0202
0303
0000
0020
0030
,
2000
3000
0000
2020
3030
0000
2000
3000
,
0002
0003
0000
2002
0000
0000
0000
0000
,
0000
3003
0000
0000
1000
0001
1000
0001
,
1000
0000
0000
0000
0011
0000
0000
0000
0001
0000
0100
0000
0000
0000
0010
1000
,
0010
0000
0000
0000
1000
0000
0010
0000
0000
0000
0100
0010
0100
0000
0101
0000
,
0000
0000
0001
1000
0010
0100
0000
0001
,
0001
0000
0000
0000
1000
0000
0100
0000
0000
0000
0010
0100
0010
0000
0002
0000
,
0000
0003
0000
0000
0010
0001
0000
0001
,
0001
0000
0000
0000
1000
0000
0010
0000
0000
0000
0100
0010
0100
0000
0110
0000
,
0000
0000
0000
1000
0010
1000
0000
0001
,
0001
0000
1000
0100
0000
0220
0000
0330
,
0000
0000
MMMM
0000
0000
0000
0000
0000
1000
0000
0010
0000
0000
0000
0100
0001
,
0100
0000
0000
0000
0001
0000
0100
0000
0000
0000
0010
0100
0010
0000
1010
0000
,
0010
0000
1000
0001
0100
0010
0000
1000
,
1000
0000
0000
0000
0001
0000
0010
0000
0000
0000
0100
0010
0100
0000
2000
0000
,
0100
3000
0000
0000
0100
1000
0000
1000
,
1000
0000
0000
0000
0001
0000
0100
0000
0000
0000
0010
0100
0010
0000
0110
0000
,
0010
0000
0000
1000
0001
1000
0000
1000
,
1001
0000
0001
0100
0000
0010
1000
0010
,
2020
3030
0000
0000
0010
0000
2020
3030
0000
0000
1000
0000
2200
3300
0000
0000
,
0100
0000
0220
0330
0000
0000
0001
0000
0010
0000
0100
0000
1000
0000
0100
0000
,
0220
0330
0000
0000
0001
0000
0022
0033
0000
0000
1000
0000
2002
3003
0000
0000
,
0001
0000
0202
0303
0000
0000
1000
0000
0010
0000
0100
0000
0001
0000
0100
0000
,
0202
0303
0000
0000
0100
0000
0202
0303
0000
0000
0001
0000
0022
0033
0000
0000
,
0010
0000
0220
0330
0000
0000
0100
0000
0010
0000
0001
0000
1000
0000
0200
0000
,
0000
0310
0001
0010
0000
0001
0010
0100
,
0000
0000
1000
0001
1000
0000
0010
0000
1000
0000
0010
0000
0100
0000
0202
0000
,
0303
0000
0000
0000
0000
0000
0000
0000
1000
0000
0010
0000
0000
0000
0100
0001
,
0100
0000
0000
0000
0001
0000
0100
0000
0000
0000
0010
0100
0010
0000
1010
0000
,
0000
0000
1000
0001
0100
0010
0000
1000
,
1000
0000
0000
0000
0001
0000
0010
0000
0000
0000
0100
0010
0100
0000
2000
0000
,
0100
0000
3000
0000
0000
0000
0000
0000
0100
0000
1000
0000
0000
0000
1000
0100
,
1000
0000
0000
0000
0001
0000
0100
0000
0000
0000
0010
0100
0010
0000
0110
0000
,
0000
0000
0000
0001
0100
0001
0000
1000
,
1000
0000
0001
0010
0000
0220
0000
0330
,
0000
0000
MMMM
0000
0000
0000
0000
0000
0001
0000
0100
0000
0000
0000
0010
1000
,
0010
0000
0000
0000
1000
0000
0010
0000
0000
0000
0100
0010
0100
0000
0101
0000
,
0100
0000
0001
1000
0010
0100
0000
0001
,
0001
0000
0000
0000
1000
0000
0100
0000
0000
0000
0010
0100
0010
0000
0002
0000
,
0010
0003
0000
0000
0010
0001
0000
1000
,
1000
0000
0000
0000
0010
0000
1000
0000
0000
0000
0010
1000
0010
0000
1010
0000
,
1000
0000
0000
0001
1000
0010
0000
0010
,
1000
0000
1000
0100
0000
0010
0001
0100
,
0202
0303
0000
0000
0100
0000
0202
0303
0000
0000
0001
0000
0022
0033
0000
0000
,
0010
0000
0220
0330
0000
0000
1000
0000
0100
0000
0010
0000
0001
0000
0010
0000
,
0220
0330
0000
0000
1000
0000
2200
3300
0000
0000
0001
0000
2002
3003
0000
0000
,
1000
0000
2020
3030
0000
0000
0001
0000
0100
0000
0010
0000
1000
0000
0010
0000
,
2020
3030
0000
0000
0010
0000
2020
3030
0000
0000
1000
0000
2200
3300
0000
0000
,
0100
0000
0220
0330
0000
0000
0010
0000
0100
0000
1000
0000
0001
0000
0020
0000
,
0000
0130
1000
0100
0000
1000
0100
0010
,
0000
0000
0001
1000
0001
0000
0100
0000
0001
0000
0100
0000
0010
0000
2020
0000
,
3030
0000
0000
0000
;

//---------------dance-single - S.Philipp----------------
#NOTES:
     dance-single:
     S.Philipp:
     Medium:
     7:
     0.567,0.595,0.491,0.784,0.000:
0000
0000
0000
0000
,
0001
0000
1000
0010
0000
0010
0100
0000
,
0100
0010
0000
0010
1000
0000
0100
0000
,
2200
3300
0000
0022
0033
0000
2002
3003
,
0000
1000
0001
1000
0001
1000
0001
1000
,
0002
0003
0000
0202
0303
0000
0020
0030
,
2000
3000
0000
2020
3030
0000
2000
3000
,
0002
0003
0000
2002
0000
0000
0000
0000
,
0000
3003
0000
0000
1000
0001
1000
0001
,
1000
0000
0011
0000
0001
0100
0000
0010
,
1010
0000
1000
0010
0000
0100
0010
1000
,
0000
0000
0001
1000
0010
0100
0000
0001
,
1001
0000
1000
0100
0000
0010
0100
0020
,
0000
0030
0000
0000
0010
0001
0000
0001
,
0011
0000
1000
0010
0000
0100
0010
0100
,
0000
0000
0000
1000
0010
1000
0000
0001
,
0001
0000
1000
0100
0000
0220
0000
0330
,
0000
MMMM
0000
0000
1000
0010
0000
0100
,
0101
0000
0001
0100
0000
0010
0100
0010
,
0000
0000
1000
0001
0100
0010
0000
1000
,
1010
0000
0001
0010
0000
0100
0010
0100
,
0000
0000
0000
0000
0100
1000
0000
1000
,
1100
0000
0001
0100
0000
0010
0100
0010
,
0000
0000
0000
1000
0001
1000
0000
1000
,
1001
0000
0001
0100
0000
0010
1000
0010
,
2020
3030
0000
2020
3030
0000
2200
3300
,
0000
0220
0330
0000
0001
1000
0001
0000
,
2002
3003
0000
0022
0033
0000
2002
3003
,
0000
0202
0303
0000
0001
1000
0001
1000
,
2002
3003
0000
0202
0303
0000
0022
0033
,
0000
0220
0330
0000
0010
0001
1000
0200
,
0000
0310
0001
0010
0000
0001
0010
0100
,
0000
1000
0100
0010
0001
0010
0100
0020
,
0030
0000
0000
0000
1000
0010
0000
0100
,
0101
0000
0001
0100
0000
0010
0100
0001
,
0000
0000
1000
0001
0100
0010
0000
1000
,
1001
0000
0001
0010
0000
0100
0010
0200
,
0000
0300
0000
0000
0100
1000
0000
1000
,
1100
0000
0001
0100
0000
0010
0100
0010
,
0000
0000
0000
0001
0100
0001
0000
1000
,
1000
0000
0001
0010
0000
0220
0000
0330
,
0000
MMMM
0000
0000
0001
0100
0000
0010
,
1010
0000
1000
0010
0000
0100
0010
0100
,
0000
0000
0001
1000
0010
0100
0000
0001
,
0101
0000
1000
0100
0000
0010
0100
0010
,
0000
0000
0000
0000
0010
0001
0000
0001
,
0011
0000
1000
0010
0000
0100
0010
0100
,
0000
0000
0000
0001
1000
0001
0000
0001
,
1001
0000
1000
0010
0000
0100
0001
0100
,
0202
0303
0000
0202
0303
0000
0022
0033
,
0000
0220
0330
0000
1000
0001
1000
0000
,
2002
3003
0000
2200
3300
0000
2002
3003
,
0000
2020
3030
0000
1000
0001
1000
0001
,
2002
3003
0000
2020
3030
0000
2200
3300
,
0000
0220
0330
0000
0100
1000
0001
0020
,
0000
0130
1000
0100
0000
1000
0100
0010
,
0000
0001
0010
0100
1000
0100
0010
0200
,
0300
0000
0000
0000
;

//---------------dance-single - Edits----------------
#NOTES:
     dance-single:
     Edits:
     Edit:
     8:
     -1.000,-1.000,-1.000,-1.000,-1.000:
4000
0004
0000
0000
0000
0000
0000
0000
0000
0000
0000
0000
3003
0000
0000
0000
,
0001
0000
1000
0010
0000
0010
0100
0000
,
0100
0010
0000
0010
1000
0000
0100
0000
,
2200
3300
0000
0022
0033
0000
2002
3003
,
0000
1000
0001
1000
0001
1000
0001
1000
,
2002
3003
0000
0202
0303
0000
0020
0030
,
2000
3000
0000
2020
3030
0000
2000
3000
,
0002
0003
0000
2002
0000
0000
0000
0000
,
0000
3003
0000
0000
1000
0001
1000
0001
,
1000
0000
1001
0000
0001
0100
0000
0010
,
0010
0000
0000
0000
1000
0000
0010
0000
0000
0000
0100
0010
0100
0000
0101
0000
,
0000
0000
0001
1000
0010
0100
0000
0001
,
0001
0000
0000
0000
1000
0000
0100
0000
0000
0000
0010
0100
0010
0000
0002
0000
,
0000
0003
0000
0000
0010
0001
0000
0001
,
0001
0000
0000
0000
1000
0000
0010
0000
0000
0000
0100
0010
0100
0000
0110
0000
,
0000
0000
0000
1000
0010
1000
0000
0001
,
0001
0000
1000
0100
0000
0220
0000
0330
,
0000
0000
MMMM
0000
0000
0000
0000
0000
1000
0000
0010
0000
0000
0000
0100
0001
,
0100
0000
0000
0000
0001
0000
0100
0000
0000
0000
0010
0100
0010
0000
1010
0000
,
0010
0000
1000
0001
0100
0010
0000
1000
,
1000
0000
0000
0000
0001
0000
0010
0000
0000
0000
0100
0010
0100
0000
2000
0000
,
0100
3000
0000
0000
0100
1000
0000
1000
,
1000
0000
0000
0000
0001
0000
0100
0000
0000
0000
0010
0100
0010
0000
0110
0000
,
0010
0000
0000
1000
0001
1000
0000
1000
,
1001
0000
0001
0100
0000
0010
1000
0010
,
2020
3030
0000
0000
0010
0000
2020
3030
0000
0000
1000
0000
2200
3300
0000
0000
,
0100
0000
0220
0330
0000
0000
0001
0000
0010
0000
0100
0000
1000
0000
0100
0000
,
0220
0330
0000
0000
0001
0000
0022
0033
0000
0000
1000
0000
2002
3003
0000
0000
,
0001
0000
0202
0303
0000
0000
1000
0000
0010
0000
0100
0000
0001
0000
0100
0000
,
0202
0303
0000
0000
0100
0000
0202
0303
0000
0000
0001
0000
0022
0033
0000
0000
,
0010
0000
0220
0330
0000
0000
0100
0000
0010
0000
0001
0000
1000
0000
0200
0000
,
0000
0310
0001
0020
0030
0001
0010
0200
,
0300
0000
1000
0001
1000
0000
0010
0000
1000
0000
0010
0000
0100
0000
0202
0000
,
0303
0000
0000
0000
0000
0000
0000
0000
1000
0000
0010
0000
0000
0000
0100
0001
,
0100
0000
0000
0000
0001
0000
0100
0000
0000
0000
0010
0100
0010
0000
1010
0000
,
0000
0000
1000
0001
0100
0010
0000
1000
,
1000
0000
0000
0000
0001
0000
0010
0000
0000
0000
0100
0010
0100
0000
2000
0000
,
0100
0000
3000
0000
0000
0000
0000
0000
0100
0000
1000
0000
0000
0000
1000
0100
,
1000
0000
0000
0000
0001
0000
0100
0000
0000
0000
0010
0100
0010
0000
0110
0000
,
0000
0000
0000
0001
0100
0001
0000
1000
,
1000
0000
0001
0010
0000
0220
0000
0330
,
0000
0000
MMMM
0000
0000
0000
0000
0000
0001
0000
0100
0000
0000
0000
0010
1000
,
0010
0000
0000
0000
1000
0000
0010
0000
0000
0000
0100
0010
0100
0000
0101
0000
,
0100
0000
0001
1000
0010
0100
0000
0001
,
0001
0000
0000
0000
1000
0000
0100
0000
0000
0000
0010
0100
0010
0000
0002
0000
,
0010
0003
0000
0000
0010
0001
0000
1000
,
1000
0000
0000
0000
0010
0000
1000
0000
0000
0000
0010
1000
0010
0000
1010
0000
,
1000
0000
0000
0001
1000
0010
0000
0010
,
1000
0000
1000
0100
0000
0010
0001
0100
,
0202
0303
0000
0000
0100
0000
0202
0303
0000
0000
0001
0000
0022
0033
0000
0000
,
0010
0000
0220
0330
0000
0000
1000
0000
0100
0000
0010
0000
0001
0000
0010
0000
,
0220
0330
0000
0000
1000
0000
2200
3300
0000
0000
0001
0000
2002
3003
0000
0000
,
1000
0000
2020
3030
0000
0000
0001
0000
0100
0000
0010
0000
1000
0000
0010
0000
,
2020
3030
0000
0000
0010
0000
2020
3030
0000
0000
1000
0000
2200
3300
0000
0000
,
0100
0000
0220
0330
0000
0000
0010
0000
0100
0000
1000
0000
0001
0000
0020
0000
,
0000
0130
1000
0200
0300
1000
0100
0020
,
0030
0000
0001
1000
0001
0000
0100
0000
0001
0000
0100
0000
0010
0000
2020
0000
,
3030
0000
0000
0000
;

//---------------lights-cabinet-----------------
#NOTES:
     lights-cabinet:
     SMLightsBuilder:
     Easy:
     1:
     0.000,0.000,0.000,0.000,0.000:
40002200
00040000
00000000
00000000
00000000
00000000
00000000
00000000
00000000
00000000
00000000
00000000
30033300
00000000
00000000
00000000
,
00011100
00000000
10001100
00100000
00000000
00100000
01001100
00000000
,
01001100
00100000
00000000
00100000
10001100
00000000
01001100
00000000
,
22002200
33003300
00000000
00222200
00333300
00000000
20022200
30033300
,
00000000
10000000
00011100
10000000
00011100
10000000
00011100
10000000
,
00022200
00033300
00000000
02022200
03033300
00000000
00202200
00303300
,
20002200
30003300
00000000
20202200
30303300
00000000
20002200
30003300
,
00022200
00033300
00000000
20022200
00000000
00000000
00000000
00000000
,
00000000
30033300
00000000
00000000
10001100
00010000
10001100
00010000
,
10001100
00000000
00000000
00000000
00111100
00000000
00000000
00000000
00011100
00000000
01000000
00000000
00000000
00000000
00100000
10000000
,
00101100
00000000
00000000
00000000
10001100
00000000
00100000
00000000
00000000
00000000
01000000
00100000
01001100
00000000
01011100
00000000
,
00000000
00000000
00011100
10000000
00101100
01000000
00000000
00010000
,
00011100
00000000
00000000
00000000
10001100
00000000
01000000
00000000
00000000
00000000
00100000
01000000
00101100
00000000
00022200
00000000
,
00000000
00033300
00000000
00000000
00101100
00010000
00000000
00010000
,
00011100
00000000
00000000
00000000
10001100
00000000
00100000
00000000
00000000
00000000
01000000
00100000
01001100
00000000
01101100
00000000
,
00000000
00000000
00000000
10000000
00101100
10000000
00000000
00010000
,
00011100
00000000
10001100
01000000
00000000
02202200
00000000
03303300
,
00000000
00000000
00000000
00000000
00000000
00000000
00000000
00000000
10001100
00000000
00100000
00000000
00000000
00000000
01000000
00010000
,
01001100
00000000
00000000
00000000
00011100
00000000
01000000
00000000
00000000
00000000
00100000
01000000
00101100
00000000
10101100
00000000
,
00101100
00000000
10001100
00010000
01001100
00100000
00000000
10000000
,
10001100
00000000
00000000
00000000
00011100
00000000
00100000
00000000
00000000
00000000
01000000
00100000
01001100
00000000
20002200
00000000
,
01000000
30003300
00000000
00000000
01001100
10000000
00000000
10000000
,
10001100
00000000
00000000
00000000
00011100
00000000
01000000
00000000
00000000
00000000
00100000
01000000
00101100
00000000
01101100
00000000
,
00101100
00000000
00000000
10000000
00011100
10000000
00000000
10000000
,
10011100
00000000
00011100
01000000
00000000
00100000
10001100
00100000
,
20202200
30303300
00000000
00000000
00101100
00000000
20202200
30303300
00000000
00000000
10000000
00000000
22002200
33003300
00000000
00000000
,
01001100
00000000
02202200
03303300
00000000
00000000
00010000
00000000
00101100
00000000
01000000
00000000
10001100
00000000
01000000
00000000
,
02202200
03303300
00000000
00000000
00011100
00000000
00222200
00333300
00000000
00000000
10000000
00000000
20022200
30033300
00000000
00000000
,
00011100
00000000
02022200
03033300
00000000
00000000
10000000
00000000
00101100
00000000
01000000
00000000
00011100
00000000
01000000
00000000
,
02022200
03033300
00000000
00000000
01001100
00000000
02022200
03033300
00000000
00000000
00010000
00000000
00222200
00333300
00000000
00000000
,
00101100
00000000
02202200
03303300
00000000
00000000
01000000
00000000
00101100
00000000
00010000
00000000
10001100
00000000
02002200
00000000
,
00000000
03103300
00011100
00100000
00000000
00010000
00101100
01000000
,
00000000
00000000
10000000
00010000
10001100
00000000
00100000
00000000
10001100
00000000
00100000
00000000
01001100
00000000
02022200
00000000
,
03033300
00000000
00000000
00000000
00000000
00000000
00000000
00000000
10001100
00000000
00100000
00000000
00000000
00000000
01000000
00010000
,
01001100
00000000
00000000
00000000
00011100
00000000
01000000
00000000
00000000
00000000
00100000
01000000
00101100
00000000
10101100
00000000
,
00000000
00000000
10001100
00010000
01001100
00100000
00000000
10000000
,
10001100
00000000
00000000
00000000
00011100
00000000
00100000
00000000
00000000
00000000
01000000
00100000
01001100
00000000
20002200
00000000
,
01000000
00000000
30003300
00000000
00000000
00000000
00000000
00000000
01001100
00000000
10000000
00000000
00000000
00000000
10000000
01000000
,
10001100
00000000
00000000
00000000
00011100
00000000
01000000
00000000
00000000
00000000
00100000
01000000
00101100
00000000
01101100
00000000
,
00000000
00000000
00000000
00010000
01001100
00010000
00000000
10000000
,
10001100
00000000
00011100
00100000
00000000
02202200
00000000
03303300
,
00000000
00000000
00000000
00000000
00000000
00000000
00000000
00000000
00011100
00000000
01000000
00000000
00000000
00000000
00100000
10000000
,
00101100
00000000
00000000
00000000
10001100
00000000
00100000
00000000
00000000
00000000
01000000
00100000
01001100
00000000
01011100
00000000
,
01001100
00000000
00011100
10000000
00101100
01000000
00000000
00010000
,
00011100
00000000
00000000
00000000
10001100
00000000
01000000
00000000
00000000
00000000
00100000
01000000
00101100
00000000
00022200
00000000
,
00100000
00033300
00000000
00000000
00101100
00010000
00000000
10000000
,
10001100
00000000
00000000
00000000
00101100
00000000
10000000
00000000
00000000
00000000
00100000
10000000
00101100
00000000
10101100
00000000
,
10001100
00000000
00000000
00010000
10001100
00100000
00000000
00100000
,
10001100
00000000
10001100
01000000
00000000
00100000
00011100
01000000
,
02022200
03033300
00000000
00000000
01001100
00000000
02022200
03033300
00000000
00000000
00010000
00000000
00222200
00333300
00000000
00000000
,
00101100
00000000
02202200
03303300
00000000
00000000
10000000
00000000
01001100
00000000
00100000
00000000
00011100
00000000
00100000
00000000
,
02202200
03303300
00000000
00000000
10001100
00000000
22002200
33003300
00000000
00000000
00010000
00000000
20022200
30033300
00000000
00000000
,
10001100
00000000
20202200
30303300
00000000
00000000
00010000
00000000
01001100
00000000
00100000
00000000
10001100
00000000
00100000
00000000
,
20202200
30303300
00000000
00000000
00101100
00000000
20202200
30303300
00000000
00000000
10000000
00000000
22002200
33003300
00000000
00000000
,
01001100
00000000
02202200
03303300
00000000
00000000
00100000
00000000
01001100
00000000
10000000
00000000
00011100
00000000
00202200
00000000
,
00000000
01303300
10001100
01000000
00000000
10000000
01001100
00100000
,
00000000
00000000
00010000
10000000
00011100
00000000
01000000
00000000
00011100
00000000
01000000
00000000
00101100
00000000
20202200
00000000
,
30303300
00000000
00000000
00000000
;
