#TITLE:You Can Do Anything;
#SUBTITLE:(Sonic Boom);
#ARTIST:Masafumi Ogata | Sonic CD;
#TITLETRANSLIT:;
#SUBTITLETRANSLIT:;
#ARTISTTRANSLIT:;
#GENRE:;
#CREDIT:Scott Philipp;
#BANNER:Anything-bn.png;
#BACKGROUND:Anything-bg.png;
#LYRICSPATH:;
#CDTITLE:suko 9x1.png;
#MUSIC:SonicCD-You Can Do Anything.ogg;
#OFFSET:-0.140;
#SAMPLESTART:61.080;
#SAMPLELENGTH:14.000;
#SELECTABLE:YES;
#BPMS:0.000=153.150;
#STOPS:;
#BGCHANGES:0.000=You Can Do Anything.avi=1.000=1=0=0=StretchNoLoop==CrossFade==,
228.000=Anything-bg.png=1.000=1=0=0=StretchNoLoop==CrossFade==,
99999=-nosongbg-=1.000=0=0=0 // don't automatically add -songbackground-
;
#KEYSOUNDS:;

//---------------dance-single - S. Philipp----------------
#NOTES:
     dance-single:
     S. Philipp:
     Hard:
     8:
     0.587,0.541,0.235,0.436,0.207:
0000
0000
0000
0000
,
0000
0000
0000
0000
,
0000
0000
0000
0000
,
2000
0000
0000
0000
0000
0000
0000
3000
,
1000
0000
0100
0020
0000
0000
0000
0000
,
0032
0000
0000
0003
,
0011
0011
1001
0101
,
1000
0000
0000
0000
0010
0000
1000
0010
1000
0000
0010
0000
1000
0000
0000
0000
,
1000
0000
0000
0000
0100
0000
1000
0000
0001
0000
0010
0001
0000
0000
0000
0000
,
0001
0000
0000
0000
0010
0000
0001
0010
0100
0000
0010
0000
0001
0000
0000
0000
,
0010
0000
0100
0010
0001
0010
0100
1000
,
0100
0000
0000
0000
0010
0000
0000
0000
0001
0010
0000
0001
0000
0000
0000
0000
,
1001
0000
0000
0000
0101
0000
0001
0000
1000
0000
0010
1000
0000
0000
0000
0000
,
0010
0000
0000
0000
1000
0000
0001
0100
0001
0000
0100
0000
0010
0000
1000
0000
,
0000
1010
1010
0000
0000
0000
0000
0000
,
1000
0010
1000
0000
0001
0000
1000
0000
0001
0000
1000
0000
0010
0000
0000
0000
,
0010
0100
0010
0000
1000
0000
0010
0000
0100
0000
0001
0000
0100
0000
0000
0000
,
0010
1000
0010
0000
1000
0000
0001
0000
1000
0000
0100
0000
0010
0000
0000
0000
,
0010
0001
0010
0000
0001
0000
0010
0000
0100
0000
1000
0000
0100
0000
0000
0000
,
0010
0001
0010
0000
0001
0000
1000
0000
0001
0000
1000
0000
0001
0000
0000
0000
,
1000
0001
0100
0000
0010
0000
0100
0000
0000
0000
0100
0000
0001
0000
0000
0000
,
1000
0010
0000
0000
0010
0100
0000
0000
0100
0000
0001
0000
1000
0000
0000
0000
,
0001
0100
0010
1000
0100
0010
0011
0000
,
0001
0000
0010
0000
0100
0000
0010
0000
0001
0000
0000
0011
0000
0000
0001
0000
,
0000
0000
1000
0000
0001
0000
1000
0000
0001
0000
0000
1001
0000
0000
1000
0000
,
0010
0100
0001
1000
0010
1000
0010
0100
,
0000
0000
0001
0100
0001
0000
1000
0000
0010
0000
1000
0000
0010
0000
0100
0000
,
0002
0000
0103
0002
0000
0000
0000
0000
,
0000
0000
0003
0000
0010
0001
0010
0001
,
1000
0000
0001
0000
0100
0000
0000
0000
0010
1000
0010
1000
0010
0000
0000
0000
,
0010
1000
0010
0000
1000
0010
1000
0000
,
1000
0000
0010
0000
0100
0000
0001
0000
1000
0000
0000
1001
0000
0000
1000
0000
,
0000
0000
0001
0000
1000
0000
0010
0000
0100
0000
0000
1010
0000
0000
1000
0000
,
0100
0010
0001
0010
0100
1000
0001
1000
,
0000
0000
0001
1000
0001
0000
1000
0000
0001
0000
0100
0000
0000
0000
0010
0000
,
0200
0000
0000
0300
0100
0000
0002
0000
0000
0003
0001
0000
0020
0000
0000
0000
,
0000
0000
0000
0230
2000
0000
0000
0300
,
3100
0000
1000
0000
0100
0000
1000
0000
0100
0000
0000
1100
0000
0000
0000
0000
,
0010
0000
0001
0000
0010
0000
0001
0000
0010
0000
0000
0011
0000
0000
0000
0000
,
0001
0010
0001
0000
1000
0000
0100
0000
0010
0000
0000
0000
0001
0000
0020
0000
,
0000
0030
0100
0000
0010
0000
0001
0000
0022
0000
0033
0000
0000
0000
0000
0000
,
1000
0100
0010
0000
0001
0000
1000
0000
0100
0000
0000
0000
0100
0000
0020
0000
,
0000
0031
0010
0100
2200
3300
0000
0000
,
1000
0000
0010
0000
1000
0000
0001
1000
0000
0000
0000
0000
0010
0000
0100
0000
,
0000
0000
0010
0100
0010
0000
1000
0010
0000
0000
1000
0000
0010
0000
0100
0000
,
0220
0000
0330
0000
0000
2000
0000
3020
,
0230
0000
0000
0002
0300
0000
2003
0000
3020
0000
0000
0000
0000
0000
0030
0000
,
1000
0100
1000
0000
0001
0000
0010
0000
0100
0000
0000
0000
1000
0000
0200
0000
,
0000
0300
0010
0000
0100
0000
1000
0000
2200
0000
3300
0000
0000
0000
0000
0000
,
0001
0010
0100
0000
1000
0000
0001
0000
0010
0000
0000
0000
0010
0000
0200
0000
,
0000
1300
0100
0010
0022
0033
0000
0000
,
0001
0000
0100
0000
0001
0000
1000
0001
0000
0000
0000
0000
0100
0000
0010
0000
,
0000
0000
0100
0010
0100
0000
0001
1000
0000
0000
0001
0000
0100
0000
0010
0000
,
0200
0000
0000
0000
0300
0002
0000
0203
,
0320
0000
0000
2000
0030
0000
3002
0000
0203
0000
0000
0000
0000
0000
0300
0000
,
0202
0000
0000
0000
,
0000
0000
0000
0000
,
0303
0000
0000
0000
;

//---------------dance-single - ALT STEPS----------------
#NOTES:
     dance-single:
     ALT STEPS:
     Edit:
     8:
     -1.000,-1.000,-1.000,-1.000,-1.000:
0000
0000
0000
0000
,
0000
0000
0000
0000
,
0000
0000
0000
0000
,
2200
0000
0000
3000
,
0310
0000
0000
0000
0010
0000
0002
0000
0000
0000
0000
0000
0000
0000
0000
0003
,
2002
0000
0000
0003
,
3001
1000
0010
1010
,
0001
0000
0000
0000
1001
0000
1000
0010
1000
0000
0010
0100
0000
0000
0000
0000
,
0010
0000
0000
0000
1010
0000
1000
0000
0001
0000
0001
0100
0000
0000
0000
0000
,
0100
0000
0000
0000
0101
0000
0001
0000
0010
0000
0010
0001
0000
0000
0000
0000
,
0001
0000
0011
0010
0001
1000
0100
0020
,
0130
0000
0000
0000
0110
0000
0000
0000
0010
0001
0000
0011
0000
0000
0000
0000
,
1000
0000
0000
0000
1010
0000
0010
0000
1000
0000
1000
0010
0000
0000
0000
0000
,
0001
0000
0101
0100
0010
1000
0001
0100
,
0000
0101
0101
0000
0000
0000
MMMM
0000
,
0001
1000
0001
0000
0000
0000
1000
0000
0001
0000
0100
0000
0010
0000
0000
0000
,
1000
0100
1000
0000
0000
0000
0001
0000
0100
0000
0010
0000
1000
0000
0000
0000
,
1000
0100
0010
0000
0000
0000
0001
0000
0010
0000
0100
0000
0010
0000
0000
0000
,
0010
0001
0010
0001
0010
0000
0000
0000
1000
0000
0001
0000
1001
0000
0000
0000
,
0001
0000
0010
0000
0001
0000
0000
0000
1000
0000
1000
0000
0010
0100
0000
0000
,
0010
1000
0010
1000
0000
0000
0001
0000
0000
0000
0101
0000
0101
0000
0000
0000
,
1000
0000
0000
0000
1100
0000
0000
0000
0100
0000
0010
0000
0220
0000
0000
0330
,
0010
0001
0010
0001
1000
0001
2002
3003
,
1000
0000
0010
1000
0010
0000
1000
0000
0010
0000
0000
1010
0000
0000
1000
0000
,
0000
0000
0010
0100
0010
0000
0100
0000
0010
0000
0000
1010
0000
0000
1000
0000
,
0001
0010
0100
1000
0001
0010
0100
2000
,
0000
3010
0100
0001
0100
0001
1000
0010
,
2000
3000
0020
0230
0000
0000
0000
0000
,
0000
0000
0000
0000
0000
0000
0300
0000
0001
0010
0001
0010
0001
0000
0000
0000
,
1000
0010
0000
0000
1010
0000
0000
0000
0010
1000
0010
1000
0000
0000
0001
1000
,
0010
0000
1000
0000
0001
0000
1000
0001
1000
0000
0001
0000
1000
0000
0000
0000
,
0001
0000
0010
0001
0010
0000
0001
0000
0100
0000
0000
0101
0000
0000
0001
0000
,
0000
0000
0010
0100
0010
0000
0100
0000
0010
0000
0000
0011
0000
0000
0001
0000
,
1000
0100
0010
0001
1000
0100
0010
0002
,
0000
0103
0010
1000
0010
1000
0001
0100
,
0002
0000
0003
0000
0200
0000
0320
0000
0000
0030
0010
0000
2000
0000
0000
0000
,
0000
0000
0000
0000
0000
0000
0000
0000
0000
0000
0000
3000
1000
0000
0000
0000
0200
0000
0000
0000
0000
0000
0000
0000
0000
0000
0300
0000
0000
0000
0000
0000
,
0010
0001
0010
0000
0001
0000
1000
0000
0001
0000
0000
2002
3003
0000
0000
0000
,
0100
1000
0100
0000
1000
0000
0001
0000
1000
0000
0000
2002
3003
0000
0000
0000
,
1000
0010
1000
0000
0010
0000
0100
0000
0200
0000
0000
0000
0301
0000
0020
0000
,
0000
0031
0010
0001
2002
0000
3003
0000
,
0001
0100
0001
0000
0100
0000
0010
0000
0020
0000
0000
0000
1030
0000
0200
0000
,
0000
1300
0100
1000
2002
0000
3003
0000
,
1000
0000
0010
0000
1000
0000
0001
2000
0000
0000
3000
0000
0001
0000
0020
0000
,
0000
0000
0031
0000
0010
0000
0001
2000
0000
3000
0010
0000
1000
0000
0010
0000
,
0200
0000
0000
0000
0300
0020
0000
0230
,
0302
0000
0003
2000
0000
3000
0010
0000
2020
0000
0000
0000
3030
0000
0000
0000
,
1000
0000
0010
1000
0010
0000
0100
0000
0101
0000
0000
0000
0002
0000
2003
0000
,
3000
0010
1000
0010
0200
0000
0300
0000
,
0001
0000
0100
0001
0100
0000
0010
0000
1010
0000
0000
0000
2000
0000
3002
0000
,
0003
0100
0001
0100
0020
0000
0030
0000
,
1000
0000
0001
0000
1000
0000
0010
0100
0000
0000
0000
0000
1000
0000
0020
0000
,
0000
0000
1030
0000
0001
0000
0100
0001
0000
0000
0010
0000
0001
0000
0010
0000
,
0200
0000
0000
0000
0000
2300
3000
0001
,
0010
0000
0000
0100
0000
0000
1000
0000
0200
0000
0000
0000
0000
0000
0000
0300
,
0220
0000
0000
0000
,
0000
0000
0000
0000
,
0330
0000
0000
0000
;

//---------------dance-single - S. Philipp----------------
#NOTES:
     dance-single:
     S. Philipp:
     Challenge:
     9:
     0.653,0.637,0.436,0.425,0.313:
0000
0000
0000
0000
,
0000
0000
0000
0000
,
0000
0000
0000
0000
,
2000
0000
0000
0000
0000
0000
0000
3000
,
1000
0000
0100
0020
0000
0000
0000
0000
,
0032
0000
0000
0003
,
0011
1001
1010
0101
,
1000
0000
0000
0000
0010
0000
1000
0010
1000
0000
0010
0000
1000
0000
0000
0000
,
1010
0000
0000
0000
1100
0000
1000
0000
0001
0000
0010
0001
0000
0000
0000
0000
,
1001
0000
0000
0000
0011
0000
0001
0010
0100
0000
0010
0000
0001
0000
0000
0000
,
0011
0000
0110
0010
0001
0010
0100
1000
,
1100
0000
0000
0000
1001
0000
0000
0000
0001
1000
0000
0010
0000
0000
0000
0000
,
1010
0000
0000
0000
0110
0000
0010
0000
1000
0000
0010
1000
0000
0000
0000
0000
,
1010
0000
0000
0000
1001
0000
0001
0100
0001
0000
0100
0000
0010
0000
1000
0000
,
0000
1010
0110
0000
0000
0000
MMMM
0000
,
1000
0010
1000
0000
0001
0000
1000
0000
0001
0000
1000
0000
1010
0000
0000
0000
,
0010
0100
0010
0000
1000
0000
0010
0000
0100
0000
0001
0000
0101
0000
0000
0000
,
1000
0010
1000
0000
0001
0000
1000
0000
0001
0000
0010
0000
0110
0000
0000
0000
,
0010
0001
0010
0000
0001
0000
0010
0000
0100
0000
1000
0000
1100
0000
0000
0000
,
0010
0001
0010
0000
0001
0000
1000
0000
0001
0000
1000
0000
1001
0000
0000
0000
,
0001
1000
0010
0000
0100
0000
0010
0000
0000
0000
0100
0000
0101
0000
0000
0000
,
1000
0010
0000
0000
0000
0000
0010
0100
0000
0000
0000
0000
0100
0000
0000
0001
0000
0000
1000
0000
0000
0000
0000
0000
,
0001
1000
0100
0000
0010
0000
0001
0000
0010
0000
0001
0000
0011
0000
0000
0000
,
0001
0000
1000
0100
1000
0000
0001
0000
1000
0000
0000
1001
0000
0000
1000
0000
,
0000
0000
0001
0010
0001
0000
1000
0000
0001
0000
0000
1001
0000
0000
1000
0100
,
0010
0000
0001
0010
0100
0000
1000
0000
1000
0000
0001
0000
0010
0000
0001
0000
,
0000
0000
0010
0001
0010
0000
0001
0000
0100
0000
0010
0000
1000
0000
0010
0000
,
0200
0000
0000
0300
0100
0000
0002
0000
0000
0000
0000
0000
0010
0000
0000
0000
,
0010
0000
0000
0000
0013
0000
0000
0000
0010
0001
0010
0001
0010
0000
0001
0100
,
0001
0000
0100
0000
0101
0000
0000
0000
0001
0100
0001
0100
0001
0000
1000
0010
,
1000
0000
0010
0000
1010
0000
1000
0010
1000
0000
0010
0000
0010
0000
0000
0000
,
1000
0000
0010
0100
0010
0000
0100
0000
0001
0000
0000
0101
0000
0000
1000
0000
,
0000
0000
0100
0010
0100
0000
0010
0000
0001
0000
0000
0011
0000
0000
1000
0100
,
0010
0001
0010
0100
1000
0001
0010
0001
,
0000
0000
1000
0001
1000
0000
0001
0000
1000
0000
0010
0000
0000
0000
0100
0000
,
0020
0000
0000
0030
0010
0000
2000
0000
0000
3000
1000
0000
0400
0000
0000
0000
,
0000
0000
0000
0320
0002
0000
0000
0030
,
0013
0000
0001
0010
0001
0000
0010
0000
0001
0000
0000
0011
0000
0000
0000
0000
,
0001
0000
1000
0001
1000
0000
0001
0000
1000
0000
0000
1001
0000
0000
0000
0000
,
0001
0010
0001
0000
1000
0000
0100
0000
0010
0000
0000
0000
0001
0000
0020
0000
,
0000
0030
0100
0010
0001
0000
0010
0000
0022
0000
0033
0000
0000
0000
0000
0000
,
1000
0100
0010
0000
0001
0000
1000
0000
0100
0000
0000
0000
0100
0000
0020
0000
,
0000
0000
0031
0010
0001
0000
1000
0000
2002
0000
3003
0000
0000
0000
0000
0000
,
1000
0000
0010
0000
1000
0000
0001
1000
0000
0000
0000
0000
0010
0000
0100
0000
,
0000
0000
0010
0100
0010
0000
1000
0001
0000
0000
1000
0000
0010
0000
0100
0000
,
0220
0000
0330
0000
0000
2000
0000
3020
,
0230
0000
0000
0002
0300
0000
2003
0000
3020
0000
0000
0000
0000
0000
0030
0000
,
1000
0100
1000
0000
0001
0000
0010
0000
0100
0000
0000
0000
1000
0000
0200
0000
,
0000
0300
0010
0100
1000
0000
0100
0000
2200
0000
3300
0000
0000
0000
0000
0000
,
0001
0010
0100
0000
1000
0000
0001
0000
0010
0000
0000
0000
0010
0000
0200
0000
,
0300
0000
0010
0001
0010
0000
0001
0000
0022
0000
0033
0000
0000
0000
0000
0000
,
0001
0000
0100
0000
0001
0000
1000
0001
0000
0000
0000
0000
0100
0000
0010
0000
,
0000
0000
0100
0010
0100
0000
0001
1000
0000
0000
0001
0000
0100
0000
0010
0000
,
0200
0000
0000
0000
0300
0002
0000
0203
,
0320
0000
0000
2000
0030
0000
3002
0000
0203
0000
0000
0000
0000
0000
0300
0000
,
0202
0000
0000
0000
,
0000
0000
0000
0000
,
0303
0000
0000
0000
;

//---------------dance-single - S. Philipp----------------
#NOTES:
     dance-single:
     S. Philipp:
     Medium:
     6:
     0.441,0.509,0.190,0.134,0.011:
0000
0000
0000
0000
,
0000
0000
0000
0000
,
0000
0000
0000
0000
,
0002
0000
0000
0000
0000
0000
0000
0003
,
0001
0000
0010
0002
0000
0000
0003
0000
,
0200
0000
0000
0300
,
0010
0110
0100
0101
,
0001
0000
1000
0001
0100
0001
0100
0000
,
0010
0000
0010
0100
0001
0100
0001
0000
,
1000
0000
1000
0010
0100
0010
0100
0000
,
0100
0000
0100
0001
1000
0001
1000
0001
,
0010
0000
0010
0000
0001
0100
0001
0000
,
1001
0000
1010
1000
0010
1000
0010
0000
,
0100
0000
0110
1000
0010
0100
0001
1000
,
0000
1001
1001
0000
0000
0000
0000
0000
,
0001
0000
1000
0000
1000
0100
0010
0000
,
0001
0000
0001
0000
0010
0100
1000
0000
,
0001
0000
0001
0000
1000
0010
0100
0000
,
0001
0000
0001
0000
1000
0010
0100
0000
,
0001
0000
0001
0000
1000
0010
1000
0000
,
0001
0000
0010
0000
0000
0001
1000
0000
,
0010
0000
0110
0000
0001
1000
0001
0000
,
1000
0100
0010
0000
0001
0010
0100
0000
,
1000
0100
1000
0100
1000
0000
0001
0000
,
0001
1000
0001
1000
0001
0000
1000
0000
,
0010
0010
0100
0100
,
0001
0001
1000
1000
,
0001
0000
1000
0200
0000
0000
0000
0000
,
0300
0000
0100
0100
,
0010
0000
0001
0000
0100
0001
0100
0000
,
1000
0010
1000
0000
0001
0100
0001
0000
,
1000
0001
0100
0010
,
1000
0100
0010
0100
,
0010
0001
0100
0000
0010
0000
1000
0000
,
0001
0000
1000
0100
1000
0000
0001
0000
,
0010
0000
0010
0100
0000
0100
2000
0000
,
0000
0000
3002
0000
,
0013
0010
0010
0000
,
0001
0001
0001
0000
,
1000
0010
0100
0001
0100
0000
0101
0000
,
0001
0100
0010
1000
0010
0000
1010
0000
,
1000
0100
0010
0001
1000
0000
1001
0000
,
0001
0100
0001
1000
0010
0000
1010
0000
,
1000
0001
1000
0001
1000
0000
1000
0000
,
0001
0100
0001
0100
0001
0000
0001
0000
,
2000
0000
0000
3000
0000
0010
0000
0100
,
0001
0000
0000
1000
0000
0000
0010
0000
0200
0000
0000
0000
0000
0000
0300
0000
,
0001
0100
0010
1000
0010
0000
1010
0000
,
1000
0010
0100
0001
0100
0000
0101
0000
,
0001
0010
0100
1000
0001
0000
1001
0000
,
1000
0010
1000
0001
0100
0000
0101
0000
,
0001
1000
0001
1000
0001
0000
0001
0000
,
1000
0010
1000
0010
1000
0000
0010
0000
,
2000
0000
0000
3000
0000
0100
0000
0010
,
0001
0000
0000
1000
0000
0000
0100
0000
0020
0000
0000
0000
0000
0030
0000
0000
,
2002
0000
0000
0000
,
0000
0000
0000
0000
,
3003
0000
0000
0000
;

//---------------dance-single - S. Philipp----------------
#NOTES:
     dance-single:
     S. Philipp:
     Easy:
     3:
     0.251,0.250,0.078,0.089,0.000:
0000
0000
0000
0000
,
0000
0000
0000
0000
,
0000
0000
0000
0000
,
0002
0000
0003
0000
,
1000
0010
0010
0000
,
0200
0000
0000
0300
,
0010
0010
0100
0001
,
1000
0001
0000
0000
,
0010
0010
0000
0000
,
1000
1000
0000
0000
,
0100
0100
0000
0000
,
0010
0010
0000
0000
,
0001
0010
0000
0000
,
0100
0010
0000
0000
,
0000
0000
0000
1001
,
0000
1000
0000
0010
,
0000
0100
0001
1000
,
0001
0000
1000
0000
,
0100
0000
1000
0100
,
0010
0001
1000
1000
,
0000
0000
0001
0000
0000
0001
1000
0000
,
0010
0010
1000
0001
,
1000
0010
0100
0001
,
0000
0001
1000
0001
,
0000
1000
0010
1000
,
0010
0010
0100
0100
,
0001
0001
0010
0010
,
0100
0100
2000
0000
,
0000
0000
3001
0000
,
1000
0000
0001
0000
,
1000
0000
0001
0000
,
1000
0010
0100
0001
,
1000
0001
0010
0100
,
1000
0000
0001
0000
,
1000
0000
0010
0000
,
0100
0000
0001
0100
0000
0100
0002
0000
,
0000
0000
1003
0000
,
0010
0010
0010
0000
,
1000
1000
1000
0000
,
1000
0100
0010
0001
,
0001
0010
0100
1000
,
1000
0010
0100
0001
,
0001
0100
0010
0000
,
1010
0000
0000
1000
,
1001
0000
0000
0001
,
1001
0000
0000
1000
,
0100
0010
0002
0003
,
1000
0100
0010
0001
,
0001
0010
0100
1000
,
1000
0010
0100
0001
,
0001
0100
0010
0000
,
1010
0000
0000
1000
,
1001
0000
0000
0001
,
2000
0000
3000
0000
,
0001
0000
1000
0000
,
2002
0000
0000
0000
,
3003
0000
0000
0000
;

//---------------dance-single - S. Philipp----------------
#NOTES:
     dance-single:
     S. Philipp:
     Beginner:
     2:
     0.180,0.191,0.145,0.034,0.000:
0000
0000
0000
0000
,
0000
0000
0000
0000
,
0000
0000
0000
0000
,
1000
0000
0000
0000
,
0010
0000
0000
0000
,
0001
0000
0000
0000
,
1000
1000
0001
0001
,
0000
1000
0000
0010
,
0000
0100
0000
0001
,
0000
0010
0000
0100
,
0000
1000
0000
0010
,
0000
0100
0000
0001
,
0000
0010
0000
0100
,
0000
1000
0000
0001
,
0000
1000
0000
0000
,
1001
0000
1000
0000
,
0001
0000
0000
0000
,
1001
0000
0001
0000
,
1000
0000
0000
0000
,
1000
0000
0001
0000
,
1000
0000
0010
0000
,
0100
0000
0001
0000
,
1000
0000
1001
0000
,
1000
0001
1000
0000
,
0001
1000
0001
0000
,
1000
0000
0100
0000
,
0010
0000
0001
0000
,
0010
0000
0200
0000
,
0000
0000
0300
0000
,
0000
0000
1000
0000
,
0001
0000
1000
0000
,
1001
0000
1000
0000
,
0001
0000
1001
0000
,
1000
0000
0100
0000
,
0010
0000
0001
0000
,
0010
0000
0100
0000
,
1000
0000
0010
0000
,
1001
0000
0000
0000
,
0110
0000
0000
0000
,
0001
0000
1000
0000
,
0010
0000
0100
0000
,
0001
0000
0100
0000
,
0010
0000
1000
0000
,
1001
0000
0010
0000
,
0100
0000
1000
0000
,
1001
0000
1000
0000
,
0010
0000
0100
0000
,
1001
0000
0100
0000
,
0001
0000
1000
0000
,
1001
0000
1000
0000
,
0100
0000
0010
0000
,
1001
0000
1000
0000
,
0010
0000
0100
0000
,
0001
0000
0000
0000
,
1000
0000
0100
0000
,
0220
0000
0000
0000
,
0000
0000
0000
0000
,
0330
0000
0000
0000
;
