#TITLE:Sewer Surfin';
#SUBTITLE:TMNT Guitar Remix;
#ARTIST:Konami feat. Daniel Tidwell;
#TITLETRANSLIT:;
#SUBTITLETRANSLIT:;
#ARTISTTRANSLIT:;
#GENRE:;
#CREDIT:Scott "Suko" Philipp;
#BANNER:sewer_surfin-bn.png;
#BACKGROUND:sewer_surfin-bg.png;
#LYRICSPATH:;
#CDTITLE:suko 9x1.png;
#MUSIC:sewer surfin.mp3;
#OFFSET:-0.070;
#SAMPLESTART:27.500;
#SAMPLELENGTH:19.040;
#SELECTABLE:YES;
#DISPLAYBPM:210.000;
#BPMS:0.000=210.000;
#STOPS:;
#BGCHANGES:;
#KEYSOUNDS:;

//---------------dance-single - S. Philipp----------------
#NOTES:
     dance-single:
     S. Philipp:
     Hard:
     8:
     0.551,0.568,0.244,0.414,0.049:
0000
0000
0000
0000
,
0000
0000
0000
0000
,
0000
0000
0000
0000
,
0000
0000
0000
0000
,
0000
0000
0000
0000
,
0000
0000
0000
0000
,
0000
0000
0000
0000
,
1000
0001
1000
0001
1000
0001
1000
0000
,
0001
0010
0000
0010
0100
0000
0100
1000
,
0000
0000
1000
0000
0001
0000
0000
0000
0100
0001
0000
0000
0001
1000
0000
0000
,
1000
0010
0100
0000
0001
1000
0000
0002
,
0000
0003
0001
0000
1000
0000
0001
0000
,
1000
0100
0000
0100
0010
0000
0010
0001
,
0000
0000
0001
0000
1000
0000
0000
0000
0010
1000
0000
0000
1000
0001
0000
0000
,
0001
0010
0100
0000
1000
0001
0000
2000
,
0000
0000
0000
3000
0000
0100
0000
1000
,
0000
0001
1000
0001
1000
0010
0100
0002
,
0000
1003
0000
0000
0000
0001
0010
0100
,
0000
1000
0001
1000
0100
0010
0001
0200
,
0000
0310
0000
0000
0000
0001
1000
0002
,
0000
0000
0003
0000
0010
0000
0100
2000
,
0000
0000
3000
0000
0001
0000
0010
0002
,
0000
2003
0002
0000
0000
0000
0000
0000
,
3003
0000
0000
0000
0001
0000
0010
0110
,
0000
0010
0001
0010
0100
0010
0001
2000
,
0000
3001
0000
0000
0000
0100
0001
0100
,
0000
0001
0100
0001
1000
0001
0010
0200
,
0000
1300
0000
0000
0000
0100
0010
0002
,
0000
0003
0000
0000
0100
0000
0010
2000
,
0000
3000
0000
0000
0200
0300
0010
0001
,
0000
0001
2000
0000
0000
0000
3000
0000
,
0000
1000
0001
1000
0001
1000
0001
1000
,
0000
0000
1010
0000
0000
1001
0000
0000
,
0011
0000
0000
0110
0000
0100
4000
0400
,
0000
0000
0000
0000
,
0000
0000
3300
0000
,
0000
0000
1100
0000
0000
1001
0000
0000
,
0101
0000
0000
1010
0000
1000
0004
4000
,
0000
0000
0000
0000
0000
3003
0000
0000
,
0000
1001
0000
0100
0010
0000
0000
0000
,
1000
0100
0000
0100
0010
0000
0010
0001
,
0000
0000
0001
0000
1000
0000
0000
0000
0010
1000
0000
0000
1000
0001
0000
0000
,
0001
0100
0010
0000
1000
0001
0000
2000
,
0000
3000
1000
0000
0001
0000
1000
0000
,
0001
0010
0000
0010
0100
0000
0100
1000
,
0000
0000
1000
0000
0001
0000
0000
0000
1000
0001
0000
0000
0001
0100
0000
0000
,
0100
0010
1000
0000
0001
1000
0000
0002
,
0000
0000
0000
0003
0000
0010
0000
0001
,
0000
0010
0100
1000
0001
0100
0010
2000
,
0000
3001
0000
0000
0000
0001
1000
0100
,
0000
0010
0001
0010
0100
0010
1000
0020
,
0000
0031
0000
0000
0000
1000
0001
2000
,
0000
0000
3000
0000
0010
0000
0100
0002
,
0000
0000
0003
0000
0010
0000
0100
2000
,
0000
3002
2000
0000
0000
0000
0000
0000
,
3003
0000
0000
0000
0010
0000
0100
0101
,
0000
0100
0001
0100
0010
0100
1000
0200
,
0000
0310
0000
0000
0000
0010
1000
0010
,
0000
1000
0010
1000
0001
1000
0100
0020
,
0000
0031
0000
0000
0000
0010
0100
2000
,
0000
3000
0000
0000
0010
0000
0100
0002
,
0000
0003
0000
0000
0020
0030
0100
1000
,
0000
1000
0002
0000
0000
0000
0003
0000
,
0000
0001
1000
0001
1000
0001
1000
0001
,
0000
0000
0101
0000
0000
1001
0000
0000
,
1100
0000
0000
0110
0000
0010
0004
0040
,
0000
0000
0000
0000
,
0000
0000
0033
0000
,
0000
0000
0011
0000
0000
1001
0000
0000
,
1010
0000
0000
0101
0000
0001
2000
0002
,
0000
0000
0000
0000
0000
3003
0000
0000
,
0000
1001
0000
0200
0020
0000
0330
0000
;

//---------------dance-single - S. Philipp----------------
#NOTES:
     dance-single:
     S. Philipp:
     Medium:
     7:
     0.544,0.566,0.195,0.390,0.000:
0000
0000
0000
0000
,
0000
0000
0000
0000
,
0000
0000
0000
0000
,
0000
0000
0000
0000
,
0000
0000
0000
0000
,
0000
0000
0000
0000
,
0000
0000
0000
0000
,
0001
1000
0001
1000
0001
1000
0001
0000
,
1000
0100
0000
0100
0010
0000
0010
0001
,
0000
0001
1000
0000
0010
1000
0001
1000
,
0001
0100
0001
0000
1000
0001
0000
2000
,
0000
3000
1000
0000
0001
0000
1000
0000
,
0001
0010
0000
0010
0100
0000
0100
1000
,
0000
1000
0001
0000
0100
0001
1000
0001
,
0100
0010
1000
0000
0001
1000
0000
0002
,
0000
0003
0000
0000
0000
1000
0000
0001
,
1000
0100
1000
0100
1000
0100
1000
0200
,
0000
0310
0000
0000
0000
0001
0010
0001
,
0000
1000
0001
1000
0001
1000
0010
0200
,
0000
0310
0000
0000
0000
1000
0001
2000
,
0000
0000
3000
0000
0001
0000
0001
0020
,
0000
0000
0030
0000
0100
0000
0100
2000
,
0000
3001
2000
0000
0000
0000
0000
0000
,
3000
0000
0000
0000
0010
0000
1000
0001
,
0000
1000
0100
1000
0100
1000
0100
2000
,
0000
3010
0000
0000
0000
0100
0001
0010
,
0000
0001
1000
0001
0100
0001
0010
0002
,
0000
1003
0000
0000
0000
0010
0100
0002
,
0000
0003
0000
0000
0010
0000
0100
2000
,
0000
3000
0000
0000
0020
0030
0100
0001
,
0000
0001
2000
0000
0000
0000
3000
0000
,
0000
0001
1000
0001
1000
0001
1000
0001
,
0000
0000
1001
0000
0000
0110
0000
0000
,
0101
0000
0000
0011
0000
0010
0100
0020
,
0000
0000
0000
0000
,
0000
0000
0000
0030
,
0000
0000
0110
0000
0000
1100
0000
0000
,
0011
0000
0000
1001
0000
0001
1000
0002
,
0000
0000
0000
0000
0000
0000
0000
0003
,
0000
1000
0000
0100
0010
0000
0000
0000
,
0001
0010
0000
0010
0100
0000
0100
1000
,
0000
1000
0001
0000
0100
0001
1000
0001
,
1000
0010
1000
0000
0001
1000
0000
0002
,
0000
0003
0001
0000
1000
0000
0001
0000
,
1000
0100
0000
0100
0010
0000
0010
0001
,
0000
0001
1000
0000
0010
1000
0001
1000
,
0010
0100
0001
0000
1000
0001
0000
2000
,
0000
3000
0000
0000
0000
0001
0000
1000
,
0001
0010
0001
0010
0001
0010
0001
0020
,
0000
0130
0000
0000
0000
1000
0100
1000
,
0000
0001
1000
0001
1000
0001
0100
0020
,
0000
0130
0000
0000
0000
0001
1000
0002
,
0000
0000
0003
0000
1000
0000
1000
0200
,
0000
0000
0300
0000
0010
0000
0010
0002
,
0000
1003
0002
0000
0000
0000
0000
0000
,
0003
0000
0000
0000
0100
0000
0001
1000
,
0000
0001
0010
0001
0010
0001
0010
0002
,
0000
0103
0000
0000
0000
0010
1000
0100
,
0000
1000
0001
1000
0010
1000
0100
2000
,
0000
3001
0000
0000
0000
0100
0010
2000
,
0000
3000
0000
0000
0100
0000
0010
0002
,
0000
0003
0000
0000
0200
0300
0010
1000
,
0000
1000
0002
0000
0000
0000
0003
0000
,
0000
1000
0001
1000
0001
1000
0001
1000
,
0000
0000
1001
0000
0000
0110
0000
0000
,
1010
0000
0000
1100
0000
0100
0010
0200
,
0000
0000
0000
0000
,
0000
0000
0000
0300
,
0000
0000
0110
0000
0000
0011
0000
0000
,
1100
0000
0000
1001
0000
1000
0001
2000
,
0000
0000
0000
0000
0000
0000
0000
3000
,
0000
0010
0000
0010
0100
0000
0000
0000
;

//---------------dance-single - S. Philipp----------------
#NOTES:
     dance-single:
     S. Philipp:
     Easy:
     3:
     0.240,0.261,0.097,0.073,0.000:
0000
0000
0000
0000
,
0000
0000
0000
0000
,
0000
0000
0000
0000
,
0000
0000
0000
0000
,
0000
0000
0000
0000
,
0000
0000
0000
0000
,
0000
0000
0000
0000
,
0001
0001
0001
0001
,
1000
0000
0010
0010
,
0000
1000
0010
0100
,
0100
0100
0010
0000
,
0000
1000
0001
1000
,
0001
0000
0100
0100
,
0000
0001
0100
1000
,
0100
1000
0001
0000
,
0000
0000
0000
0000
,
1000
1000
1000
1000
,
0000
0000
0000
0010
,
0000
0001
0001
0010
,
0000
0000
0000
0001
,
0000
0000
0001
0001
,
0000
0000
0100
0100
,
0000
2000
0000
0000
,
3000
0000
0010
1000
,
0000
0100
0100
0100
,
0000
0000
0000
0001
,
0000
1000
0100
0010
,
0000
0000
0000
0100
,
0000
0000
0010
0100
,
0000
0000
0000
0000
0020
0030
0100
0000
,
0000
2000
0000
3000
,
0000
1000
1000
1000
,
0000
1001
0000
0000
,
0101
0000
0000
0100
,
0000
0000
0000
0000
,
0000
0000
0000
0000
,
0000
0110
0000
0000
,
0011
0000
0000
1000
,
0000
0000
0000
0000
,
0000
0000
0010
0000
,
0001
0000
0100
0100
,
0000
0001
0100
1000
,
1000
1000
0001
0000
,
0000
0001
1000
0001
,
1000
0000
0010
0010
,
0000
1000
0010
0001
,
0010
0001
1000
0000
,
0000
0000
0000
0000
,
0001
0001
0001
0001
,
0000
0000
0000
0100
,
0000
1000
1000
0100
,
0000
0000
0000
1000
,
0000
0000
1000
1000
,
0000
0000
0010
0010
,
0000
0002
0000
0000
,
0003
0000
0100
0001
,
0000
0010
0010
0010
,
0000
0000
0000
1000
,
0000
0001
0010
0100
,
0000
0000
0000
0010
,
0000
0000
0100
0010
,
0000
0000
0000
0000
0200
0300
0010
0000
,
0000
0002
0000
0003
,
0000
0001
0001
0001
,
0000
1001
0000
0000
,
1010
0000
0000
0010
,
0000
0000
0000
0000
,
0000
0000
0000
0000
,
0000
0110
0000
0000
,
1100
0000
0000
0001
,
0000
0000
0000
0000
,
0000
0000
0100
0000
;

//---------------dance-single - S. Philipp----------------
#NOTES:
     dance-single:
     S. Philipp:
     Challenge:
     9:
     0.624,0.917,0.268,0.804,0.049:
0000
0000
0000
0000
,
0000
0000
0000
0000
,
0000
0000
0000
0000
,
0000
0000
0000
0000
,
0000
0000
0000
0000
,
0000
0000
0000
0000
,
0000
0000
0000
0000
,
0001
1000
0001
1000
0001
1000
0001
0000
,
1000
0100
0000
0100
0010
0000
0010
0001
,
0000
0000
0001
0000
1000
0000
0000
0000
0010
1000
0010
0000
1000
0010
1000
0000
,
0010
0100
0001
0000
1000
0001
0000
2000
,
0000
3000
1000
0000
0001
0000
1000
0000
,
0001
0010
0000
0010
0100
0000
0100
1000
,
0000
0000
1000
0000
0001
0000
0000
0000
0100
0001
0100
0000
0001
0100
0001
0000
,
0100
0010
1000
0000
0001
1000
0000
0200
,
0000
0000
0000
0300
0000
0010
0000
0001
,
0000
10M0
M010
10M0
M001
100M
M100
2M00
,
0000
3010
0000
0000
0000
0100
0001
0101
,
0000
M100
0M10
01M0
1M00
M100
0M10
02M0
,
0000
0301
0000
0000
0000
1000
0001
20M0
,
000M
00M0
3M00
0000
0010
0000
0100
M002
,
0M00
00M0
M003
0000
0010
0000
0100
20M0
,
0M00
30M2
2M00
00M0
0M00
00M0
0M00
00M0
,
3M03
0000
0000
0000
0010
0000
0100
0101
,
0000
M100
0M01
010M
0M10
01M0
1M00
M200
,
0000
0310
0000
0000
0000
0010
1000
0010
,
0000
10M0
M010
10M0
M001
100M
M100
2M00
,
0000
3001
0000
0000
0000
0010
0001
20M0
,
000M
0M00
3000
0000
0010
0000
0100
M002
,
0M00
00M3
0000
0000
0020
0030
0100
100M
,
0M00
10M0
0002
0000
0000
0000
0003
0000
,
0000
0001
1000
0001
1000
0001
1000
0001
,
0000
0000
0000
MMMM
0000
0000
0202
0303
0000
0000
0000
0000
MMMM
0000
0000
2002
3003
0000
0000
0000
0000
MMMM
0000
0000
,
2200
3300
0000
0000
0000
0000
MMMM
0000
0000
0220
0330
0000
0000
0000
0000
0010
0000
0000
0004
0000
0000
0040
0000
0000
,
0000
0000
0000
0000
,
0000
0000
0000
0000
0000
0033
0000
0000
,
0000
0000
0000
MMMM
0000
0000
0022
0033
0000
0000
0000
0000
MMMM
0000
0000
2002
3003
0000
0000
0000
0000
MMMM
0000
0000
,
2020
3030
0000
0000
0000
0000
MMMM
0000
0000
0202
0303
0000
0000
0000
0000
0001
0000
0000
2000
0000
0000
0002
0000
0000
,
0000
0000
0000
3003
,
0000
1001
0000
0001
0100
0000
0000
0000
,
0001
0010
0000
0010
0100
0000
0100
1000
,
0000
0000
1000
0000
0001
0000
0000
0000
0100
0001
0100
0000
0001
0100
0001
0000
,
0100
0010
1000
0000
0001
1000
0000
0002
,
0000
0003
0001
0000
1000
0000
0001
0000
,
1000
0100
0000
0100
0010
0000
0010
0001
,
0000
0000
0001
0000
1000
0000
0000
0000
0010
1000
0010
0000
1000
0010
1000
0000
,
0010
0100
0001
0000
1000
0001
0000
0020
,
0000
0000
0000
0030
0000
0100
0000
1000
,
0000
0M01
010M
0M01
100M
M001
001M
00M2
,
0000
0103
0000
0000
0000
0010
1000
1010
,
0000
001M
01M0
0M10
00M1
001M
01M0
0M20
,
0000
1030
0000
0000
0000
0001
1000
0M02
,
M000
0M00
00M3
0000
0100
0000
0010
2M00
,
00M0
0M00
300M
0000
0100
0000
0010
0M02
,
00M0
2M03
00M2
0M00
00M0
0M00
00M0
0M00
,
30M3
0000
0000
0000
0100
0000
0010
1010
,
0000
001M
10M0
M010
01M0
0M10
00M1
002M
,
0000
0130
0000
0000
0000
0100
0001
0100
,
0000
0M01
010M
0M01
100M
M001
001M
00M2
,
0000
1003
0000
0000
0000
0001
0100
0M20
,
000M
M030
0000
0000
0100
0000
0010
200M
,
00M0
3M00
0000
0000
0200
0300
M010
0M01
,
00M0
0M01
2000
0000
0000
0000
3000
0000
,
0000
1000
0001
1000
0001
1000
0001
1000
,
0000
0000
0000
MMMM
0000
0000
2020
3030
0000
0000
0000
0000
MMMM
0000
0000
2002
3003
0000
0000
0000
0000
MMMM
0000
0000
,
0022
0033
0000
0000
0000
0000
MMMM
0000
0000
0220
0330
0000
0000
0000
0000
0100
0000
0000
4000
0000
0000
0400
0000
0000
,
0000
0000
0000
0000
,
0000
0000
0000
0000
0000
3300
0000
0000
,
0000
0000
0000
MMMM
0000
0000
2200
3300
0000
0000
0000
0000
MMMM
0000
0000
2002
3003
0000
0000
0000
0000
MMMM
0000
0000
,
0202
0303
0000
0000
0000
0000
MMMM
0000
0000
2020
3030
0000
0000
0000
0000
1000
0000
0000
0004
0000
0000
4000
0000
0000
,
0000
0000
0000
3003
,
0000
1001
0000
0020
0200
0000
0330
0000
;

//---------------dance-single - S. Philipp----------------
#NOTES:
     dance-single:
     S. Philipp:
     Beginner:
     1:
     0.275,0.348,0.268,0.000,0.000:
0000
0000
0000
0000
,
0000
0000
0000
0000
,
0000
0000
0000
0000
,
0000
0000
0000
0000
,
0000
0000
0000
0000
,
0000
0000
0000
0000
,
0000
0000
0000
0000
,
1000
0001
1000
0001
,
0001
1000
0000
0001
,
0000
0100
0000
0010
,
0000
1001
0000
0001
,
0000
0010
0000
0100
,
0000
1001
0000
1000
,
0000
0010
0000
0100
,
0000
1001
0000
0010
,
0000
0100
0000
1000
,
0000
0001
0000
0100
,
0000
0010
0000
1000
,
0000
0100
0000
0010
,
0000
0001
0000
0010
,
0000
0100
0000
1000
,
0000
0010
0000
0100
,
0000
0001
0000
0010
,
0000
0001
0100
1000
,
0000
0000
1000
0000
,
0100
0000
0010
0000
,
0001
0000
0010
0000
,
0100
0000
1000
0000
,
0010
0000
0100
0000
,
0001
0000
0010
0000
,
0100
0000
1000
0000
,
0010
0000
0100
0001
,
0000
0110
0000
1001
,
0000
0110
0000
1001
,
0000
1000
0000
0010
,
0000
0100
0000
0001
,
0000
1001
0000
0110
,
0000
1001
0000
0110
,
0000
1000
0000
0010
,
0000
0100
0001
0000
,
0001
1000
0000
0001
,
0000
0100
0000
0010
,
0000
1001
0000
0001
,
0000
0010
0000
0100
,
0000
1001
0000
1000
,
0000
0010
0000
0100
,
0000
1001
0000
0010
,
0000
0100
0000
1000
,
0000
0001
0000
0100
,
0000
0010
0000
1000
,
0000
0100
0000
0010
,
0000
0001
0000
0010
,
0000
0100
0000
1000
,
0000
0010
0000
0100
,
0000
0001
0000
0010
,
0000
0001
0100
1000
,
0000
0000
1000
0000
,
0100
0000
0010
0000
,
0001
0000
0010
0000
,
0100
0000
1000
0000
,
0010
0000
0100
0000
,
0001
0000
0010
0000
,
0100
0000
1000
0000
,
0010
0000
0100
0001
,
0000
0110
0000
1001
,
0000
0110
0000
1001
,
0000
1000
0000
0010
,
0000
0100
0000
0001
,
0000
1001
0000
0110
,
0000
1001
0000
0110
,
0000
1000
0000
0010
,
0000
0100
0100
0000
;
