#TITLE:Romeo's Dead;
#SUBTITLE:;
#ARTIST:Sarina Paris;
#TITLETRANSLIT:;
#SUBTITLETRANSLIT:;
#ARTISTTRANSLIT:;
#GENRE:;
#CREDIT:Scott "Suko" Philipp;
#BANNER:Romeo's_Dead-bn.png;
#BACKGROUND:Romeo's_Dead-bg.png;
#LYRICSPATH:;
#CDTITLE:suko 9x1.png;
#MUSIC:Romeo's Dead-short.mp3;
#OFFSET:0.175;
#SAMPLESTART:52.500;
#SAMPLELENGTH:15.000;
#SELECTABLE:YES;
#BPMS:0.000=131.950;
#STOPS:;
#BGCHANGES:;
#KEYSOUNDS:;

//---------------dance-single - S. Philipp----------------
#NOTES:
     dance-single:
     S. Philipp:
     Hard:
     8:
     0.599,0.687,0.251,0.328,0.212:
0000
0000
0000
0000
,
0000
0000
0000
0000
,
0000
0000
0000
0000
,
0000
0000
0000
0000
,
0010
1000
0001
0100
0010
1000
0100
0010
,
0001
0100
0001
0010
0100
1000
0100
0010
,
0001
0100
0010
1000
0010
1000
0100
0010
,
0001
0010
0001
1000
0010
0001
0010
1000
,
2002
0000
0000
3003
,
1000
1000
0100
0100
0010
0010
0001
0001
,
0100
0100
0010
0010
1000
1000
0100
0100
,
0001
0001
0010
0010
1000
1000
0100
0100
,
0010
0000
0010
0000
0001
0000
0001
0000
1000
0000
1000
0000
0200
0300
0000
0000
,
0100
0010
0001
0010
0100
1000
0010
0001
,
0010
0100
0001
0010
1000
0010
0002
0003
,
0200
0300
2000
3000
0020
0030
0002
0000
0003
0000
1000
0000
0100
0000
0010
0000
,
0000
0001
0100
0010
1000
0000
0000
0000
,
4000
0000
0000
3000
0400
0000
0000
0300
0040
0000
0000
0030
0004
0000
0000
0003
,
0400
0000
0000
0300
0040
0000
0000
0030
4000
0000
0000
3000
0400
0000
0000
0300
,
0004
0000
0000
0003
0040
0000
0000
0030
4000
0000
0000
3000
0400
0000
0000
0300
,
0040
0000
0000
0030
0004
0000
0000
0003
4000
0000
3000
0000
0040
0000
0030
0000
,
0100
0000
0001
0000
0100
0000
0010
0000
0220
0330
0000
0000
1010
0000
0000
0000
,
1000
0100
0010
0001
4000
0000
3100
0000
,
0010
0001
0100
2000
3000
0100
0002
0003
,
0000
0010
0110
2200
3300
0000
0000
0000
,
1000
0001
0010
0011
0000
0010
0001
0010
,
0100
1000
0010
1010
0000
0010
1000
0100
,
0010
0001
0100
0101
0000
0001
0010
0100
,
2200
3300
2020
3030
0220
0330
0101
0000
,
0001
0100
0001
0011
0000
0010
0001
0010
,
0100
1000
0010
1010
0000
1000
0010
0100
,
0001
0010
0100
0110
0000
0100
1000
0001
,
1001
0000
1100
0000
2002
3003
0101
0000
,
0001
0000
0100
0000
0001
0000
0010
0001
0000
0010
0001
0000
0040
0000
0000
0030
,
0100
0000
1000
0000
0001
0000
0100
0001
0000
0100
0001
0000
0400
0000
0000
0300
,
0010
0000
0100
0000
0010
0000
1000
0010
0000
1000
0010
0000
4000
0000
0000
3000
,
0100
0000
0010
0000
0001
0000
0010
0001
0000
0010
0001
0000
0040
0000
0000
0030
,
0001
0000
1000
0100
0010
0000
0010
0001
0000
0001
0010
0000
0004
0000
0000
0003
,
1000
0000
0001
0010
0100
0000
0100
1000
0000
1000
0100
0000
4000
0000
0000
3000
,
0100
0000
0010
0001
1000
0000
1000
0010
0000
0010
1000
0000
0040
0000
0000
0030
,
1000
0000
0001
0010
0100
0000
0100
1000
0000
1000
0100
0000
0040
0000
0000
0030
,
0002
1000
1000
1003
0000
0010
0100
0001
,
0020
0100
0100
0130
0000
1000
0001
0100
,
0020
0100
0100
0130
0000
0010
0100
0010
,
4000
0000
3400
0000
0340
0000
0034
0003
,
0100
0010
1000
1010
0000
1000
0100
0010
,
0100
1000
0010
0110
0000
0100
0010
0100
,
0001
0010
0001
0011
0000
0010
0100
1000
,
2200
3300
2002
3003
2020
3030
0220
0330
,
0100
0000
0001
0000
0010
0000
0001
0010
0000
0001
0010
0000
0100
0000
0100
0000
,
0010
0000
0100
0000
0010
0000
0100
1000
0000
0100
1000
0000
0100
0000
0100
0000
,
0010
0000
0001
0000
0100
0000
0010
1000
0000
0010
1000
0000
0010
0000
0010
0000
,
1000
0000
0100
0000
0010
0000
0001
0100
0000
0001
0100
0000
0001
0000
0001
0000
,
0100
0000
0010
0000
1000
0000
0001
1000
0000
1000
0100
1000
0100
1000
0100
0000
,
0010
0000
0001
0000
0100
0000
0010
1000
0000
1000
0001
1000
0001
1000
0001
0000
,
1000
0000
0100
0000
0010
0000
0001
0100
0000
0100
0010
0100
0010
0100
0010
0000
,
0100
0000
0001
0000
0100
0000
0010
1000
0000
1000
0100
0010
0001
0100
0020
0000
,
0030
0000
0000
0000
;

//---------------dance-single - S.Philipp----------------
#NOTES:
     dance-single:
     S.Philipp:
     Challenge:
     9:
     0.653,0.606,0.145,0.241,0.438:
0000
0000
0000
0000
,
0000
0000
0000
0000
,
0000
0000
0000
0000
,
0000
0000
0000
0000
,
0010
0000
1000
0100
1000
0000
0100
0000
0010
0000
0001
0010
0001
0000
0010
0000
,
0001
0000
0100
0001
0100
0000
0010
0000
0100
0000
1000
0000
0100
0000
0000
0000
,
0001
0000
0100
0010
0100
0000
0010
0000
1000
0000
0100
1000
0100
0000
0010
0000
,
0001
0000
0010
0001
0010
0000
0001
0000
0010
0000
0100
0000
1000
0000
0001
0000
,
2002
0000
0000
3003
,
1000
0000
1000
0100
0010
0000
0001
0000
0010
0000
0001
0010
0100
0000
1000
0000
,
0010
0000
0010
1000
0100
0000
0010
0000
0001
0000
0010
0000
0001
0000
0000
0000
,
0001
0000
0001
0010
0100
0000
1000
0000
0100
0000
1000
0100
0010
0000
0001
0000
,
0100
0000
0100
0001
0010
0000
0100
0000
1000
0000
0100
0000
1000
0000
0000
0000
,
1001
0010
1001
0100
1001
0010
1001
0000
,
0000
0000
0001
0100
0001
0000
1000
0100
1000
0000
0001
1000
0001
0000
0000
0000
,
2000
3000
0200
0300
0002
0003
0020
0030
0000
0000
1000
0000
0100
0000
0010
0000
,
0000
0001
0010
0100
1100
0000
0000
0000
,
1000
0000
0010
1000
0010
0000
1000
0010
1000
0000
0001
0100
0001
0000
0100
0001
,
0100
0000
0010
1000
0010
0000
0100
0001
0100
0000
0010
1000
0010
0000
0000
0000
,
0100
0000
0001
0100
0001
0000
1000
0001
1000
0000
0010
1000
0010
0000
1000
0010
,
1000
0000
0001
1000
0001
0000
1000
0001
1000
0000
0001
0100
0001
0000
0000
0000
,
0100
0000
0010
0100
0010
0000
1000
0010
1000
0000
0001
1000
0001
0000
0010
0001
,
0010
0000
0100
0010
0100
0000
1000
0100
1000
0000
0001
1000
0001
0000
0000
0000
,
0100
0010
0001
2000
3000
0100
0020
0030
,
0000
0110
1100
2002
3003
0000
0000
0000
,
1000
M100
0M10
00M2
0003
0010
01M0
1M00
,
M010
01M0
0M01
200M
3000
0010
10M0
M100
,
0M10
00M1
010M
0M20
0030
1000
0100
1000
,
0200
2000
0002
3313
,
1000
0100
0010
0011
0000
1000
0001
0010
,
0100
1000
0010
1010
0000
1000
0010
0100
,
0001
0010
0100
0110
0000
0100
1000
0001
,
0200
0002
0020
1333
,
0001
0000
0100
0000
0001
0000
0100
0001
0000
0010
0001
0000
0040
0000
0000
0030
,
0100
0000
1000
0000
0001
0000
0100
0001
0000
0100
0001
0000
0400
0000
0000
0300
,
0010
0000
0100
0000
0010
0000
1000
0010
0000
1000
0010
0000
4000
0000
0000
3000
,
0100
0000
0010
0000
0001
0000
0010
0001
0000
0010
0001
0000
0040
0000
0000
0030
,
0001
0000
1000
0100
0010
0000
0010
0001
0000
0001
0010
0000
0004
0000
0000
0003
,
1000
0000
0001
0010
0100
0000
0100
1000
0000
1000
0100
0000
4000
0000
0000
3000
,
0100
0000
0010
0001
1000
0000
1000
0010
0000
0010
1000
0000
0040
0000
0000
0030
,
1000
0000
0001
0010
0100
0000
0100
1000
0000
1000
0100
0000
0040
0000
0000
0030
,
0002
1000
1000
1003
0000
0010
0100
0002
,
0010
0010
1000
1003
0000
0001
1000
0200
,
0010
0010
1000
1300
0000
0001
0010
0100
,
4000
0000
3400
0000
0340
0000
0034
0003
,
1000
0000
0100
0010
0001
0000
0011
0000
0000
0000
1000
0000
0010
0000
0100
0000
,
0001
0000
1000
0100
0010
0000
0110
0000
0000
0000
0100
0000
0010
0000
0001
0000
,
0010
0000
0001
0010
0100
0000
1100
0000
0000
0000
1000
0000
0100
0000
0010
0000
,
0200
0020
0001
1330
,
0100
0000
0010
0000
0001
0000
0001
0010
0000
0001
0010
0001
0010
0001
0010
0000
,
0001
0000
0010
0000
0100
0000
1000
0100
0000
1000
0100
1000
0100
1000
0100
0000
,
0010
0000
0001
0000
0100
0000
0001
1000
0000
0001
1000
0001
1000
0001
1000
0000
,
0001
0000
0010
0000
0100
0000
1000
0010
0000
1000
0010
1000
0010
0000
0000
0000
,
1000
0000
0100
0000
0010
0000
0001
0010
0000
0001
0010
0001
0010
0001
0010
0000
,
0100
0000
1000
0000
0010
0000
0100
0001
0000
0100
0001
0100
0001
0100
0001
0000
,
1000
0000
0100
0000
0010
0000
0001
0010
0000
0001
0010
0001
0010
0001
0010
0000
,
0100
0000
1000
0000
0010
0000
0100
0001
0000
0001
0010
0100
1000
0010
0100
0002
,
0000
0003
0000
0000
0000
0000
0000
0000
;

//---------------dance-single - S.Philipp----------------
#NOTES:
     dance-single:
     S.Philipp:
     Medium:
     7:
     0.523,0.687,0.251,0.279,0.096:
0000
0000
0000
0000
,
0000
0000
0000
0000
,
0000
0000
0000
0000
,
0000
0000
0000
0000
,
1000
1000
0001
0001
,
0010
0010
0100
0100
,
1000
0100
0010
0000
0001
0010
0100
0000
,
1000
0100
0010
0001
0010
0100
1000
0001
,
2002
0000
0000
3003
,
1000
0000
0100
0100
0010
0000
0001
0001
,
0100
0100
0010
0010
1000
0000
1000
0000
,
0001
0000
0010
0010
0100
0000
1000
1000
,
0010
0010
0100
0100
0001
0000
0001
0000
,
1000
0100
0001
0010
,
1000
0000
0100
0000
1000
0000
0002
0003
,
0100
1000
0100
0001
0000
1000
0100
0010
,
0000
0001
0100
0010
1000
0000
0000
0000
,
4000
0000
0000
3000
0400
0000
0000
0300
0040
0000
0000
0030
0004
0000
0000
0003
,
0400
0000
0000
0300
0040
0000
0000
0030
4000
0000
0000
3000
0400
0000
0000
0300
,
0040
0000
0000
0030
0004
0000
0000
0003
4000
0000
0000
3000
0400
0000
0000
0300
,
0040
0000
0000
0030
0004
0000
0000
0003
4000
0000
3000
0000
0040
0000
0030
0000
,
0100
0000
0001
0000
0100
0000
0010
0000
0220
0330
0000
0000
0000
0000
0000
0000
,
0000
0001
0100
0010
4000
0000
3100
0000
,
0010
0001
0100
0002
0003
0100
0020
0030
,
0000
0110
0110
0220
0330
0000
0000
0000
,
1000
0001
0010
0011
0000
0010
0001
0010
,
0100
1000
0010
1010
0000
0010
1000
0100
,
0010
0001
0100
0101
0000
0001
0010
0100
,
2200
3300
2020
3030
0220
0330
0101
0000
,
0001
0100
0001
0011
0000
0010
0001
0010
,
0100
1000
0010
1010
0000
1000
0010
0100
,
0001
0010
0100
0110
0000
0100
1000
0001
,
1001
0000
1100
0000
2002
3003
0101
0000
,
0001
0000
1000
0000
0001
0010
0010
0010
,
0100
0000
1000
0000
0001
0100
0100
0100
,
0010
0000
0100
0000
0001
1000
1000
1000
,
0100
0000
0000
0000
0010
0000
0001
0010
0000
0001
0010
0000
0001
0000
0001
0000
,
1000
0000
0001
0000
1000
0100
0100
0100
,
0010
0000
0001
0000
1000
0010
0010
0010
,
0100
0000
0010
0000
1000
0001
0001
0001
,
0010
0000
0000
0000
0100
0000
1000
0100
0000
1000
0100
0000
1000
0000
1000
0000
,
0002
1000
1000
1003
0000
0010
0100
0001
,
0020
0100
0100
0130
0000
1000
0001
0100
,
0020
0100
0100
0130
0000
0010
0100
0010
,
4000
0000
3400
0000
0340
0000
0034
0003
,
0100
0010
1000
1010
0000
1000
0100
0010
,
0100
1000
0010
0110
0000
0100
0010
0100
,
0001
0010
0001
0011
0000
0010
0100
1000
,
2200
3300
2002
3003
2020
3030
0220
0330
,
0100
0000
0001
0000
0010
0000
0001
0010
0000
0001
0010
0000
0100
0000
0100
0000
,
0010
0000
0100
0000
0010
0000
0100
1000
0000
0100
1000
0000
0100
0000
0100
0000
,
0010
0000
0001
0000
0100
0000
0010
1000
0000
0010
1000
0000
0010
0000
0010
0000
,
1000
0000
0100
0000
0010
0000
0001
0100
0000
0001
0100
0000
0001
0000
0001
0000
,
0010
0000
0100
0000
1000
0000
1000
0100
0000
1000
0100
0000
0010
0000
0010
0000
,
0100
0000
0010
0000
0100
0000
0010
0001
0000
0010
0001
0000
0010
0000
0010
0000
,
0100
0000
1000
0000
0010
0000
0100
0001
0000
0100
0001
0000
0100
0000
0100
0000
,
0001
0000
0010
0000
0100
0000
1000
0010
0000
1000
0010
0000
1000
0000
2000
0000
,
3000
0000
0000
0000
;

//---------------dance-single - Medium----------------
#NOTES:
     dance-single:
     Medium:
     Easy:
     5:
     0.337,0.329,0.000,0.000,0.000:
0000
0000
0000
0000
,
0000
0000
0000
0000
,
0000
0000
0000
0000
,
0000
0000
0000
0000
,
1000
1000
0001
0001
,
0010
0010
0100
0100
,
1000
0010
0001
0010
,
1000
0010
0001
0100
,
0001
0000
0000
0000
,
1000
0100
0010
0001
,
0001
0010
0010
1000
,
0001
0010
0010
1000
,
0010
0010
0001
0001
,
1000
0100
0001
0010
,
1000
0100
1000
0001
,
0100
1000
0100
0001
0000
1000
0100
0010
,
0000
0001
0100
0010
1000
0000
0000
0000
,
1000
0100
0010
0001
,
0100
0010
1000
0100
,
0010
0001
1000
0100
,
0010
0001
1000
0010
,
0100
0001
0010
0000
,
0000
0001
0010
0100
,
0010
0001
0100
0001
0000
0100
0010
0000
,
0000
0010
0010
0010
0000
0000
0000
0000
,
1000
0001
0010
0001
0000
0010
0001
0010
,
0100
1000
0010
0010
0000
0010
1000
0100
,
0010
0001
0100
0001
0000
0000
0001
0000
,
0100
0010
0010
0001
,
0001
0100
0001
0001
0000
0010
0001
0010
,
0100
1000
0010
0010
0000
1000
0010
0100
,
0001
0010
0100
0010
0000
0000
0100
0000
,
0001
0100
0001
0001
,
0001
0000
1000
0000
0001
0010
0010
0010
,
0100
0000
1000
0000
0001
0100
0100
0100
,
0010
0000
0100
0000
0001
1000
1000
1000
,
0100
0000
0010
0000
0010
0001
0001
0001
,
1000
0000
0001
0000
1000
0100
0100
0100
,
0010
0000
0001
0000
1000
0010
0010
0010
,
0100
0000
0010
0000
1000
0001
0001
0001
,
0010
0000
0100
0000
0100
1000
1000
1000
,
0001
0100
0010
0100
,
0010
1000
0001
0010
,
0100
1000
0001
1000
,
4000
3400
0340
0031
,
0100
1000
0000
0100
,
0010
0010
0000
0010
,
0001
0001
0001
0000
,
0100
0001
0010
0010
,
1000
0000
0010
0000
0010
0001
0100
0000
,
0010
0000
0010
0000
1000
0100
0100
0000
,
0010
1000
0100
0001
,
0100
0010
0100
0000
0001
0010
0010
0000
,
1000
0010
0100
0001
,
0010
0000
0100
0000
1000
0100
0100
0000
,
0010
0001
0100
0010
,
0100
0000
1000
0000
0100
0010
0010
0010
;

//---------------dance-single - S. Philipp----------------
#NOTES:
     dance-single:
     S. Philipp:
     Beginner:
     2:
     0.189,0.191,0.000,0.000,0.000:
0000
0000
0000
0000
,
0000
0000
0000
0000
,
0000
0000
0000
0000
,
0000
0000
0000
0000
,
1000
0000
0001
0000
,
0010
0000
0100
0000
,
1000
0010
0000
0000
,
1000
0010
0000
0100
,
0001
0000
0000
0000
,
1000
0000
0010
0000
,
0001
0000
0010
1000
,
0001
0000
0010
1000
,
0010
0000
0001
0001
,
1000
0000
0001
0010
,
1000
0000
1000
0001
,
0100
0000
0000
0100
,
0000
0000
1000
0000
,
1000
0000
0010
0001
,
0100
0000
1000
0100
,
0010
0000
1000
0100
,
0010
0000
1000
0010
,
0100
0000
0010
0000
,
0000
0000
0010
0100
,
0010
0000
0000
0010
,
0000
0010
0000
0000
,
1000
0010
0000
0001
,
0100
0000
0000
1000
,
0010
0000
0000
0001
,
0100
0000
0010
0001
,
0001
0000
0000
0001
,
0100
0000
0000
0010
,
0001
0000
0000
0100
,
0001
0000
0001
0001
,
0001
0000
0001
0010
,
0100
0000
0001
0100
,
0010
0000
0001
1000
,
0100
0000
0010
0001
,
1000
0000
1000
0100
,
0010
0000
1000
0010
,
0100
0000
1000
0001
,
0010
0000
0100
1000
,
0001
0000
0010
0100
,
0010
0000
0001
0010
,
0100
0000
0001
1000
,
0100
0000
0000
0000
,
0100
1000
0000
0100
,
0000
0010
0000
0010
,
0000
0001
0001
0000
,
0100
0001
0010
0010
,
0000
0010
0010
0100
,
0000
0010
1000
0100
,
0000
1000
0100
0001
,
0000
0100
0001
0010
,
0000
0010
0100
0001
,
0000
0100
1000
0100
,
0000
0001
0100
0010
,
0000
1000
0100
0010
;
