#TITLE:Red Zone;
#SUBTITLE:(Guitar Remix);
#ARTIST:Tatsh&NAOKI (feat. Trevor Pawlock);
#TITLETRANSLIT:;
#SUBTITLETRANSLIT:;
#ARTISTTRANSLIT:;
#GENRE:;
#CREDIT:Scott Philipp;
#BANNER:RedZone-bn.png;
#BACKGROUND:RedZone-bg.png;
#LYRICSPATH:;
#CDTITLE:suko 9x1.png;
#MUSIC:Red Zone (Guitar cover).ogg;
#OFFSET:-0.043;
#SAMPLESTART:29.765;
#SAMPLELENGTH:17.455;
#SELECTABLE:YES;
#DISPLAYBPM:165.000;
#BPMS:0.000=165.000,244.000=330.000,248.000=660.000,252.000=165.000;
#STOPS:;
#BGCHANGES:1.000=RedZoneMovie.avi=1.000=1=0=0=StretchNoLoop==CrossFade==,
99999=-nosongbg-=1.000=0=0=0 // don't automatically add -songbackground-
;
#KEYSOUNDS:;

//---------------dance-single - S. Philipp----------------
#NOTES:
     dance-single:
     S. Philipp:
     Challenge:
     10:
     0.890,1.000,0.264,0.925,0.751:
0000
0000
0000
0000
,
0000
0000
0000
0000
,
0000
0000
0000
0000
,
0000
0000
0000
0000
,
0000
0000
0000
0000
,
1000
0100
0010
0001
0100
0010
1000
0001
,
0001
0010
0100
1000
0010
0100
0202
0303
,
0001
0010
0100
1000
0010
0100
0001
1000
,
0000
0001
0000
0000
0202
0303
0100
0000
0010
0000
1000
0010
1000
0010
1000
0000
,
0001
0100
0000
0001
0100
0000
0010
0100
0000
0010
0100
0000
0001
0000
0001
0000
,
1000
0010
0000
1000
0010
0000
1000
0001
0000
1000
0001
0000
2002
0000
3003
0000
,
0001
0100
0000
0001
0100
0000
0001
1000
0000
0001
1000
0000
0001
0000
1000
0000
,
0000
1000
0001
0000
1000
0000
0000
2002
3003
0000
0000
4000
0004
0000
0000
0000
,
3003
0000
0002
0003
0000
0000
0002
0003
0000
0000
2000
3000
0000
0000
2000
3000
,
0000
0000
0020
0030
0000
0000
0020
0030
0000
0000
0200
0300
0000
0000
0200
0300
,
0001
0100
0000
0001
0100
0000
0001
1000
0000
0001
1000
0000
0001
0000
0001
0000
,
1000
0010
0000
1000
0010
0000
1000
0001
0000
1000
0001
0000
1000
0001
1000
0001
,
0000
0000
2000
3000
0000
0000
2000
3000
0000
0000
0002
0003
0000
0000
0002
0003
,
0000
0000
0020
0030
0000
0000
0020
0030
0000
0000
0200
0300
0000
0000
0200
0300
,
1000
0010
0000
1000
0010
0000
1000
0001
0000
1000
0001
0000
1000
0000
0001
0000
,
0200
0000
0310
2000
0000
0000
3000
0000
,
1000
0000
0001
0000
1000
0000
0001
0000
1000
0001
1000
0001
0000
1000
0001
0000
,
1000
0000
0100
0000
0010
0000
0001
0000
1000
0100
1000
0100
0000
1000
0100
0000
,
0010
0001
0010
0000
0100
1000
0100
0000
1000
0100
0010
0001
0000
0001
1000
0000
,
1000
0001
0000
0001
1000
0000
4000
0004
0000
0000
0000
0000
0000
3003
0000
0000
,
0001
0000
1000
0000
0001
0000
1000
0000
0001
1000
0001
1000
0000
0001
1000
0000
,
0001
0000
0010
0000
0100
0000
1000
0000
0001
0010
0001
0010
0000
0001
1000
0000
,
0001
0010
0001
0000
1000
0100
1000
0000
0001
0010
0100
1000
0000
1000
0001
0000
,
0001
1000
0000
1000
0001
0000
0004
4000
0000
0000
0000
0000
0000
3003
0000
0000
,
1000
0000
0010
0000
0100
0000
0010
0100
0000
0001
0000
1000
0100
0000
0010
0000
,
0000
0000
0022
0033
0000
MMM2
0003
0000
2002
3003
0000
2MMM
0000
0000
3000
0000
,
0001
0000
0100
0000
0010
0000
0100
0010
0000
1000
0000
0001
0010
0000
0100
0000
,
1000
0100
1000
0100
1000
0000
0001
0010
0100
1000
0001
0010
0100
1000
0001
0000
,
1000
0000
0010
0000
0100
0000
0001
1000
0000
1000
0000
0001
0010
0000
0001
0000
,
1000
0100
1000
0000
0001
0000
1000
0010
1000
0010
0000
0100
0001
0000
0200
0000
,
0000
0000
0010
0000
0000
1000
0000
0000
0001
0000
0000
1000
0000
0000
1300
0000
,
0000
0000
0100
0000
0001
0000
0100
0000
0010
0000
0000
1000
0000
0000
0010
0000
,
2020
3030
0000
0000
2000
0000
3000
0000
0002
0000
0003
0000
0001
0000
2000
0000
,
3000
1000
0001
0010
0010
0100
1000
0100
,
2200
3300
0000
0000
0200
0000
0300
0000
0020
0000
0030
0000
0010
0000
0002
0000
,
0000
0000
1003
0000
0010
0000
0100
0000
0220
0000
0000
0000
0300
0000
0000
0030
,
1000
0000
0000
0000
0200
0000
0300
0000
0020
0000
0000
0030
0010
0000
0001
0000
,
0000
0001
1000
0100
0100
0010
0001
0010
,
0022
0000
0033
0000
0002
0000
0000
0003
2000
0000
3000
0000
1000
0000
0002
0000
,
0003
0000
0001
0000
1000
0000
0100
0000
0010
0001
0010
0001
0010
0000
0000
0000
,
0001
0000
1000
0000
0001
0000
1000
0000
0001
1000
0001
1000
0000
0001
1000
0000
,
0001
0000
0010
0000
0100
0000
1000
0000
0001
0010
0001
0010
0000
0001
0010
0000
,
0100
1000
0100
0000
0010
0001
0010
0000
0001
0010
0100
1000
0000
1000
0001
0000
,
0001
1000
0000
1000
0001
0000
0004
4000
0000
0000
0000
0000
0000
3003
0000
0000
,
1000
0000
0001
0000
1000
0000
0001
0000
1000
0001
1000
0001
0000
1000
0001
0000
,
1000
0000
0100
0000
0010
0000
0001
0000
1000
0100
1000
0100
0000
1000
0100
0000
,
0010
0001
0010
0000
0100
1000
0100
0000
1000
0100
0010
0001
0000
0001
1000
0000
,
1000
0001
0000
0001
1000
0000
4000
0004
0000
0000
0000
0000
0000
3003
0000
0000
,
0001
0000
0100
0000
0010
0000
0100
0010
0000
1000
0000
0001
0010
0000
0100
0000
,
0000
0000
2200
3300
0000
2MMM
3000
0000
2002
3003
0000
MMM2
0000
0000
0003
0000
,
0001
0000
0100
0000
0010
0000
0100
0010
0000
1000
0000
0001
0010
0000
0100
0000
,
1000
0100
1000
0100
1000
0000
0001
0010
0100
1000
0001
0010
0100
1000
0001
0000
,
2000
0000
3020
0000
0130
0000
0002
1003
0000
1000
0000
0002
0023
0000
0032
0000
,
1003
0100
1000
0000
0001
0000
1000
0010
1000
0010
0000
0100
0001
0000
0200
0000
,
0000
0000
0001
0000
0000
0010
0000
0000
1000
0000
0000
0001
0000
0000
0001
0000
,
0300
0000
0001
0000
1000
0000
0010
0000
0100
0000
0000
0001
0000
0000
2002
0000
,
0M00
00M0
0M00
00M0
0M00
00M0
0M00
00M0
,
0M00
00M0
0M00
00M0
0M00
00M0
0M00
00M0
,
3M03
0000
0000
0000
4000
0004
0000
0000
3003
0000
0000
0000
1000
0000
0100
0000
,
0010
0000
0100
0000
4000
0400
0000
0000
0000
0000
3300
0000
2200
0000
0000
0000
,
3300
0000
0000
0000
0001
0010
0001
0000
1000
0100
1000
0000
0001
0010
0001
0010
,
0001
0000
0001
0000
1000
0100
1000
0100
1000
0000
1000
0000
0002
0000
0003
0000
,
0000
0000
0000
0000
0001
0010
0001
0000
2002
3003
2020
3030
0001
0100
0001
0000
,
0202
0303
0220
0330
0010
1000
0010
1000
0010
0000
1000
0000
0001
0100
0001
0100
,
0010
1000
0010
0000
2020
3030
1000
0010
1000
0000
0001
0000
0202
0303
0001
0100
,
0001
0000
1000
0000
2002
3003
1000
0001
1000
0000
0010
0000
0220
0330
0001
0100
,
0001
0000
0100
0000
0220
0330
0000
0010
0000
0000
2020
3030
0000
0000
2002
3003
,
0001
0000
0100
0000
0202
0303
0000
0001
0000
0000
2002
3003
0000
0000
1000
0000
,
0100
0010
0220
0000
0000
0000
0000
0000
,
0330
0000
0000
0000
;

//---------------dance-single - S. Philipp----------------
#NOTES:
     dance-single:
     S. Philipp:
     Hard:
     9:
     0.784,0.838,0.198,0.812,0.415:
0000
0000
0000
0000
,
0000
0000
0000
0000
,
0000
0000
0000
0000
,
0000
0000
0000
0000
,
0000
0000
0000
0000
,
1000
0100
0010
0001
0100
0010
1000
0001
,
0001
0010
0100
1000
0010
0100
0202
0303
,
0001
0010
0100
1000
0010
0100
0001
1000
,
0000
0001
0000
0000
0202
0303
0100
0000
0010
0000
1000
0010
1000
0010
1000
0000
,
0001
0100
0000
0001
0100
0000
0010
0100
0000
0010
0100
0000
0220
0000
0330
0000
,
1000
0010
0000
1000
0010
0000
1000
0001
0000
1000
0001
0000
2002
0000
3003
0000
,
0001
0100
0000
0001
0100
0000
0001
1000
0000
0001
1000
0000
0001
0000
1000
0000
,
0000
0000
0001
0000
1000
0000
0000
0001
0000
0000
0000
0000
2002
0000
0000
0000
,
3003
0000
0002
0003
0000
0000
0002
0003
0000
0000
2000
3000
0000
0000
2000
3000
,
0000
0000
0020
0030
0000
0000
0020
0030
0000
0000
0200
0300
0000
0000
0200
0300
,
0001
0100
0001
0100
0001
1000
0001
1000
,
0001
0000
1000
0000
0010
0000
1000
0001
0000
1000
0001
0000
1000
0001
1000
0001
,
0000
0000
2000
3000
0000
0000
2000
3000
0000
0000
0002
0003
0000
0000
0002
0003
,
0000
0000
0020
0030
0000
0000
0020
0030
0000
0000
0200
0300
0000
0000
0200
0300
,
1000
0010
1000
0001
0000
1000
0001
1000
,
0200
0000
0310
0002
0000
0000
0003
0000
,
1000
0000
0001
0000
1000
0000
0001
0000
1000
0000
0010
0100
0000
0100
0001
0000
,
1000
0000
0001
0000
1000
0000
0001
0000
1000
0010
1000
0010
1000
0000
0000
0000
,
0001
0000
1000
0000
0001
0000
1000
0000
0001
0000
0100
0010
0000
0010
1000
0000
,
0001
0000
1000
0000
0001
0000
1000
0000
0001
0100
0001
0100
0001
0000
0000
0000
,
0001
0000
0010
0000
0100
0000
0010
0000
0100
0000
0010
0001
0000
0001
0010
0000
,
0100
0000
0010
0000
0100
0000
0010
0000
0001
0010
0001
0010
0001
0000
0000
0000
,
0001
0000
0010
0000
0100
0000
0010
0000
0100
0000
0100
1000
0000
1000
0100
0000
,
0010
0000
0001
0000
1000
0000
0004
4000
0000
0000
0000
0000
0000
3003
0000
0000
,
2000
0000
3000
0000
0020
0000
0000
0030
0100
0000
0010
0000
0100
0000
0020
0000
,
0030
0000
1000
0000
0000
0001
0000
0000
2002
3003
0000
2000
0000
0000
3000
0000
,
0002
0000
0103
0000
0010
0000
0100
0010
0000
0010
0000
1000
0001
0000
1000
0000
,
0001
1000
0001
0010
0100
0010
0001
0100
,
0002
0000
0103
0000
0010
0000
0100
0010
0000
0100
0000
0001
1000
0000
1000
0000
,
0001
1000
0001
0000
1000
0000
0001
0000
0100
0000
0000
0000
0100
0000
0020
0000
,
0000
0000
0100
0000
0000
1000
0000
0000
0001
0000
0000
1000
0000
0000
1000
0000
,
0030
0000
0100
0000
0001
0000
0100
0000
0010
0000
0000
1000
0000
0000
0010
0000
,
2020
3030
0000
0000
2000
0000
3000
0000
0002
0000
0003
0000
0001
0000
2000
0000
,
3000
1000
0001
0010
0010
0100
1000
0100
,
2200
3300
0000
0000
0200
0000
0300
0000
0020
0000
0030
0000
0010
0000
0002
0000
,
0000
0000
1003
0000
0010
0000
0100
0000
0220
0000
0000
0000
0300
0000
0000
0030
,
1000
0000
0000
0000
0200
0000
0300
0000
0020
0000
0000
0030
0010
0000
0001
0000
,
0000
0001
1000
0100
0100
0010
0001
0010
,
0022
0000
0033
0000
0002
0000
0000
0003
2000
0000
3000
0000
1000
0000
0002
0000
,
0003
0000
0001
0000
1000
0000
0100
0000
0010
0001
0010
0002
0010
0000
0003
0000
,
1000
0000
0001
0000
1000
0000
0001
0000
1000
0000
0010
0100
0000
0100
0001
0000
,
1000
0000
0001
0000
1000
0000
0001
0000
1000
0010
1000
0010
1000
0000
0000
0000
,
0001
0000
1000
0000
0001
0000
1000
0000
0001
0000
0100
0010
0000
0010
1000
0000
,
0001
0000
1000
0000
0001
0000
1000
0000
0001
0100
0001
0100
0001
0000
0000
0000
,
0001
0000
0010
0000
0100
0000
0010
0000
0100
0000
0010
0001
0000
0001
0010
0000
,
0100
0000
0010
0000
0100
0000
0010
0000
0001
0010
0001
0010
0001
0000
0000
0000
,
0001
0000
0010
0000
0100
0000
0010
0000
0100
0000
0100
1000
0000
1000
0100
0000
,
0010
0000
0001
0000
1000
0000
0004
4000
0000
0000
0000
0000
0000
3003
0000
0000
,
2000
0000
3000
0000
0020
0000
0000
0030
0100
0000
0010
0000
0100
0000
0020
0000
,
0030
0000
1000
0000
0000
0001
0000
0000
2002
3003
0000
2000
0000
0000
3000
0000
,
0002
0000
0103
0000
0010
0000
0100
0010
0000
0010
0000
1000
0001
0000
1000
0000
,
0001
1000
0001
0010
0100
0010
0001
0100
,
0001
0000
1000
0000
0010
0000
0100
0010
0000
0010
0000
1000
0001
0000
0001
0000
,
1000
0001
1000
0000
0001
0000
1000
0000
0010
0000
0000
0000
0010
0000
0200
0000
,
0000
0000
0010
0000
0000
0001
0000
0000
1000
0000
0000
0001
0000
0000
0001
0000
,
0300
0000
0010
0000
1000
0000
0010
0000
0100
0000
0000
0001
0000
0000
0100
0000
,
2002
0000
0000
3003
,
0000
0000
0000
0000
,
0000
0000
2002
0000
3003
0000
1000
0100
,
0010
0000
0100
0000
4000
0400
0000
0000
0000
0000
3300
0000
2200
0000
0000
0000
,
3300
0000
0000
0000
0001
0010
0001
0000
1000
0000
1000
0000
0001
0010
0001
0000
,
1000
0000
1000
0000
0001
1000
0001
1000
0001
0000
1000
0000
0002
0000
0003
0000
,
0000
0000
0001
0001
0100
0100
0010
0010
,
1000
0010
1000
0000
0010
0000
0010
0000
0100
0000
0100
0000
0001
0000
0001
0000
,
0100
0001
0100
0000
0001
0000
0100
0010
0100
0000
0010
0000
1000
0000
0001
0100
,
0010
0000
1000
0000
0010
0000
1000
0010
0100
0000
0010
0000
0220
0000
0000
0000
,
0330
0000
0000
0000
2020
3030
0000
0010
0000
0000
2020
3030
0000
0000
2002
3003
,
0001
0000
0100
0000
0202
0303
0000
0001
0000
0000
2002
3003
0000
0000
1000
0000
,
0100
0010
0220
0000
0000
0000
0000
0000
,
0330
0000
0000
0000
;

//---------------dance-single - S. Philipp----------------
#NOTES:
     dance-single:
     S. Philipp:
     Easy:
     4:
     0.303,0.384,0.123,0.340,0.000:
0000
0000
0000
0000
,
0000
0000
0000
0000
,
0000
0000
0000
0000
,
0000
0000
0000
0000
,
0000
0000
0000
0000
,
1000
0010
0100
1000
,
0001
0100
0010
0000
,
0001
0100
1000
0001
,
0000
0000
0000
0000
0202
0303
0000
0000
0000
0000
0000
0000
0000
0000
0000
0000
,
0001
0100
0000
0001
,
1000
0000
0010
0000
0000
0000
2002
3003
,
0000
0100
0000
0001
,
0000
1000
0000
0002
,
0003
1000
0000
0001
,
0000
1000
0000
1000
,
0001
0100
0000
0001
,
1000
0010
0000
1000
,
0000
0001
0000
1000
,
0000
0001
0000
1000
,
0000
0010
0000
1000
,
0200
0310
0000
0000
,
1000
1000
1000
0000
,
1000
0010
1000
0000
,
0001
1000
0001
0000
,
0001
0001
0001
0000
,
1000
0001
1000
0000
,
0001
0100
0001
0000
,
0001
1000
0001
0000
,
0001
0001
0000
0000
,
2000
3000
0100
0000
0000
0000
0100
0000
,
0000
0000
0000
0000
0000
0000
0000
0000
2002
3003
0000
0000
0000
0000
0000
0000
,
0002
0003
0010
0000
0000
0000
0010
0000
,
0100
1000
0100
0100
,
2000
3000
0100
0000
0000
0000
0020
0030
,
0001
1000
0001
1000
,
0000
0000
0001
0000
,
0000
0001
0010
0000
,
0220
0330
0000
1000
,
0000
0001
1000
0001
,
0101
0000
0000
0010
,
0000
1000
0010
0000
,
1000
0100
0010
0000
,
0000
1000
0100
0001
,
0001
0001
1000
1000
,
0000
1000
0010
0010
,
0001
1000
0001
0000
,
0001
0100
0001
0000
,
1000
0001
1000
0000
,
1000
1000
0000
0000
,
1000
1000
1000
0000
,
1000
0010
1000
0000
,
0001
1000
0001
0000
,
0001
0001
0000
0000
,
0002
0003
0010
0000
0000
0000
0010
0000
,
0000
0000
0000
0000
0000
0000
0000
0000
2002
3003
0000
0000
0000
0000
0000
0000
,
0002
0003
0010
0000
0000
0000
0010
0000
,
1000
1000
0100
0100
,
2000
3000
0100
0000
0000
0000
0020
0030
,
1000
0001
1000
0001
,
0000
0000
1000
0000
,
0000
1000
0100
0000
,
2002
0000
0000
3003
,
0000
0000
0000
0000
,
0000
0000
0000
1000
,
0010
1000
0000
2200
,
3300
0001
1000
0001
,
0001
0000
1000
0000
1000
0000
0002
0003
,
0000
0000
0000
0000
0001
0000
0000
0000
2000
3000
0000
0000
0010
0000
0000
0000
,
0000
0010
0100
0001
,
0000
0000
0000
0000
2020
3030
0000
0000
0000
0000
0000
0000
0202
0303
0000
0000
,
0000
0000
0000
0000
2002
3003
0000
0000
0000
0000
0000
0000
0220
0330
0000
0000
,
0000
1000
0000
0001
,
0000
1000
0000
0010
,
0000
0220
0000
0000
,
0330
0000
0000
0000
;

//---------------dance-single - S. Philipp----------------
#NOTES:
     dance-single:
     S. Philipp:
     Medium:
     8:
     0.622,0.664,0.104,0.661,0.024:
0000
0000
0000
0000
,
0000
0000
0000
0000
,
0000
0000
0000
0000
,
0000
0000
0000
0000
,
0000
0000
0000
0000
,
1000
0100
0010
0001
0100
0010
1000
0001
,
0001
0010
0100
1000
0010
0100
0202
0303
,
0001
0010
0100
1000
0010
0100
0001
1000
,
0000
0001
0202
0303
0010
1000
0010
1000
,
0001
0100
0001
0010
0100
0010
0220
0330
,
1000
0010
1000
1000
0001
1000
2002
3003
,
0001
0100
0001
0001
1000
1000
0001
1000
,
0000
0001
1000
0000
0001
0000
2002
0000
,
3003
0002
0003
0002
0003
2000
3000
2000
,
3000
0020
0030
0020
0030
0200
0300
0200
,
0301
0100
0001
0100
0001
1000
0001
1000
,
0001
1000
0010
1000
0001
1000
0001
1000
,
0000
0002
0003
0002
0003
2000
3000
2000
,
3000
0200
0300
0200
0300
0020
0030
0020
,
0031
0100
0001
1000
0000
0001
1000
0001
,
0020
0000
0130
2000
0000
0000
3000
0000
,
1000
0001
1000
0001
1000
0010
0100
0000
,
1000
0001
1000
0001
1000
0010
1000
0000
,
0001
1000
0001
1000
0001
0100
0010
0000
,
1000
0001
1000
0001
1000
0010
1000
0000
,
1000
0001
1000
0001
1000
0010
0100
0000
,
0010
0100
0001
0100
0001
0100
0010
0000
,
1000
0010
0100
0010
1000
0010
0100
0000
,
0010
1000
0001
4000
0004
0000
0000
3003
,
2000
3000
0020
0000
0130
0010
0100
0020
,
0030
1000
0000
0001
0002
0003
2000
3000
,
0001
0100
0010
0000
0010
0000
1000
0000
,
0001
1000
0001
0010
0100
0010
0001
0000
,
1000
0010
0100
0000
0100
0000
0001
0000
,
1000
0000
1000
0100
0010
0000
0001
0000
,
0001
0000
0001
1000
0001
0000
1000
1000
,
0000
0100
0010
0001
1000
0000
0001
0000
,
2002
3003
0000
0000
0002
0003
0001
2000
,
3000
1000
0001
0010
0020
0030
0000
0000
,
0002
0003
2000
3000
0200
0300
0010
0002
,
0000
1003
0010
0100
0020
0000
0000
0030
,
1000
0000
0200
0300
0020
0000
0030
0001
,
0000
0001
1000
0100
0200
0300
0000
0000
,
0020
0030
0002
0000
2003
3000
0000
0002
,
0003
1000
0100
0010
0002
0000
0003
0000
,
1000
0001
1000
0001
1000
0010
0100
0000
,
0001
1000
0001
1000
0001
1000
0001
0000
,
0001
1000
0001
1000
0001
0100
0010
0000
,
1000
0001
1000
0001
1000
0001
0000
0000
,
1000
0100
0010
0100
0010
0100
1000
0000
,
0001
1000
0001
0100
0010
0100
0010
0000
,
1000
0010
0100
0010
0100
0010
1000
0000
,
0010
1000
0001
2000
0002
0000
3003
0000
,
2000
3000
0020
0000
0130
0010
0100
0020
,
0030
1000
0000
0001
0002
0003
2000
3000
,
0001
0100
0010
0000
0010
0000
1000
0000
,
0001
1000
0001
0010
0100
0010
0001
0000
,
1000
0010
0100
0000
0100
0000
0001
0000
,
1000
0000
1000
0100
0010
0000
0001
0000
,
0001
0000
0001
1000
0001
0000
1000
1000
,
0000
0100
0010
0001
1000
0000
0001
0100
,
2002
0000
0000
3003
,
0000
0000
0000
0000
,
0000
0000
0000
0000
0000
0000
1000
0100
,
0010
0100
1000
0000
0000
0000
2200
0000
,
3300
0000
0001
0010
0001
0000
1000
0001
,
1000
0000
0001
1000
0001
1000
0002
0003
,
0000
0000
1000
1000
0010
0010
1000
0001
,
1000
0000
0001
0001
0100
0100
0010
0100
,
0010
0000
0000
0000
1000
0000
0000
1000
0010
0000
0000
0000
0010
0000
0000
0010
,
1000
0000
0000
0000
1000
0000
0000
1000
0100
0000
0100
0000
0020
0000
0030
0000
,
0000
0000
0000
0000
0001
0000
0000
0010
0000
0000
0022
0000
0033
0000
1000
0000
,
0001
0000
1000
0000
0010
0000
0000
1000
0000
0000
2020
0000
3030
0000
0010
0000
,
1000
0010
0220
0000
0000
0000
0000
0000
,
0330
0000
0000
0000
;
