#TITLE:Don't cry, baby;
#SUBTITLE:(Santa's Comin' to Town);
#ARTIST:Ragnarok Online | SoundTeMP;
#TITLETRANSLIT:;
#SUBTITLETRANSLIT:;
#ARTISTTRANSLIT:;
#GENRE:;
#CREDIT:Scott "Suko" Philipp;
#BANNER:don't-cry-bn.png;
#BACKGROUND:don't-cry-bg.png;
#LYRICSPATH:;
#CDTITLE:suko 9x1.png;
#MUSIC:Don't Cry.mp3;
#OFFSET:-0.119;
#SAMPLESTART:81.200;
#SAMPLELENGTH:20.000;
#SELECTABLE:YES;
#DISPLAYBPM:55.000:110.000;
#BPMS:0.000=54.000,24.000=108.000;
#STOPS:;
#BGCHANGES:;
#KEYSOUNDS:;

//---------------dance-single - S. Philipp----------------
#NOTES:
     dance-single:
     S. Philipp:
     Hard:
     8:
     0.451,0.419,0.298,0.240,0.215:
0000
0000
0000
0000
,
0010
0000
0001
1000
0000
0000
1000
0000
0000
0100
0000
0000
0010
0000
0001
0100
0000
0000
0100
0000
0000
0000
0000
0000
,
0010
1000
0001
0010
0100
1000
0000
0001
,
1001
0000
0000
0000
1000
0000
0010
0100
0220
0000
0000
0000
0330
0000
0000
0000
,
1000
0000
0000
0000
0000
0100
1000
0100
1000
0000
1010
0000
1100
0000
0101
0000
,
0011
0000
0000
0000
0000
0001
0010
0100
1000
0000
0100
0000
0010
0000
0000
0000
,
0001
1000
0001
1000
0001
1000
0001
1000
,
0001
0100
0010
0100
0010
0100
0010
0100
,
0001
1000
1001
0000
0100
0010
0110
0000
,
0100
1000
1100
0000
0100
0010
0011
0000
,
0001
0010
0100
0000
1000
0000
1000
0000
1000
0010
0100
0000
0001
0000
0001
0000
,
0001
1000
0100
0000
0010
0000
0010
0000
0001
0010
0100
0000
1000
0000
1000
0000
,
1001
0000
2000
3200
0300
0010
0002
0203
,
0300
0010
2000
3200
0000
0010
0310
0010
,
0001
0010
0100
0000
1000
0000
0100
0000
1000
0000
0000
0000
1001
0000
1001
0000
,
0010
1000
0001
0000
0100
0000
0001
0000
0100
0000
0000
0000
0110
0000
0110
0000
,
0100
0001
1000
0000
0010
0000
1000
0000
0010
0000
0000
0000
1010
0000
1010
0000
,
0010
1000
0001
0000
0100
0000
0001
0000
0100
0000
0000
0000
0101
0000
0101
0000
,
0001
0100
1000
0100
0001
0100
1000
0100
,
0001
0010
1000
0010
0001
0010
1000
0010
,
0001
0100
0010
1000
0100
1000
0100
0010
,
0001
0000
0000
0000
0220
0330
0000
0000
0022
0033
0000
0000
2002
3003
0000
0000
,
2020
3030
0000
0000
1000
0000
0010
0000
0100
0000
0001
0000
0100
0000
0020
0000
,
1000
0000
0100
0000
0001
0000
1030
0010
,
2000
0000
0010
0000
0001
0000
3100
0010
,
0002
0000
0010
0000
1000
0000
0103
0010
,
0200
0000
1000
0000
0010
0000
0301
0010
,
0200
0000
0001
0000
0010
0000
1300
0001
,
0200
0300
0000
0000
0001
0000
0100
0000
0020
0030
0000
0000
0100
0000
0010
0000
,
2000
3000
0000
0000
0010
0000
0100
0000
0002
0003
0000
0000
0000
0000
0000
0000
,
0101
1100
1010
0011
,
0001
0000
0000
0001
0100
0000
0000
0100
0010
0000
0000
0010
1000
0000
0000
1000
,
0100
0000
0000
0100
0010
0000
0000
0010
0001
0000
0000
0001
1000
0000
0001
0000
,
1000
0000
0100
0000
0001
0000
0100
0010
0000
0100
0000
0010
0000
0000
0100
0000
,
1000
0000
1000
0000
0010
0001
0000
0010
0000
0100
0000
0004
4000
0000
3003
0000
,
0001
0000
0000
0001
1000
0000
0000
1000
0100
0000
0000
0100
0010
0000
0000
0010
,
0001
0000
0000
0001
0100
0000
0000
0100
0010
0000
0000
0010
1000
0000
1000
0000
,
0100
0000
0001
0000
0100
0000
1000
0000
0100
0010
0000
0001
0000
0000
1000
0000
,
0010
0100
0001
1000
0200
0000
0310
0000
,
0110
0000
0000
0001
0010
0000
0000
0000
0011
0000
0000
0000
0000
0000
0000
0000
,
0110
0000
0000
0010
0100
0000
0000
0000
1100
0000
0000
0000
0001
0000
1000
0000
,
0010
0000
1000
0000
0100
0000
1000
0001
0000
1000
0000
0001
0000
0000
1000
0000
,
0010
0000
0010
0000
1000
0010
0000
1000
0000
0001
0000
0040
0400
0000
0330
0000
,
0110
0000
0000
0100
1000
0000
0000
0000
1100
0000
0000
0000
0000
0000
0000
0000
,
0110
0000
0000
0010
0001
0000
0000
0000
0011
0000
0000
0000
0010
0000
0100
0000
,
2000
3000
0100
0010
0100
0010
0001
1000
,
0001
0000
0001
0100
0000
0100
0000
0010
0000
0000
1000
0000
0010
0000
1000
0000
,
2020
0000
0000
0000
,
0000
3030
0000
0000
0000
0000
0000
0000
;

//---------------dance-single - S. Philipp----------------
#NOTES:
     dance-single:
     S. Philipp:
     Medium:
     5:
     0.321,0.379,0.075,0.232,0.008:
0000
0000
0000
0000
,
0010
0001
1000
0100
0010
0001
0100
0000
,
0010
1000
0001
0010
0100
1000
0000
0001
,
0001
0000
1000
0010
0020
0000
0030
0000
,
1000
0000
0000
0100
0100
0010
0100
0001
,
0001
0000
0000
0001
0100
0100
0010
0000
,
0001
1000
0001
1000
0001
1000
0001
1000
,
0001
0100
0010
0100
0010
0100
0010
0100
,
0001
1000
0001
0000
0100
0010
0010
0000
,
0100
1000
0100
0000
0100
0010
0001
0000
,
1000
0001
1000
0000
1000
0010
0001
0000
,
0001
0100
0010
0000
0001
0010
1000
1000
,
0001
0000
2000
3200
0300
0000
0002
0203
,
0300
0000
2000
3200
0000
0000
0300
0000
,
0001
0010
1000
0100
1000
0000
0001
0001
,
0010
0000
0000
0000
0000
0000
0010
0010
,
0100
0001
0010
1000
0010
0000
0010
0010
,
0100
0000
0000
0000
0000
0000
0001
1000
,
0001
0000
1000
0100
0001
0000
1000
0100
,
0001
0000
1000
0010
0001
0000
0001
0010
,
1000
0000
0010
1000
0100
0000
0100
0010
,
0001
0000
0220
0330
0022
0033
2002
3003
,
2020
3030
1000
0010
0100
0001
0100
0010
,
0200
0000
0000
0000
0000
0000
0300
0010
,
2000
0000
0000
0000
0000
0000
3000
1000
,
0002
0000
0000
0000
0000
0000
0003
0010
,
0200
0000
0000
0000
0000
0000
0300
0010
,
0200
0000
0000
0000
0000
0000
0300
1000
,
0200
0300
0001
0100
0002
0003
1000
0001
,
2000
3000
0010
0100
0002
0003
0000
0000
,
0101
1001
1010
1001
,
0001
0001
0010
0010
,
0100
0010
0001
0001
,
1000
0100
0001
0000
0001
0100
1000
0000
,
1000
0000
0001
0000
1000
0000
0001
0000
0010
0000
0100
0000
4000
0400
0000
0000
,
3300
0001
0100
0000
,
0001
0000
0001
0000
0010
0000
0000
1000
,
0100
0001
0100
0000
0100
0010
0001
0000
,
0001
0100
0001
1000
0200
0000
0310
0000
,
0010
0001
0001
0000
,
0010
0000
0010
0000
0001
0000
0001
1000
,
0010
1000
0100
1000
0001
1000
0001
0000
,
1000
0000
0010
0000
1000
0000
0010
0000
1000
0000
0001
0000
0400
0004
0000
0000
,
0303
0100
0100
0000
,
0000
0000
0010
0000
0010
0000
1000
0001
,
2000
3000
0100
0010
0100
0000
0001
1000
,
0001
0001
0100
0100
0010
1000
0010
1000
,
2020
0000
0000
0000
,
0000
3030
0000
0000
0000
0000
0000
0000
;

//---------------dance-single - S. Philipp----------------
#NOTES:
     dance-single:
     S. Philipp:
     Easy:
     3:
     0.199,0.260,0.025,0.141,0.000:
0000
0000
0000
0000
,
0010
0001
0010
0001
,
1000
0001
0100
0010
,
0100
0001
1000
0000
,
1000
0000
0100
0010
,
0001
0000
0001
0010
,
0001
1000
0001
1000
,
0001
0010
0100
0010
,
0100
0001
0100
0010
,
1000
0010
1000
0001
,
1000
0001
1000
0001
,
1000
0010
1000
0001
,
1000
0002
0023
2030
,
3020
0032
0023
0000
,
0030
0100
0010
1000
,
0001
0000
0000
0100
,
0010
0001
0010
0100
,
0010
0000
0000
1000
,
0001
1000
0001
1000
,
0001
1000
0001
0001
,
0010
0010
0100
0100
,
1000
0110
1001
0110
,
1000
0001
1000
0001
,
0200
0000
0000
0300
,
2000
0000
0000
3000
,
0002
0000
0000
0003
,
0200
0000
0000
0300
,
0200
0000
0000
0300
,
0020
0030
2000
3000
,
0002
0003
2000
3000
,
0001
0001
0010
0001
,
1000
1000
0010
0001
,
0001
1000
0001
0001
,
1000
0001
0001
0100
,
0010
0001
0100
0010
,
0000
0001
0100
0000
,
1000
0001
0010
0000
,
0100
0001
0100
0001
,
1000
0001
0200
0300
,
0010
0001
1000
0000
,
0010
0100
0001
1000
,
0010
0100
0001
1000
,
0001
0100
0010
0100
,
0000
0100
0010
0000
,
0000
0010
0001
1000
,
0001
0000
0010
0001
,
1000
0001
1000
0100
,
0020
0000
0000
0000
,
0000
0030
0000
0000
;

//---------------dance-single - S. Philipp----------------
#NOTES:
     dance-single:
     S. Philipp:
     Beginner:
     2:
     0.135,0.136,0.000,0.000,0.000:
0000
0000
0000
0000
,
0000
0001
0010
0000
,
1000
0001
0100
0000
,
0100
0001
1000
0000
,
1000
0000
0100
0000
,
0001
0000
0000
0010
,
0001
0000
0001
1000
,
0001
0000
0100
0010
,
0100
0001
0000
0010
,
0000
0000
1000
0001
,
1000
0001
1000
0001
,
1000
0010
0000
0001
,
1000
0001
0000
1000
,
0010
0001
0000
0000
,
0000
0000
0010
1000
,
0001
0000
0000
0100
,
0000
0001
0010
0100
,
0000
0000
0000
1000
,
0001
1000
0000
0000
,
0001
1000
0001
0000
,
0010
0000
0100
0000
,
1000
0010
0001
0000
,
1000
0001
0000
0001
,
0100
0000
0000
0000
,
1000
0000
0000
0000
,
0001
0000
0000
0000
,
0100
0000
0000
0000
,
0100
0000
0000
0000
,
0010
0000
1000
0000
,
0001
0000
1000
0000
,
0001
0000
0010
0001
,
0000
1000
0010
0000
,
0001
1000
0001
0000
,
1000
0001
0000
0000
,
0010
0001
0100
0010
,
0000
0001
0100
0000
,
1000
0001
0010
0000
,
0100
0001
0000
0001
,
1000
0000
0100
0000
,
0010
0001
1000
0000
,
0010
0100
0001
1000
,
0000
0100
0001
1000
,
0001
0100
0000
0100
,
0000
0100
0010
0000
,
0000
0010
0001
1000
,
0000
0000
0010
0001
,
1000
0001
1000
0100
,
0010
0000
0000
0000
;
