#TITLE:Miraikei Answer;
#SUBTITLE:Theme from Ore Monogatari!!;
#ARTIST:Trustrick;
#TITLETRANSLIT:;
#SUBTITLETRANSLIT:;
#ARTISTTRANSLIT:;
#GENRE:;
#CREDIT:Scott "Suko" Philipp;
#BANNER:Miraikei-bn.png;
#BACKGROUND:Miraikei-bg.png;
#LYRICSPATH:;
#CDTITLE:suko-CDtitle.png;
#MUSIC:Miraikei Answer (Anime Intro Theme).mp3;
#OFFSET:-0.320;
#SAMPLESTART:55.400;
#SAMPLELENGTH:20.000;
#SELECTABLE:YES;
#BPMS:0.000=166.000;
#STOPS:;
#BGCHANGES:0.500=Miraikei Answer.avi=1.000=1=0=0=StretchNoLoop==CrossFade==,
244.000=Miraikei-bg.png=1.000=1=0=0=StretchNoLoop==CrossFade==,
99999=-nosongbg-=1.000=0=0=0 // don't automatically add -songbackground-
;
#KEYSOUNDS:;

//---------------dance-single - S. Philipp----------------
#NOTES:
     dance-single:
     S. Philipp:
     Hard:
     7:
     0.527,0.479,0.101,0.157,0.017:
0000
0000
0000
0000
,
1000
0100
0010
0001
,
0100
0010
1000
0001
,
1000
0100
0010
0001
,
0100
0000
0000
0000
0010
1000
0010
0100
,
0001
0000
0001
0100
0000
0100
0000
0002
,
0000
0003
0000
0000
1000
0000
1000
0100
,
0000
0020
0000
0000
0000
0000
0030
0000
,
0000
0001
0010
0100
1000
0000
1000
0100
,
0000
0020
0000
0000
0000
0030
0000
0000
,
0001
0000
0001
0000
0010
0001
1000
0010
,
0000
0010
1000
0010
0000
1000
0100
0000
,
0010
0000
0010
0000
0001
0010
0001
0010
,
0000
0000
0001
0000
0100
0000
0001
0000
0000
0000
0010
0000
0001
0010
0001
0000
,
0000
0000
1000
0000
0001
0010
0100
1000
,
0000
0100
0000
1000
0000
0100
0010
0001
,
0010
0000
0001
0000
0010
0001
0100
0010
,
1000
0000
0010
0000
0100
0010
0100
0000
,
0010
0000
1000
0000
0001
0010
0001
0000
,
1000
0000
0001
0100
0000
0100
0001
0000
,
1000
0000
0010
0000
1000
0010
0100
0000
,
0001
0000
0000
0000
0100
0000
0001
0000
0000
0000
0100
0000
0001
0100
0001
0000
,
0000
0000
1000
0000
0001
0100
0010
0000
,
1000
0000
0010
1000
0010
0100
0010
1000
,
0100
0000
1000
0000
0100
1000
0100
0000
,
1000
0000
0100
0000
0010
0100
0010
0001
,
0010
0000
0001
0010
0000
0010
0001
0010
,
0100
0000
1000
0100
0000
0100
1000
0100
,
0010
0000
0010
0100
0000
0100
0010
0000
,
0001
0000
0010
0001
0011
0000
1000
0001
,
0100
0000
0010
0110
0000
1000
0010
0100
,
0001
0000
0100
0101
0000
0001
0010
0100
,
1000
0000
0100
1100
0000
0000
1000
0000
,
0010
0000
1000
0010
0000
0000
0010
0100
,
0001
0000
0100
0001
0000
0000
0001
0100
,
0010
0000
0100
0010
0000
0100
0010
1000
,
0020
0000
0000
0030
0000
1000
0010
0100
,
0000
0000
0010
0000
0100
0000
0000
0000
0100
0000
0001
0000
0000
0000
0100
0001
,
0100
0000
0001
0100
0000
0001
0000
1000
,
0100
0010
0001
0001
0010
0100
1000
1000
,
0010
0000
0100
0001
0000
0100
0000
0010
,
0100
0001
1000
0010
0100
0001
0010
0100
,
1000
0000
0100
0000
1000
0100
1000
0100
,
0010
0000
0010
0001
0000
0001
0010
0100
,
1000
0000
1000
0000
0100
0000
1000
0100
,
0000
0010
0200
0000
0300
0000
0110
0000
,
1001
0000
1000
0000
0010
1000
0000
0001
,
0010
0100
1000
0001
0010
0100
1000
0001
,
1001
0000
0010
0000
0100
0001
0000
0100
,
0010
1000
0001
0100
0010
1000
0001
0100
,
0101
0000
0100
0000
0001
0100
0001
1000
,
0100
0000
0010
0001
0000
0010
0001
0010
,
0000
0001
0100
0000
0010
0000
1000
0020
,
0030
0200
0300
0002
0003
2000
3000
0002
,
0003
1000
0100
0010
0001
0000
0001
0100
,
0000
0202
0000
0000
0000
0000
0303
0000
,
0000
0000
0001
0000
0001
0100
0000
0000
,
0010
1000
0010
0100
0000
0001
0000
0001
,
0000
1000
0100
0010
0001
1000
0100
0010
,
0001
0000
2000
0200
0000
0000
0000
0000
,
0000
0000
0000
0000
,
3300
0000
0000
0000
;

//---------------dance-single - S. Philipp----------------
#NOTES:
     dance-single:
     S. Philipp:
     Medium:
     6:
     0.434,0.482,0.090,0.022,0.000:
0000
0000
0000
0000
,
0010
0000
1000
0000
,
0001
0000
0010
0000
,
0100
0000
1000
0000
,
0010
0000
0100
0001
,
0010
0000
0100
1000
,
0010
0000
0100
0001
,
0010
0001
0000
0000
1000
0000
0100
0000
,
0010
0001
0010
0100
,
1000
0010
0100
0001
,
0010
0010
0100
1000
,
1000
0010
0100
0001
,
0010
0010
0100
1000
,
0010
0100
0001
0010
,
0100
0011
0000
0001
,
0000
0110
0000
1000
,
0000
1010
0000
0100
,
0000
0011
0000
0001
,
0000
0110
0000
1000
,
0000
0110
0000
0001
,
0000
0110
0000
1000
,
0001
0000
0010
0100
0000
1000
0010
0000
,
0100
0001
0010
0100
,
1000
0010
0100
0001
,
0010
0010
0001
0010
,
0001
1000
0010
0100
,
0100
0001
0010
0100
,
1000
1000
0010
0100
,
0001
0010
0100
1000
,
0001
0000
0010
0000
0001
0000
0001
0010
,
0100
0000
1000
0001
0000
0010
0100
1000
,
0001
0000
0010
0100
0000
1000
0001
0010
,
0100
0000
1000
0001
0000
0000
0010
0000
,
0100
1000
1100
0000
,
1000
0000
0001
0010
0000
0100
1000
0000
,
0001
0000
0010
0100
0000
1000
0001
0010
,
0100
0000
1000
0000
0000
0001
0010
0100
,
0000
1000
0001
0000
0010
0100
0000
1000
,
0000
0001
0010
0100
0000
1000
0000
0001
,
0010
0100
1000
0001
0010
0100
1000
0001
,
0010
0000
0100
0000
1000
0001
0000
0010
,
0100
1000
0001
0010
0100
1000
0001
0010
,
0100
0000
1000
0000
0001
0010
0100
1000
,
0010
0000
0100
0001
0000
1000
0010
0100
,
0001
0000
1000
0000
0010
0000
0100
0001
,
0000
1000
0010
0000
0100
0000
0001
0000
,
1000
0000
0010
0000
0100
0001
0000
1000
,
0010
0100
0001
1000
0010
0100
0001
1000
,
0010
0000
0100
0000
0001
1000
0000
0010
,
0100
0001
1000
0010
0100
0001
1000
0010
,
0100
0000
0001
0000
1000
0010
0100
0001
,
0010
0000
0100
1000
0000
0010
0000
0100
,
0000
0001
1000
0000
0010
0000
0100
0001
,
0000
1000
0010
0000
0100
0000
0001
0000
,
1000
0000
0100
0010
0001
0000
1000
0100
,
0010
0001
1000
0100
0010
0001
1000
0100
,
0010
0000
0001
0000
1000
0100
0000
0000
,
0010
0001
1000
0100
0000
0010
0000
0001
,
0000
1000
0100
0010
0001
0000
1000
0000
,
0100
0000
0020
0002
0000
0000
0000
0000
,
0000
0000
0000
0000
,
0000
0000
0000
0033
0000
0000
0000
0000
;

//---------------dance-single - S. Philipp----------------
#NOTES:
     dance-single:
     S. Philipp:
     Easy:
     3:
     0.297,0.266,0.000,0.000,0.000:
0000
0000
0000
0000
,
0010
0000
1000
0000
,
0001
0000
0010
0000
,
0100
0000
1000
0000
,
0010
0000
0100
0001
,
0010
0000
0100
1000
,
0010
0000
0100
0001
,
0010
0000
1000
0100
,
0010
0001
0010
0100
,
1000
0010
0100
0001
,
0010
0010
0100
1000
,
1000
0010
0100
0001
,
0010
0010
0100
1000
,
0010
0100
0001
0010
,
0100
0001
0000
0001
,
0000
0010
0000
1000
,
0000
0010
0000
0100
,
0000
0001
0000
0001
,
0000
0010
0000
1000
,
0000
0010
0000
0001
,
0000
0010
0000
1000
,
0001
0010
0000
0010
,
0100
0001
0010
0100
,
1000
0010
0100
0001
,
0010
0010
0001
0010
,
0001
1000
0010
0100
,
0100
0001
0010
0100
,
1000
1000
0010
0100
,
0001
0010
0100
1000
,
0001
0010
0001
0001
,
0100
1000
0000
0100
,
0001
0010
0000
0001
,
0100
1000
0000
0010
,
0100
1000
0100
0000
,
1000
0001
0000
1000
,
0001
0010
0000
0001
,
0100
1000
0000
0010
,
0000
0001
0010
0000
,
0000
0010
0000
0000
,
0010
1000
0010
1000
,
0010
0100
1000
0000
,
0100
0001
0100
0001
,
0100
1000
0001
0100
,
0010
0100
0000
0010
,
0001
1000
0010
0100
,
0000
0010
0100
0001
,
1000
0010
0100
0000
,
0010
0001
0010
0001
,
0010
0100
0001
0000
,
0100
1000
0100
1000
,
0100
0001
1000
0100
,
0010
0100
0000
0000
,
0000
1000
0010
0100
,
0000
0010
0100
0001
,
1000
0100
0001
1000
,
0010
1000
0010
1000
,
0010
0001
1000
0000
,
0010
1000
0000
0000
,
0000
0100
0001
1000
,
0100
0010
0000
0000
;

//---------------dance-single - S.Philipp----------------
#NOTES:
     dance-single:
     S.Philipp:
     Challenge:
     8:
     0.590,0.548,0.157,0.236,0.017:
0000
0000
0000
0000
,
0001
0000
0010
0001
1000
0000
0010
0000
,
1000
0000
0010
0100
0001
0000
1000
0000
,
0100
0000
1000
0100
0010
0000
0001
2000
,
0000
0000
3000
0000
0001
1000
0001
1000
,
0001
0000
1000
0010
0000
0010
1000
0010
,
0100
0000
0001
0000
1000
0000
1000
0100
,
0000
0100
0010
0001
0001
0010
0100
1000
,
1100
0000
1000
0100
0010
0000
0001
2000
,
3000
0200
0300
2000
3000
0200
0300
2000
,
3100
0000
0100
0000
0010
0001
0010
0001
,
0000
0001
0100
0010
0000
0010
1000
0000
,
0010
0000
0010
0000
1000
0010
1000
0010
,
0000
0000
0010
0000
1000
0000
0100
0000
0000
0000
0010
0000
0001
0010
0001
0000
,
0011
0000
0001
0000
1000
0010
0100
0000
,
0010
0000
1000
0000
0010
1000
0100
0000
,
1000
0000
0010
0000
1000
0010
1000
0000
,
0001
0000
0010
0000
0001
0010
0001
0000
,
0010
0000
0001
0000
0010
0001
1000
0000
,
0001
0100
0000
0010
0000
0100
0000
0001
,
0100
0000
0001
0000
0010
0100
0010
0000
,
0100
0000
1000
0000
0100
0000
1100
0000
0000
0000
1000
0000
0001
0010
0100
0000
,
1100
0000
1000
0000
0001
1000
0001
0000
,
1000
0000
0010
0000
0100
0010
0100
0000
,
0010
0000
1000
0000
0010
1000
0010
0000
,
1000
0000
0001
0000
1000
0100
0010
0001
,
1000
0000
0001
0000
0010
0100
1000
0000
,
0001
0000
0010
0001
0000
0001
0100
0000
,
0010
1000
0001
0100
,
0001
0100
0010
0100
0001
0100
0010
0100
,
0110
0000
0100
0101
0000
0000
0001
0100
,
0101
0000
0001
0101
0000
0000
0001
1000
,
1001
0000
0001
0011
0000
0000
0010
0000
,
0002
0000
0003
0020
0000
0030
0100
0010
,
0110
0000
1000
1100
0000
0000
1000
0010
,
1000
0000
0001
0010
0100
1000
0001
0010
,
0200
0000
1000
0300
1000
0100
0010
0001
,
0000
0000
0001
0000
1000
0000
0000
0000
0001
1000
0100
0000
0000
0000
1000
0000
,
0000
0001
0010
0200
0300
2000
3000
0001
,
0010
0100
1000
0001
0010
0100
1000
0001
,
2000
3000
0001
0100
0010
2000
3000
0001
,
0100
0001
0100
0001
0010
0100
1000
0100
,
2000
0000
3001
0000
1000
0010
0100
0010
,
1000
0000
1000
0100
0000
0100
0010
0001
,
0010
0000
0001
0100
0001
0000
1000
0010
,
0000
0010
1000
0000
0010
0000
2020
3030
,
2002
3003
1000
0000
1000
0100
0000
0100
,
0010
0001
1000
0100
0010
0001
1000
0100
,
0010
0000
0001
0000
0010
0001
0000
0001
,
0010
0100
1000
0001
0010
0100
0010
0001
,
0100
0000
0001
0000
1000
0010
1000
0010
,
0100
0000
0100
0001
0000
0001
0100
0001
,
0100
0000
0010
0000
0100
0000
0001
1000
,
0000
1000
0100
0000
0010
0000
0001
0010
,
0000
0010
0100
1000
0001
0000
0001
0010
,
0100
1000
1000
0100
0010
0001
0100
0010
,
2000
3000
0010
0000
0100
0001
0000
0001
,
0100
0001
0100
0010
0000
1000
0001
1000
,
0000
0001
1000
0100
1000
0100
0010
0001
,
1000
0000
0002
0200
0000
0000
0000
0000
,
0000
0000
0000
0000
,
0303
0000
0000
0000
;

//---------------dance-double - S.Philipp----------------
#NOTES:
     dance-double:
     S.Philipp:
     Hard:
     8:
     0.519,0.548,0.079,0.281,0.022:
00000000
00000000
00000000
00000000
,
10000000
01000000
00100000
00001000
,
00000010
00000001
00000100
00000010
,
00001000
00100000
10000000
01000000
,
00100000
00000000
00000000
00000000
00000001
00000010
00000100
00010000
,
00000001
00000000
00000001
00000100
00000000
00000010
00000000
00020000
,
00000000
00030000
00000000
00000000
00010000
00000000
00100000
10000000
,
00000000
00200000
00000000
00000000
00000000
00000000
00300000
00000000
,
00000000
10000000
00100000
01000000
00010000
00000000
01000000
00001000
,
00000000
02002000
00000000
00000000
00000000
03003000
00000000
00000000
,
00001000
00000000
00010000
00000000
00001000
00100000
01000000
00100000
,
00000000
00001000
01000000
00100000
00000000
00100000
10000000
00000000
,
00100000
00000000
00100000
00000000
10000000
00100000
01000000
00010000
,
00000000
00000000
01000000
00000000
00001000
00000000
00010000
00000000
00000000
00000000
00001000
00000000
00010000
00001000
00010000
00000000
,
00000000
00000000
00010000
00000000
00001000
00000010
00000001
00000010
,
00000000
00000001
00000000
00000100
00000000
00000010
00001000
00000010
,
00000000
00000000
00010000
00000000
00100000
00000000
01000000
00100000
,
10000000
00000000
00100000
00000000
01000000
00001000
01000000
00000100
,
00001000
00000000
00000001
00000000
00000010
00000100
00001000
00000000
,
00000010
00000000
00001000
00100000
00000000
00100000
10000000
00000000
,
10000000
00000000
00100000
00000000
10000000
00100000
01000000
00000000
,
00010000
00000000
00000000
00000000
01000000
00000000
00000100
00000000
00000000
00000000
00000100
00000000
00010000
00000100
00010000
00000000
,
00000000
00000000
00000001
00000000
00001000
00000010
00000100
00000000
,
00000001
00000000
00000100
00000000
00000010
00001000
00000010
00000000
,
00000100
00000000
00001000
00000000
01000000
00010000
10000000
00000000
,
00010000
00000000
00100000
00000000
00001000
00010000
00001000
01000000
,
00010000
00000000
00010000
00100000
00000000
00100000
00010000
00000010
,
00000001
00000000
00000001
00000100
00000000
00000100
00000010
00000100
,
00000001
00000000
00000001
00000100
00000000
00000010
00000000
01000000
,
00000000
00010000
00000000
10000000
00000000
00000000
10000000
01000000
,
00100000
00000000
00001000
00011000
00000000
00000000
00000001
00000100
,
00000010
00000000
00010000
00011000
00000000
00000000
00001000
01000000
,
00100000
00000000
00100000
10000000
00000000
00000000
10000000
00000000
,
00010000
00000000
00000000
00000010
00000000
00000000
00000001
00000010
,
00000100
00000000
01000000
00001000
00000000
00000000
00001000
01000000
,
00100000
00000000
01000000
00100000
00000000
01000000
00001000
01000000
,
00000200
00000000
00000300
00000000
00000000
00010000
00001000
00011000
,
00000000
00000000
00010000
00000100
00010000
00000000
00000000
00000000
00001000
01000000
00001000
00000000
00000000
00000000
00011000
00000000
,
00000000
10000000
01000000
00200000
00300000
00000200
00000300
00000010
,
00000001
00000010
00000100
00010000
01000000
10000000
00010000
01000000
,
00002000
00003000
01000000
00001000
01000000
00002000
00003000
00000100
,
00000001
00000010
00000100
00010000
01000000
10000000
00010000
01000000
,
00002000
00003000
01000000
00000000
00000001
00000010
00000100
00010000
,
00000001
00000000
00000001
00000100
00000000
00000010
00000000
00020000
,
00000000
00030000
00000010
00000000
00000100
00000000
00000001
00000100
,
00000000
00000010
00020000
00000000
00030000
00000000
00011000
00000000
,
02002000
00000000
03003000
00000000
00000000
00000000
00000000
00010000
,
10000000
00100000
01000000
00001000
00010000
00000001
00000100
00000001
,
00020000
00030000
00000010
00010000
00000010
00020000
00030000
01000000
,
10000000
01000000
00100000
00001000
00000010
00000001
00000100
00000010
,
00020000
00030000
00000010
00000000
00001000
00000010
00001000
00000001
,
00000100
00000000
00000100
00001000
00000000
00001000
00000000
20000000
,
00000000
30000000
00000000
00000000
00020000
00030000
00010000
00000010
,
00000000
00000001
00000000
00002000
00003000
00000020
00000030
02000000
,
03000000
00000000
00000001
00010000
00000010
00000000
00001000
00000001
,
00000000
00000200
00000000
00000000
00000000
00000300
00000000
00000000
,
00000000
00000000
00000010
00000000
00010000
00100000
00000000
00000000
,
10000000
00100000
10000000
00010000
00000000
01000000
00000000
00000100
,
00000000
00000010
00000001
00000010
00000001
00001000
00000010
00010000
,
00000010
00000000
00000020
00020000
00000000
00000000
00000000
00000000
,
00000000
00000000
00000000
00000000
,
00030030
00000000
00000000
00000000
;
