#TITLE:Sakura Saku;
#SUBTITLE:Theme from Love Hina;
#ARTIST:Ritsuko Okazaki;
#TITLETRANSLIT:;
#SUBTITLETRANSLIT:;
#ARTISTTRANSLIT:;
#GENRE:;
#CREDIT:Scott "Suko" Philipp;
#BANNER:SakuraSaku-bn.png;
#BACKGROUND:SakuraSaku-bg.png;
#LYRICSPATH:;
#CDTITLE:suko 9x1.png;
#MUSIC:Sakura Saku (On Air Size).OGG;
#OFFSET:0.203;
#SAMPLESTART:49.904;
#SAMPLELENGTH:15.000;
#SELECTABLE:YES;
#BPMS:0.000=170.000;
#STOPS:;
#BGCHANGES:1.500=Love Hina OP.mpg=1.000=1=0=0=StretchNoLoop==CrossFade==,
254.000=SakuraSaku-bg.png=1.000=1=0=0=StretchNoLoop==CrossFade==,
99999=-nosongbg-=1.000=0=0=0 // don't automatically add -songbackground-
;
#KEYSOUNDS:;

//---------------dance-single - S. Philipp----------------
#NOTES:
     dance-single:
     S. Philipp:
     Easy:
     4:
     0.322,0.317,0.108,0.163,0.000:
0000
0000
0000
0000
,
0000
0000
0000
0000
,
1000
0010
0010
1000
,
0001
0100
0001
0000
,
0001
0001
1000
1000
,
1000
0001
0001
0000
,
1000
0100
1000
0001
,
0100
0001
1000
0000
,
0001
1000
0001
1000
,
0001
1000
0010
0000
,
1000
0100
0000
0100
,
1000
0000
0001
0001
,
1000
0010
1000
0010
,
0000
1000
0010
0100
,
0000
0100
0010
0100
,
0000
0110
0110
0000
,
0001
1000
1000
0000
,
0001
0010
0100
0000
,
0010
0000
0100
0000
0100
0000
0000
0010
,
0000
0110
0110
0000
,
0000
2002
3003
0001
,
0010
0000
0000
0010
0000
0000
0000
0000
,
0001
2002
3003
1000
,
0001
0000
0000
0100
0000
0000
0100
0000
,
0000
0001
0100
0000
,
0000
0001
0100
0000
,
0020
0000
0000
0000
0000
0030
0000
0200
,
0000
0000
0300
0010
,
1000
1000
0100
1000
,
0010
1000
MMM0
0010
,
0100
0001
1000
0001
,
1000
0010
1000
0000
,
0000
1000
1000
0010
,
0100
0100
0001
0000
,
0000
0100
0010
0010
,
2000
3000
0000
0010
,
1000
0010
1000
0100
,
1000
1000
0000
0001
,
0010
0010
0001
0100
,
0001
0001
0000
0000
,
0000
0010
0100
0001
,
0010
0100
0000
0000
,
1000
0100
0010
0001
,
1001
0000
0000
0001
,
0100
0001
0010
0010
,
0001
0001
0000
1000
,
0100
0100
1000
0010
,
1000
1000
0000
0000
,
0000
0100
0010
1000
,
0100
0020
0000
0030
,
0000
0001
0001
0001
,
2000
3000
0000
0001
,
0010
0010
0010
0010
,
0001
0001
0001
1000
,
0010
0010
0010
0010
,
0100
0100
0001
0000
,
0000
1000
0100
1000
,
0100
0010
0001
0000
,
0001
0010
0100
1000
,
2002
3003
0000
0000
,
0010
1000
0001
1000
,
2002
3003
0000
0000
,
1000
0001
1000
0010
,
0220
0000
0000
0000
,
0000
0000
0000
0000
,
0330
0000
0000
0000
;

//---------------dance-single - S. Philipp----------------
#NOTES:
     dance-single:
     S. Philipp:
     Hard:
     8:
     0.593,0.568,0.163,0.423,0.033:
0000
0000
0000
0000
,
0000
0000
0000
0000
,
1000
0100
0010
0001
0010
0000
0001
0010
,
0100
0000
1000
0000
0100
0000
0000
0000
4000
0400
0000
0000
0000
0000
3300
0000
,
0001
0010
0001
1000
1000
0000
1000
0010
,
1000
0000
0001
0000
0001
0000
0000
0000
0004
0040
0000
0000
0000
0000
0033
0000
,
1000
0010
0100
0001
1000
0000
0001
0010
,
0100
0000
1000
0000
0001
0000
0000
0000
4000
0400
0000
0000
0000
0000
3300
0000
,
0001
0010
1000
0010
0001
0000
1000
0010
,
0001
0000
0010
0000
1000
0000
0000
0000
0040
4000
0000
0000
0000
0000
3030
0000
,
1000
0001
0100
0001
0000
0000
0100
0010
,
1000
0000
0010
0000
0000
0000
0100
0000
0001
1000
0001
1000
0001
0000
0000
0000
,
1000
0100
0010
0001
1000
0000
0010
1000
,
0000
0010
1000
0001
0010
0000
0100
1000
,
0000
0001
1000
0100
0010
0001
1000
0001
,
0000
1010
0101
0000
,
1000
0010
0100
0001
2000
3000
0001
0010
,
0000
0001
0010
0100
2000
3000
1000
0100
,
0010
0001
0100
0001
0100
0000
0010
0220
,
0000
0330
0000
MMMM
0000
0000
0000
0000
,
0000
0000
2200
0000
0000
0300
3001
0000
,
0010
0001
0000
1100
0000
0001
0010
0100
,
1000
0000
2200
0000
0000
0300
3001
0000
,
1000
0001
0000
1001
0000
0001
0100
0000
,
0000
0010
1000
0010
0100
0001
0000
1000
,
0000
1000
0001
0010
0100
0010
0000
0001
,
0020
0000
0000
0000
0000
0030
0000
2002
,
0000
0000
3003
0000
0000
0001
1000
0010
,
1000
0100
1000
0001
0100
0001
1000
0001
,
0010
0001
1000
0002
MMM3
1000
0010
0100
,
0001
0010
0100
1000
0010
0100
0001
1000
,
0001
0100
0010
2MMM
0000
3000
0000
0000
,
0000
0001
1000
0001
1000
1000
0010
0100
,
0001
0000
0001
2000
0000
0000
0000
3000
,
0000
1000
0100
0000
0010
0001
0010
0002
,
0000
0000
0000
0003
0000
0010
0010
0001
,
1000
0100
0010
0001
1000
0010
0100
0001
,
1000
1000
1000
1000
0000
0001
0001
1000
,
0010
0100
0010
1000
0001
0010
0100
1000
,
0001
0001
0001
0002
0000
0003
0000
0000
,
0000
0100
0010
1000
0100
0010
0001
0100
,
0010
0000
1000
2020
0000
3030
0000
0000
,
1000
0010
0100
0002
0003
0020
0030
0220
,
0000
0000
0000
0330
0000
0001
0001
0010
,
0100
0010
0001
1000
0010
0100
0010
0100
,
0001
1000
0001
1001
0000
1000
1000
0010
,
0100
0001
0100
0001
1000
0100
0010
0001
,
1000
0001
1000
2002
0000
3003
0000
0000
,
0000
0010
0100
0001
0010
0100
1000
0010
,
0100
0000
0001
0202
0000
0000
0000
0303
,
0000
1000
0001
0000
0001
0010
0001
0020
,
0000
0000
0030
0000
0000
0001
0001
1000
,
0010
0100
0010
0001
0010
1000
0010
0001
,
0010
0010
0010
0010
0000
1000
1000
0001
,
0100
0010
0100
1000
0100
0001
0100
1000
,
0100
0100
0100
0100
0000
MMMM
0000
0000
,
0000
0001
1000
0010
0100
0001
1000
0010
,
0100
0000
0001
0202
0000
0303
0000
0000
,
0001
0100
0010
2000
3000
0200
0300
0020
,
0000
0000
0000
0030
,
0010
0100
1000
0020
0030
2000
3000
0002
,
0000
0000
0003
0000
,
1000
0000
0001
0020
0030
0200
0300
2200
,
0000
0000
0000
0000
,
0000
0000
0000
0000
,
0000
0000
3300
0000
;

//---------------dance-single - S. Sphilipp----------------
#NOTES:
     dance-single:
     S. Sphilipp:
     Challenge:
     9:
     0.666,0.639,0.163,0.466,0.135:
0000
0000
0000
0000
,
0000
0000
0000
0000
,
1000
0100
0010
0001
0010
0000
0001
0010
,
0100
0000
1000
0000
0100
0000
0000
0000
1000
0100
1000
0100
1000
0000
0000
0000
,
0001
0010
0001
1000
1000
0000
1000
0010
,
1000
0000
0001
0000
0001
0000
0000
0000
0001
1000
0001
1000
0001
0000
0000
0000
,
1000
0010
0100
0001
1000
0000
0001
0010
,
0100
0000
1000
0000
0001
0000
0000
0000
1000
0100
0010
0001
0010
0000
0000
0000
,
0001
0010
1000
0010
0001
0000
1000
0010
,
0001
0000
0010
0000
1000
0000
0000
0000
0010
1000
0010
1000
0010
0000
0000
0000
,
1000
0001
0100
MMM2
0003
0000
0100
0010
,
1000
0000
MM2M
0000
0030
0000
0100
0000
0001
1000
0001
1000
0001
0000
0000
0000
,
1000
0100
0010
0001
1000
0000
0010
1000
,
0000
0010
1000
0001
0010
0000
0100
1000
,
1000
0001
1000
0100
0010
0001
1000
0001
,
0000
0000
0000
0000
1000
0010
0100
0001
1000
0000
0000
0000
0000
0000
0000
0000
,
1000
0010
0100
0001
2000
3000
0001
0010
,
0000
0001
0010
0100
2000
3000
1000
0100
,
0010
0001
0100
0001
0100
0000
0010
0200
,
0000
0300
1010
0110
0202
0303
0000
MMMM
,
0000
0000
2200
0000
0000
0300
3001
0000
,
0010
0000
0001
0000
0000
0000
1100
0000
0000
0000
0001
0010
0001
0000
0010
0000
,
0100
0000
2200
0000
0000
0300
3001
0000
,
1000
0000
0001
0000
0000
0000
1001
0000
0000
0000
0001
0100
0001
0000
0000
0000
,
0000
0001
1000
0010
0100
0001
0000
1000
,
0000
1000
0001
0010
0100
0010
0000
0001
,
0020
0000
0001
0000
0001
0030
1000
2002
,
0000
0000
3003
0000
0000
0001
1000
0010
,
1000
0100
1000
0001
0100
0001
1000
0001
,
0010
0001
0010
0001
0010
0000
0002
0000
MMM3
0000
1000
0000
0010
0000
0100
0000
,
0001
0010
0100
1000
0010
0100
0001
1000
,
0001
0100
0001
0100
0001
0000
2MMM
0000
0000
0000
3000
0000
0000
0000
0000
0000
,
0000
0001
1000
0001
1000
1000
0010
0100
,
0001
0000
0001
2000
0000
0000
0000
3000
,
0000
0000
1000
0000
0100
0000
0000
0000
0010
0001
0010
0000
0001
0000
0020
0000
,
0000
0000
0000
0030
0000
0010
0010
0001
,
1000
0100
0010
0001
1000
0010
0100
0001
,
1000
0000
0001
1000
0001
0000
1000
0000
0000
0000
0001
0000
0001
0000
1000
0000
,
0010
0100
0010
1000
0001
0010
0100
1000
,
0001
0000
1000
0001
1000
0000
0002
0000
0000
0000
0000
0000
MMM3
0000
0000
0000
,
0000
1000
0001
1000
0100
0010
0001
0100
,
0010
0000
1000
2020
0000
3030
0000
0000
,
1000
0010
0100
0002
0003
0020
0030
0220
,
0000
0000
0000
0330
0000
0001
0001
0010
,
0100
0010
0001
1000
0010
0100
0010
0100
,
0001
0000
1000
0001
0100
0000
0101
0000
0000
0000
1000
0000
1000
0000
0010
0000
,
0100
0001
0100
0001
1000
0100
0010
0001
,
1000
0000
0001
0010
0100
0000
2200
0000
0000
0000
0000
0000
33MM
0000
0000
0000
,
0000
0100
0010
0001
0010
0100
1000
0010
,
0100
0000
0001
0202
0000
0000
0000
0303
,
0000
1000
0001
0000
0001
0010
0001
0020
,
0000
0000
0030
0000
0000
0001
0001
1000
,
0010
0100
0010
0001
0010
1000
0010
0001
,
0010
0000
1000
0010
1000
0000
0010
0000
0000
0000
1000
0000
1000
0000
0001
0000
,
0100
0010
0100
1000
0100
0001
0100
1000
,
0100
0000
0001
0100
0001
0000
0200
0000
0000
0000
M3MM
0000
0000
0000
0000
0000
,
0000
0001
1000
0010
0100
0001
1000
0010
,
0100
0000
0001
0202
0000
0303
0000
0000
,
0001
0100
0010
2000
3000
0200
0300
0020
,
0000
0000
0000
0000
0000
0000
0001
0000
0000
0000
0000
0000
0000
0000
0000
0000
0000
0000
0001
0000
0000
0000
0000
0000
0000
0000
0000
0000
0000
0000
0001
0000
0000
0000
0000
0030
0010
0000
0000
0000
0000
0000
0000
0000
0000
0000
0000
0000
,
0010
0100
1000
0020
0030
2000
3000
0002
,
0000
0000
0000
0000
0000
0000
1000
0000
0000
0000
0000
0000
0000
0000
0000
0000
0000
0000
1000
0000
0000
0000
0000
0000
0000
0000
0000
0000
0000
0000
1000
0000
0000
0000
0000
0003
0001
0000
0000
0000
0000
0000
0000
0000
0000
0000
0000
0000
,
1000
0000
0001
0020
0030
0200
0300
2200
,
0000
0000
0000
0000
,
0000
0000
0000
0000
,
0000
0000
3300
0000
;

//---------------dance-single - S. Philipp----------------
#NOTES:
     dance-single:
     S. Philipp:
     Medium:
     7:
     0.591,0.568,0.206,0.412,0.005:
0000
0000
0000
0000
,
0000
0000
0000
0000
,
1000
0100
0010
0001
0010
0000
0001
0010
,
0100
1000
0100
0000
1100
0000
1001
0000
,
1000
0001
1000
0001
1000
0000
1000
0010
,
1000
0001
1000
0000
1001
0000
1010
0000
,
1000
0010
0100
0001
1000
0000
0001
0010
,
0100
1000
0001
0000
1100
0000
1001
0000
,
0001
0010
0100
0010
0001
0000
1000
0010
,
0001
0010
1000
0000
1010
0000
1001
0000
,
1000
0001
0100
0000
0000
0000
0100
0010
,
1000
0000
0010
0000
0000
0000
0100
0000
0004
0400
0000
0000
0303
0000
0000
0000
,
1000
0100
0010
0001
1000
0000
0010
1000
,
0000
0010
1000
0001
0010
0000
0100
1000
,
0000
0001
1000
0100
0010
0001
1000
0001
,
0000
1010
0101
0000
,
1000
0010
0100
0001
2000
3000
0001
0010
,
0000
0001
0010
0100
2000
3000
1000
0100
,
0010
0001
0100
0001
0100
0000
0010
0200
,
0000
0300
0000
0000
0000
0000
0000
0000
,
0000
2002
3003
0001
,
0010
0001
0000
1000
0000
0001
0010
0100
,
1000
0000
2200
0000
0000
0300
3001
0000
,
1000
0001
0000
1000
0000
0001
0100
0000
,
0000
0010
1000
0010
0100
0001
0000
1000
,
0000
1000
0001
0010
0100
0010
0000
0001
,
0020
0000
0000
0000
0000
0030
0000
0022
,
0000
0000
0033
0000
0000
0001
1000
0010
,
1000
0100
1000
0001
0100
0001
1000
0001
,
0010
0001
1000
0002
0003
1000
0010
0100
,
0001
0010
0100
1000
0010
0100
0001
1000
,
0001
0100
0010
2000
0000
3000
0000
0000
,
0000
0001
1000
0001
1000
0001
0010
0100
,
1000
0000
0001
2000
0000
0000
0000
3000
,
0000
1000
0100
0000
0010
0001
0010
0002
,
0000
0000
0000
0003
0000
0010
0010
0001
,
1000
0100
0010
0001
1000
0010
0100
0001
,
1000
0010
1000
0010
0000
1000
1000
0001
,
0100
0010
0100
0001
1000
0100
0010
0001
,
1000
0001
1000
0002
0000
0003
0000
0000
,
0000
0100
0010
1000
0100
0010
0001
0100
,
0010
0000
1000
2020
0000
3030
0000
0000
,
1000
0010
0100
0002
0003
0020
0030
0022
,
0000
0000
0000
0033
0000
0001
0001
0010
,
0100
0010
0001
1000
0010
0100
0010
0100
,
0001
1000
0001
1000
0000
1000
1000
0010
,
0100
0001
0100
0001
1000
0100
0010
0001
,
1000
0001
1000
2002
0000
3003
0000
0000
,
0000
0010
0100
0001
0010
0100
1000
0010
,
0100
0000
0001
0202
0000
0000
0000
0303
,
0000
1000
0001
0000
0001
0010
0001
0020
,
0000
0000
0030
0000
0000
0001
0001
1000
,
0010
0100
0010
0001
0010
1000
0010
0001
,
0010
1000
0010
1000
0000
1000
1000
0001
,
0100
0010
0100
0001
0100
0001
0100
0010
,
0100
0001
0100
0001
0000
0000
0000
0000
,
0000
0001
1000
0010
0100
0001
1000
0010
,
0100
0000
0001
0202
0000
0303
0000
0000
,
0001
0100
0010
2000
3000
0200
0300
0020
,
0000
0000
0000
0030
,
0010
0100
1000
0020
0030
2000
3000
0002
,
0000
0000
0003
0000
,
1000
0000
0001
0020
0030
0200
0300
2200
,
0000
0000
0000
0000
,
0000
0000
0000
0000
,
0000
0000
3300
0000
;
