#TITLE:Jingle Bell Rock;
#SUBTITLE:;
#ARTIST:Cascada;
#TITLETRANSLIT:;
#SUBTITLETRANSLIT:;
#ARTISTTRANSLIT:;
#GENRE:;
#CREDIT:Scott "Suko" Philipp;
#BANNER:Jingle-Bell-Rock-bn.png;
#BACKGROUND:Jingle-Bell-Rock-bg.png;
#LYRICSPATH:;
#CDTITLE:suko 9x1.png;
#MUSIC:Jingle Bell Rock.ogg;
#OFFSET:1.370;
#SAMPLESTART:13.500;
#SAMPLELENGTH:16.000;
#SELECTABLE:YES;
#BPMS:0.000=145.250;
#STOPS:;
#BGCHANGES:;
#KEYSOUNDS:;

//---------------dance-single - S.Philipp----------------
#NOTES:
     dance-single:
     S.Philipp:
     Hard:
     8:
     0.478,0.490,0.136,0.389,0.681:
0000
0000
0000
0000
,
1000
0000
1000
0001
0000
0000
0001
0000
0001
1000
0000
0000
,
1000
0000
1000
0010
0000
0000
0220
0000
0330
0000
0000
0000
,
0001
0000
0001
1000
0000
0000
1000
0000
0000
0100
0000
0000
,
0100
0000
0100
0010
0000
0002
0000
0000
0003
0000
0000
0000
,
1000
0100
0010
0001
0000
0000
1000
0010
0100
0001
0000
0000
,
1000
0000
0001
1000
0000
0002
0000
0000
0000
0003
0000
0000
,
0000
0000
2000
0000
3000
0010
1000
0000
1000
0001
0000
0000
,
0001
0000
0000
0010
0000
0100
0000
0000
1000
0001
0000
0000
,
1000
0000
1000
0010
0000
0010
0100
0000
0100
0001
0000
0001
,
0100
0000
0100
0010
0000
0000
2020
0000
3030
0000
0000
0000
,
0001
0000
0001
1000
0000
0000
0100
0000
0000
0100
0000
0000
,
0010
0000
0010
0001
0000
0022
0000
0000
0033
0000
0000
0000
,
0001
0100
0010
1000
0000
0000
1000
0100
0010
0001
0000
0000
,
1000
0000
0001
1000
0000
2002
0000
0000
0000
3003
0000
0000
,
0000
0000
0001
0000
0000
0001
1000
0000
0000
1000
0000
0020
,
0000
0000
0000
0000
0000
0000
0030
0000
0000
1000
0000
1000
,
0100
0000
0100
0010
0000
0010
0001
0000
0001
1000
0000
0000
,
0001
0000
0001
1000
0000
1000
0010
0000
0010
0100
0000
0000
,
0002
0000
0003
0200
0000
0300
0020
0000
0030
1000
0000
0040
,
4000
0000
0000
0000
0000
0000
3030
0000
0000
0001
0000
0001
,
1000
0000
0001
0000
0000
2200
0000
3300
0000
1000
0000
1000
,
0001
0000
1000
0000
0000
0202
0000
0303
0000
0000
0000
0000
,
0000
0000
0001
0100
0000
0010
1000
0000
0001
1000
0000
0010
,
0100
0000
0001
0000
0000
0202
0000
0000
0303
0000
0000
0000
,
1000
0000
1000
0100
0000
0000
0100
0000
0100
0010
0000
0000
,
0010
0000
0010
0001
0000
0022
0000
0033
0000
0000
0000
0000
,
0001
0000
0001
1000
0000
0000
0010
0000
0000
0100
0000
0040
,
0400
0000
0330
0000
,
1000
0000
0000
0001
0000
0000
1000
0000
0010
0100
0000
0000
,
0001
0100
0001
0000
0000
0200
0000
0000
0300
0000
0000
0000
,
0000
0000
0001
0000
0000
1000
0100
0000
0100
0010
0000
0022
,
0000
0000
0033
0000
,
1MMM
MMMM
MMM1
MMMM
,
1MMM
MMMM
MMM1
MMMM
,
1000
0000
0200
0000
0000
0010
0000
0000
0301
0000
0000
0010
,
0001
0000
2000
0000
0000
0010
0000
0000
3001
0000
0000
0000
,
1MMM
MMMM
MMM1
MMMM
,
1MMM
MMMM
MMM1
MMMM
,
0000
0000
1000
0000
0000
0001
1000
0000
0010
0100
0000
0000
,
0001
0100
0001
0100
0001
0100
0001
0100
0001
0100
0000
0000
,
0010
0000
0010
1000
0000
0001
0000
0000
0000
0010
0000
0010
,
0001
0000
0001
1000
0000
0100
0000
0000
0000
0000
0000
0010
,
0001
0000
1000
0100
0000
0010
0001
0000
1000
0100
0000
0020
,
0000
0000
0000
0000
0030
0000
0000
0000
0000
0001
0000
0001
,
0100
0000
0010
0000
0000
0220
0000
0330
0000
0010
0000
0010
,
1000
0000
0001
0000
0000
2002
0000
0000
3003
0000
0000
0000
,
0000
0000
1000
0100
0000
0010
0001
0000
0001
0100
0000
0010
,
1000
0000
0001
0000
0000
2000
0000
0000
3000
0000
0000
0000
,
0010
0000
0010
1000
0000
0000
1000
0000
1000
0001
0000
0000
,
0001
0000
0001
0010
0000
0022
0000
0033
0000
0000
0000
0000
,
0001
0000
0001
0010
0000
0010
0100
0000
0100
1000
0000
0001
,
0000
0000
1000
0100
0000
0100
0010
0000
0010
0001
0000
0000
,
1000
0000
0000
0001
0000
0000
1000
0000
0010
0100
0000
0000
,
0001
0100
0001
0000
0000
0400
0004
0000
0000
0303
0000
0000
,
0000
0000
0001
0000
0000
0100
0010
0000
0010
1000
0000
0000
,
0000
0000
0001
0000
0000
0001
0010
0000
0010
0100
0000
0000
,
0000
0000
1000
0000
0000
0001
1000
0000
1000
0001
0000
2002
,
0000
0000
3003
0000
,
0000
0000
1000
0000
0000
1000
0010
0000
0010
0100
0000
0000
,
0000
0000
0001
0000
0000
0001
0100
0000
0100
0010
0000
0000
,
0000
0000
0000
0000
1000
0000
0000
0000
0000
0010
0000
0000
0100
0000
0000
0000
0001
0000
0000
0000
1000
0000
0000
0000
,
2002
0000
0000
0000
,
3003
0000
0000
0000
;
