#TITLE:Higher;
#SUBTITLE:;
#ARTIST:Tobu;
#TITLETRANSLIT:;
#SUBTITLETRANSLIT:;
#ARTISTTRANSLIT:;
#GENRE:;
#CREDIT:Scott "Suko" Philipp;
#BANNER:higher-bn.png;
#BACKGROUND:higher-bg.png;
#LYRICSPATH:;
#CDTITLE:suko-CDtitle.png;
#MUSIC:Higher-Tobu-short.ogg;
#OFFSET:0.123;
#SAMPLESTART:59.500;
#SAMPLELENGTH:17.000;
#SELECTABLE:YES;
#DISPLAYBPM:130.000;
#BPMS:0.000=130.024,67.000=65.000,67.250=195.000,68.000=130.024,75.000=65.000,75.250=195.000,76.000=130.024,83.000=65.000,83.250=195.000,84.000=130.024,91.000=65.000,91.250=195.000,92.000=101.400,96.000=130.024,99.000=65.000,99.250=195.000,100.000=130.024,107.000=65.000,107.250=195.000,108.000=130.024,111.000=260.060,112.000=130.024,115.000=65.000,115.250=195.000,116.000=130.024,123.000=65.000,123.250=195.000,124.000=130.024,131.000=65.000,131.250=195.000,132.000=130.024,139.000=65.000,139.250=195.000,140.000=130.024,143.000=260.050,144.000=130.024,147.000=65.000,147.250=195.000,148.000=130.024,155.000=65.000,155.250=195.000,156.000=130.024,195.000=65.000,195.250=195.000,196.000=130.024,203.000=65.000,203.250=195.000,204.000=130.024,207.000=260.050,208.000=130.024,211.000=65.000,211.250=195.000,212.000=130.024,219.000=65.000,219.250=195.000,220.000=130.024;
#STOPS:111.000=0.058
,111.250=0.058
,111.500=0.058
,111.750=0.058
,143.000=0.058
,143.250=0.058
,143.500=0.058
,143.750=0.058
,207.000=0.058
,207.250=0.058
,207.500=0.058
,207.750=0.058
;
#BGCHANGES:;
#KEYSOUNDS:;

//---------------dance-single - S. Philipp----------------
#NOTES:
     dance-single:
     S. Philipp:
     Easy:
     3:
     0.610,0.593,0.134,0.258,0.592:
0000
0000
0000
0000
,
0000
0000
0000
0000
,
0000
0000
0000
0000
,
0000
0000
0000
0000
,
1000
0000
0000
1000
0000
0000
1000
0000
0000
1000
0000
0100
1000
0000
0000
0000
,
0001
0000
0000
0001
0000
0000
0001
0000
0000
0001
0000
0010
0001
0000
0000
0000
,
1000
0000
0000
1000
0000
0000
1000
0000
0000
1000
0000
0100
1000
0000
0010
0000
,
0001
0000
0000
0001
0000
0000
0001
0000
0000
0001
0000
0010
0001
0000
0000
0000
,
1000
0000
0001
0010
0001
0000
1000
0000
0001
0000
1000
0000
1000
0000
0000
0000
,
1000
0000
0001
0010
0001
0000
1000
0000
0001
0000
1000
0100
0000
1000
0100
0000
,
1000
0000
0001
0010
0001
0000
1000
0000
0001
0000
1000
0000
1000
0000
0000
0000
,
1000
0000
0001
0010
0001
0000
1000
0000
0001
0000
1000
0100
0000
1000
0100
0000
,
1000
0000
0001
0010
0001
0000
1000
0000
0001
0000
1000
0100
1000
0000
0001
0000
,
1000
0000
0001
0010
0001
0000
1000
0000
0001
0000
1000
0100
0000
1000
0100
0000
,
1000
0000
0001
0010
0001
0000
1000
0000
0001
0000
1000
0100
1000
0000
0001
0000
,
1000
0000
0001
0010
0001
0000
1000
0000
0001
0000
1000
0100
0000
1000
0100
0000
,
0001
0000
0000
1000
0000
0000
0001
0000
0000
1000
0000
1000
0002
0000
0000
0000
,
1003
0000
0000
1000
0000
0000
0001
0000
0000
1000
0000
0000
1000
0000
0000
0000
,
0001
0000
0000
1000
0000
0000
0001
0000
0000
1000
0000
1000
0002
0000
0000
0000
,
1003
0000
0000
0001
0000
0000
0001
0000
0000
1000
0000
0001
1000
0000
0000
0000
,
1000
0000
0000
1000
0000
0000
0001
0000
0000
1000
0000
1000
0002
0000
0003
0000
,
1000
0000
0000
1000
0000
0000
0001
0000
0000
1000
0000
0000
1000
0000
0000
0000
,
0001
0000
0000
1000
0000
0000
0001
0000
0000
1000
0000
0000
0002
0000
0000
0000
,
1003
0000
0000
0000
0000
0000
0000
0000
0001
0000
0000
0000
0000
0000
0000
0000
0000
1000
0000
0000
0000
0000
0000
0000
0000
0000
0001
0000
0000
0000
0000
0000
0000
0000
0000
0000
1000
0000
0000
0000
0000
0000
0001
0000
0000
0000
0000
0000
,
1000
0000
0001
0000
1000
0000
0001
0100
1000
0000
0001
0000
1000
0000
0001
0000
,
2002
0000
3003
0000
1000
0000
0001
0100
1000
0000
0001
0000
1000
0000
0001
0000
,
1001
0000
0000
0000
1000
0000
0001
0100
1000
0000
0001
0000
1000
0000
0001
0000
,
2002
0000
3003
0000
1000
0000
0000
0001
0000
0000
1000
0000
0000
0010
0000
0000
,
0001
1000
0001
1000
0001
0000
0100
1000
0000
0000
0010
0000
0000
0100
0000
0000
,
0022
0000
0033
0000
0001
0000
0100
1000
0000
0000
0010
0000
0000
0100
0000
0000
,
0011
0000
0000
0000
0001
0000
0100
1000
0100
0000
0010
0000
0000
0100
0000
0000
,
0022
0033
0000
0000
0000
0000
0000
0000
,
0000
0000
0000
0000
1000
0000
0001
0010
1000
0000
0001
0000
1000
0000
0001
0000
,
2002
0000
3003
0000
1000
0000
0001
0010
1000
0000
0001
0000
1000
0000
0001
0000
,
0001
0010
0001
0100
1000
0000
0001
0010
1000
0000
0001
0000
1000
0000
0001
0000
,
0022
0000
0033
0000
0001
0000
1000
0100
1000
0000
0001
0000
1000
0000
0001
0000
,
0001
0000
1000
0000
0001
0000
1000
0000
0001
0000
0010
1000
0010
0000
0010
0000
,
0000
1000
0000
0000
0022
0000
0033
0000
0001
0000
0100
1000
0100
0000
0001
0000
,
0000
1000
0000
0000
1010
0000
0000
0000
1000
0000
0001
0010
0001
0000
1000
0000
,
0000
0010
0000
0000
2002
0000
3003
0000
1000
0000
0001
0010
0001
0000
1000
0000
,
0000
0010
0000
0000
1001
0000
0000
0000
1000
0000
0001
1000
0001
0000
1000
0001
,
1000
0000
0001
1000
0001
0000
1000
0001
1000
0000
0001
1000
0001
0000
1000
0000
,
1000
0000
0001
0010
0001
0000
1000
0000
1000
0000
0001
1000
0001
0000
1000
0001
,
1000
0000
0001
1000
0001
0000
1000
0001
1000
0000
0001
1000
0001
0000
1000
0000
,
1000
0000
0001
0010
0000
0001
0010
0000
1000
0000
0001
1000
0001
0000
1000
0001
,
1000
0000
0001
1000
0001
0000
1000
0001
1000
0000
0001
1000
0001
0000
1000
0000
,
1000
0000
0001
0010
1000
0000
0001
0000
1000
0000
0001
1000
0001
0000
1000
0001
,
1000
0000
0001
1000
0001
0000
1000
0001
1000
0000
0001
1000
0001
0000
1000
0000
,
1000
0000
0001
0010
1000
0000
0001
0000
0001
0000
0100
1000
0000
0000
0001
0000
,
0000
0001
0000
0000
2002
3003
0000
0000
0001
0000
0000
1000
0000
0000
0001
0000
,
0000
0001
0000
1000
0001
1000
0001
0000
0001
0000
0100
1000
0000
0000
0001
0000
,
0000
0001
0000
0000
0002
0000
0003
0000
0001
0000
0000
1000
0000
0000
0001
0000
,
0000
0001
0000
0100
0001
1000
0001
1000
0001
0000
0001
1000
0000
0000
0001
0000
,
0000
1000
0000
0000
0002
0000
0003
0000
1000
0000
0001
1000
0000
0000
0001
0000
,
0000
1000
0000
0000
1000
0000
0000
0000
0001
0000
0001
1000
0000
0000
0001
0000
,
0000
1000
0000
0000
0002
0000
0003
0000
1000
0000
0010
0001
0000
0000
1000
0000
,
0000
0001
0000
0000
2002
0000
0000
0000
3003
0000
0000
0000
0000
0000
0000
0000
;

//---------------dance-single - S. Philipp----------------
#NOTES:
     dance-single:
     S. Philipp:
     Hard:
     8:
     0.615,0.615,0.220,0.430,0.530:
0000
0000
0000
0000
,
0000
0000
0000
0000
,
0000
0000
0000
0000
,
0000
0000
0000
0000
,
1000
0000
0000
0100
0000
0000
1000
0000
0000
0100
0000
0000
0010
0000
0000
0000
,
0001
0000
0000
0010
0000
0000
0001
0000
0000
1000
0000
0001
1000
0000
0000
0000
,
0001
0000
0000
0100
0000
0000
0010
0000
0000
1000
0000
0000
0010
0000
0000
0000
,
1000
0000
0000
0010
0000
0000
0100
0000
0000
0001
0000
1000
0001
0000
0000
0000
,
0001
1000
0010
1000
0001
0010
0200
0300
,
1000
0000
0100
0000
0010
0000
0001
0000
1000
0000
1000
0001
0000
0001
1000
0000
,
0010
1000
0001
1000
0001
0010
0200
0300
,
0010
0000
0100
0000
0010
0000
0001
0000
1000
0000
1000
0010
0000
0010
1000
0000
,
0100
0000
1000
0100
1000
0000
0001
0000
1000
0000
0010
0100
0010
0000
0100
0000
,
0001
0000
0100
0001
0100
0000
0001
0000
1000
0000
0001
1000
0000
1000
0001
0000
,
0001
0000
1000
0100
1000
0000
0001
0000
1000
0000
0001
1000
0001
0000
1000
0000
,
0001
0000
0100
0001
0100
0000
0010
0000
1000
0000
1000
0010
0000
0010
1000
0000
,
0002
0003
0000
0200
0300
0000
0020
0030
0000
2000
3000
0000
1020
0000
0000
0030
,
1000
0000
0000
0010
0000
0000
1000
0000
0000
0001
0000
0000
0010
0000
0000
0000
,
0001
0000
0000
1000
0000
0000
0001
0000
0000
0010
0000
0000
0012
0000
0000
0003
,
1000
0000
0000
0001
0000
0000
0001
0000
0000
1000
0000
0000
0010
0000
0000
0000
,
0100
0000
0000
0010
0000
0000
0100
0000
0000
0010
0000
0000
2010
0000
0000
0000
,
3001
0000
0000
1000
0000
0000
0001
0000
0000
0010
0000
0000
0002
0000
0003
0000
,
1000
0000
0000
0010
0000
0000
1000
0000
0000
0001
0000
0000
0021
0000
0000
0030
,
0001
0000
0000
0000
0000
0000
0000
0000
0000
0000
0000
0000
0000
0000
0000
0000
0000
0000
0000
0000
0000
0000
0000
0000
0000
0000
0000
0000
0000
0000
0000
0000
0010
0000
0000
0000
0000
0000
0000
0000
0000
0000
0000
0000
0000
0000
0000
0000
0000
0000
0000
0000
0000
0000
0000
0000
0000
0000
0000
0000
0000
0000
0000
0000
0000
0000
0000
0000
0001
0000
0000
0000
0000
0000
0000
0000
0000
0000
0000
0000
0000
0000
0000
0000
0000
0000
0000
0000
0000
0000
0000
0000
0000
0000
0000
0000
0000
0000
0000
0000
0000
0000
0000
0000
1000
0000
0000
0000
0000
0000
0000
0000
0000
0000
0000
0000
0000
0000
0000
0000
0000
0000
0000
0000
0000
0000
0000
0000
0000
0000
0000
0000
0000
0000
0000
0000
0000
0000
0000
0000
0000
0000
0000
0000
0000
0000
0000
0000
0000
0000
0002
0000
0000
0000
0000
0000
0000
0000
0000
0000
0000
0000
0000
0000
0000
0000
0000
0000
0000
0000
0000
0000
0000
0000
0000
0000
0000
0000
0000
0000
0003
0000
0000
0000
0000
0000
0000
0000
0000
0000
0000
0000
,
1000
0000
0001
0000
0100
0000
0010
0000
1000
0000
0010
0000
2020
0000
0000
3030
,
1000
0000
0001
0100
0010
0000
1000
0000
0001
0000
0100
0000
0101
0000
0000
0000
,
0001
0000
1000
0010
0100
0000
0001
0000
1000
0000
0001
0000
2002
0000
0000
3003
,
2000
3000
0000
2000
3000
0000
0002
0003
0000
0002
0003
0000
0010
0001
0010
0001
,
0010
0000
0100
1000
0000
0000
1000
0000
0000
0010
0000
0000
2020
0000
0000
3030
,
1000
0000
1000
0010
0000
0000
0100
0000
0000
0010
0000
0000
0110
0000
0000
0000
,
0100
0000
0001
0010
0100
0000
1000
0000
0000
0001
0000
0000
2002
0000
0000
3003
,
2MMM
3000
0000
0000
2MMM
3000
0000
0000
2MMM
3000
0000
0000
0001
0000
0100
0000
,
0001
0000
0100
0010
0001
0000
0010
0000
1000
0000
0100
0000
2200
0000
0000
3300
,
1000
0000
0100
0010
0001
0000
1000
0000
0100
0000
0010
0000
0011
0000
0000
0000
,
0001
0000
1000
0010
0100
0000
0010
0000
0100
0000
0001
0000
0202
0000
0303
0000
,
0100
0000
0000
0100
0000
0000
0001
0000
0000
1000
0000
0000
0001
1000
0001
1000
,
0001
0000
1000
0010
0000
0000
0100
0000
0000
0001
0000
0000
0202
0000
0000
0303
,
0001
0000
1000
0010
0000
0000
0100
0000
0000
0010
0000
0000
1010
0000
0000
0000
,
1000
0000
0100
0010
0001
0000
1000
0000
0000
0001
0000
0000
0202
0000
0000
0303
,
0001
0000
0001
0100
0000
0000
0010
0000
0000
1000
0000
0000
1010
0000
0000
0000
,
0001
0000
0100
0001
0100
0000
0001
1000
0001
0000
1000
0100
1000
0000
0001
1000
,
0001
0000
1000
0010
1000
0000
0001
0100
0001
0000
0100
0000
0010
0000
1000
0000
,
0001
0000
0010
0100
0010
0000
0100
1000
0100
0000
1000
0001
1000
0000
0001
0100
,
0001
0000
0100
0010
0100
0000
0010
1000
0010
0000
1000
0000
0001
0000
0100
0000
,
0001
0000
0100
0001
0100
0000
0010
0100
0010
0000
1000
0010
1000
0000
0100
1000
,
0100
0000
1000
0001
1000
0000
0001
0010
0001
0000
0010
0000
0100
0000
1000
0000
,
0001
0000
1000
0001
1000
0000
0001
0100
0001
0000
0100
0010
0100
0000
0010
1000
,
0010
0000
1000
0100
1000
0000
0001
0000
0010
0000
0100
0010
0001
0000
1000
0000
,
0001
0000
1000
0010
0000
0000
0100
0000
0000
0010
0000
0000
0220
0000
0000
0330
,
0100
0000
0000
0001
0000
0000
0100
0000
0000
0010
0000
0000
1000
0000
0000
0000
,
0010
0000
1000
0001
0000
0000
0010
0000
0000
0100
0000
0000
2200
0000
0000
3300
,
1000
0000
0000
0100
0000
0000
1000
0000
0000
0001
0000
0000
1000
0001
1000
0001
,
1000
0000
0001
0100
0000
0000
0001
0000
0000
0100
0000
0000
0202
0000
0000
0303
,
0001
0000
0001
0010
0000
0000
0100
0000
0000
1000
0000
0000
1100
0000
0000
0000
,
1000
0000
0100
0010
0000
0000
0100
0000
0000
1000
0000
0000
2200
0000
0000
3300
,
1000
0000
0001
0100
0000
0000
0010
0000
0000
1000
0000
0000
2020
0000
0000
0000
,
3030
0000
0000
0000
;

//---------------dance-single - S.Philipp----------------
#NOTES:
     dance-single:
     S.Philipp:
     Challenge:
     9:
     0.623,0.615,0.210,0.439,0.563:
0000
0000
0000
0000
,
0000
0000
0000
0000
,
0000
0000
0000
0000
,
0000
0000
0000
0000
,
0001
0000
0000
0001
0000
0000
0001
0000
0000
0010
0000
0001
0010
0000
0000
0000
,
0100
0000
0000
0100
0000
0000
0100
0000
0000
1000
0000
0000
0001
0000
0000
0000
,
1000
0000
0000
1000
0000
0000
1000
0000
0000
0001
0000
0100
0001
0000
0000
0000
,
0100
0000
0000
0100
0000
0000
0100
0000
0000
0010
0000
0000
1000
0000
0000
0000
,
1000
0000
0001
0100
0001
0000
1000
0000
0001
0000
1000
0000
1000
0000
0000
0000
,
0001
0000
1000
0100
1000
0000
0001
0000
1000
0000
0001
0010
0000
0001
0010
0000
,
0100
0000
1000
0100
1000
0000
0001
0000
1000
0000
0001
0000
0001
0000
0000
0000
,
0010
0000
0001
0010
0001
0000
1000
0000
0001
0000
1000
0100
0000
1000
0100
0000
,
1000
0000
0001
0010
0001
0000
1000
0000
0001
0000
0100
0010
0100
0000
0010
0000
,
1000
0000
0010
1000
0010
0000
1000
0000
0001
0000
1000
0100
0000
1000
0100
0000
,
1000
0000
0001
0010
0001
0000
1000
0000
0001
0000
1000
0001
1000
0000
0001
0000
,
1000
0000
0010
1000
0010
0000
0100
0000
0001
0000
1000
0100
0000
0100
1000
0000
,
0001
0000
0000
0100
0000
0000
0010
0000
0000
1000
0000
0000
2020
0000
0000
3030
,
1000
0000
0000
0010
0000
0000
1000
0000
0000
0001
0000
0000
0020
0000
0000
0030
,
0001
0000
0000
0010
0000
0000
0100
0000
0000
1000
0000
0000
2200
0000
0000
3300
,
0100
0000
0000
0010
0000
0000
0001
0000
0000
1000
0000
0000
0020
0000
0000
0030
,
0100
0000
0000
0010
0000
0000
0100
0000
0000
0010
0000
0000
0220
0000
0000
0330
,
0010
0000
0000
1000
0000
0000
0001
0000
0000
0010
0000
0000
0002
0000
0000
0003
,
1000
0000
0000
0010
0000
0000
0100
0000
0000
0001
0000
0000
0202
0000
0000
0303
,
0100
0000
0000
0000
0000
0000
0000
0000
0000
0000
0000
0000
0000
0000
0000
0000
0000
0000
0000
0000
0000
0000
0000
0000
0000
0000
0000
0000
0000
0000
0000
0000
0010
0000
0000
0000
0000
0000
0000
0000
0000
0000
0000
0000
0000
0000
0000
0000
0000
0000
0000
0000
0000
0000
0000
0000
0000
0000
0000
0000
0000
0000
0000
0000
0000
0000
1000
0000
0000
0000
0000
0000
0000
0000
0000
0000
0000
0000
0000
0000
0000
0000
0000
0000
0000
0000
0000
0000
0000
0000
0000
0000
0000
0000
0000
0000
0000
0000
0000
0000
0000
0000
0000
0000
0010
0000
0000
0000
0000
0000
0000
0000
0000
0000
0000
0000
0000
0000
0000
0000
0000
0000
0000
0000
0000
0000
0000
0000
0000
0000
0000
0000
0000
0000
0000
0000
0000
0000
0000
0000
0000
0000
0000
0000
0000
0000
0000
0000
4000
0000
0000
0000
0000
0000
0000
0000
0000
0000
0000
0000
0000
0000
0040
0000
0000
0000
0000
0000
0000
0000
0000
0000
0000
0000
0000
0000
0000
0000
0000
0000
3030
0000
0000
0000
0000
0000
0000
0000
0000
0000
0000
0000
,
1000
0000
0010
0000
0100
0000
0001
0000
1000
0000
0100
0000
2200
0000
0000
3300
,
1000
0000
0001
0010
0100
0000
1000
0000
0001
0000
0100
0000
0101
0000
0000
0000
,
1000
0000
0001
0100
0010
0000
1000
0000
0100
0000
1000
0000
2200
0000
0000
3300
,
2000
0000
3000
0200
0000
0300
0020
0000
0030
0002
0000
0003
0010
0001
0010
0001
,
0010
0000
0100
1000
0000
0000
1000
0000
0000
0010
0000
0000
2020
0000
0000
3030
,
1000
0000
0001
0100
0000
0000
0010
0000
0000
0100
0000
0000
0110
0000
0000
0000
,
0010
0000
1000
0100
0000
0000
0010
0000
0000
0001
0000
0000
0022
0000
0000
0033
,
MMM2
0003
0000
0000
MMM2
0003
0000
0000
MMM2
0003
0000
0000
1000
0000
0010
0000
,
1000
0000
0010
0100
1000
0000
0100
0000
0001
0000
0100
0000
0202
0000
0000
0303
,
0001
0000
1000
0001
1000
0000
0001
0000
0010
0000
0100
0000
1000
0000
0001
0010
,
0100
0000
1000
0010
0100
0000
0010
0000
0100
0000
0001
0000
0202
0000
0000
0303
,
0001
0000
0000
0100
0000
0000
0001
0000
0000
0010
0000
0000
0001
0010
0001
0010
,
0001
0000
1000
0001
0000
0000
0010
0000
0000
0100
0000
0000
2200
0000
0000
0300
,
3100
0000
1000
0010
0000
0000
0100
0000
0000
0010
0000
0000
0110
0000
0000
0000
,
0100
0000
0001
1000
0000
0000
0001
0000
0000
0010
0000
0000
0022
0000
0000
0033
,
0001
0000
1000
0001
0000
0000
0100
0000
0000
0010
0000
0000
2020
0030
3000
0000
,
1000
0000
0010
0100
0001
0000
0010
0100
1000
0000
0010
0100
0001
0000
0010
0100
,
1000
0000
0010
0100
0001
0000
1000
0000
1000
0000
0010
0100
0001
0000
0100
0000
,
0001
0000
0100
0010
1000
0000
0100
0010
0001
0000
0100
0010
1000
0000
0100
0010
,
0001
0000
0100
0010
1000
0000
0001
0000
0001
0000
0100
0010
1000
0000
0010
0000
,
1000
0000
0010
0100
0001
0000
0010
0100
1000
0000
0010
0100
0010
0000
1000
0010
,
0100
0000
0001
0100
0010
0000
1000
0000
0100
0000
0010
0100
1000
0000
0001
0000
,
0001
0000
0100
0010
1000
0000
0100
0010
0001
0000
0100
0010
0100
0000
0001
0100
,
0010
0000
1000
0010
0100
0000
0001
0000
0010
0000
0100
0010
0001
0000
1000
0000
,
0001
0000
0000
1000
0000
0000
0010
0000
0000
0100
0000
0000
0220
0000
0000
0330
,
0100
0000
0000
0001
0000
0000
0100
0000
0000
0010
0000
1000
0010
0000
0000
0000
,
0100
0000
0001
1000
0000
0000
0100
0000
0000
0010
0000
0000
0022
0000
0000
0033
,
0001
0000
0000
0010
0000
0000
0100
0000
0000
1000
0000
0000
0001
1000
0001
1000
,
0001
0000
1000
0010
0000
0000
1000
0000
0000
0010
0000
0000
2020
0000
0000
3030
,
1000
0000
0001
0010
0000
0000
0100
0000
0000
1000
0000
0000
1100
0000
0000
0000
,
1000
0000
0100
0010
0001
0000
1000
0000
0000
0001
0000
0000
2002
0000
0000
3003
,
1000
0000
0001
0100
0000
0000
0010
0000
0000
1000
0000
0000
2020
0000
0000
0000
,
3030
0000
0000
0000
;

//---------------dance-single - S.Philipp----------------
#NOTES:
     dance-single:
     S.Philipp:
     Medium:
     4:
     0.284,0.347,0.220,0.363,0.000:
0000
0000
0000
0000
,
0000
0000
0000
0000
,
0000
0000
0000
0000
,
0000
0000
0000
0000
,
1000
0000
0000
0010
,
0001
0000
0000
1000
,
0001
0000
0000
0010
,
1000
0000
0000
0001
,
0001
0000
0010
0000
0001
0000
0200
0300
,
1000
0010
1000
0000
,
0010
0000
0001
0000
0001
0000
0200
0300
,
0010
0010
1000
0000
,
0100
1000
1000
0010
,
0001
0100
1000
0000
,
0001
1000
1000
0001
,
0001
0100
1000
0000
,
0002
0003
0000
0000
0000
0000
0000
0000
0000
0000
0000
0000
1020
0000
0000
0030
,
1000
0000
0000
0010
,
0001
0000
0000
0000
0000
0000
0000
0000
0000
0000
0000
0000
0012
0000
0000
0003
,
1000
0000
0000
0010
,
0100
0000
0000
2010
,
3001
0000
0000
0000
0000
0000
0002
0003
,
1000
0000
0000
0000
0000
0000
0000
0000
0000
0000
0000
0000
0021
0000
0000
0030
,
0001
0000
0000
0000
,
1000
0000
0000
0000
0100
0000
0000
0000
1000
0000
0000
0000
2020
0000
0000
3030
,
1000
0010
0001
0101
,
0001
0000
0000
0000
0100
0000
0000
0000
1000
0000
0000
0000
2002
0000
0000
3003
,
2000
3000
0000
0000
0000
0000
0000
0000
0000
0000
0000
0000
0010
0000
0000
0000
,
0010
0000
0000
0000
0000
0000
0000
0000
0000
0000
0000
0000
2020
0000
0000
3030
,
1000
0000
0000
0110
,
0100
0000
0000
0000
0100
0000
0000
0000
0000
0000
0000
0000
2002
0000
0000
3003
,
2MMM
3000
0000
0000
2MMM
3000
0000
0000
2MMM
3000
0000
0000
0001
0000
0000
0000
,
0001
0000
0000
0000
0001
0000
0000
0000
1000
0000
0000
0000
2200
0000
0000
3300
,
1000
0001
0100
0011
,
0001
0000
0100
0000
0100
0000
0202
0303
,
0100
0000
0000
0001
,
0001
0000
0000
0000
0000
0000
0000
0000
0000
0000
0000
0000
0202
0000
0000
0303
,
0001
0000
0000
1010
,
1000
0000
0000
0000
0001
0000
0000
0000
0000
0000
0000
0000
0202
0000
0000
0303
,
0001
0000
0000
1010
,
0001
0100
0001
1000
,
0001
1000
0001
0010
,
0001
0010
0100
1000
,
0001
0100
0010
0001
,
0001
0100
0010
1000
,
0100
1000
0001
0100
,
0001
1000
0001
0100
,
0010
1000
0010
0001
,
0001
0000
0000
0000
0000
0000
0000
0000
0000
0000
0000
0000
0220
0000
0000
0330
,
0100
0000
0000
1000
,
0010
0000
0000
0000
0000
0000
0000
0000
0000
0000
0000
0000
2200
0000
0000
3300
,
1000
0000
0000
1000
,
1000
0000
0000
0000
0000
0000
0000
0000
0000
0000
0000
0000
0202
0000
0000
0303
,
0001
0000
0000
1100
,
1000
0000
0000
0000
0000
0000
0000
0000
0000
0000
0000
0000
2200
0000
0000
3300
,
1000
0000
0000
2020
,
3030
0000
0000
0000
;
