#TITLE:Country Roads;
#SUBTITLE:;
#ARTIST:Hermes House Band;
#TITLETRANSLIT:;
#SUBTITLETRANSLIT:;
#ARTISTTRANSLIT:;
#GENRE:;
#CREDIT:Scott "Suko" Philipp;
#BANNER:country_roads-bn.png;
#BACKGROUND:country_roads-bg.png;
#LYRICSPATH:;
#CDTITLE:suko 9x1.png;
#MUSIC:CountryRoads.mp3;
#OFFSET:-1.154;
#SAMPLESTART:23.811;
#SAMPLELENGTH:22.480;
#SELECTABLE:YES;
#DISPLAYBPM:40.000:145.000;
#BPMS:0.000=56.250,16.000=112.500,18.000=121.000,20.000=129.000,22.000=135.000,24.000=137.000,26.000=138.000,28.000=138.750,30.000=139.000,31.000=139.000,128.000=69.500,140.000=55.000,140.250=52.000,141.000=50.000,141.500=43.000,141.750=42.000,142.000=30.000,142.250=18.000,142.500=40.500,145.000=41.000,146.000=43.500,147.500=44.000,148.500=45.000,149.500=46.000,150.000=47.000,150.750=48.000,152.000=49.000,153.000=51.000,154.500=51.500,156.500=53.000,157.500=54.000,158.000=55.000,158.500=56.500,159.250=57.000,160.000=58.000,161.000=58.000,162.000=60.000,163.000=60.750,164.000=61.500,165.000=63.000,166.500=64.500,168.000=66.000,168.500=67.000,170.000=68.000,170.500=69.000,172.000=70.000,174.458=145.600,271.500=137.000,273.000=133.000,274.500=131.000,275.500=125.000,278.000=110.000,279.500=100.000,281.500=93.000,282.500=87.000,283.500=60.000,284.000=40.000,284.500=25.000,286.000=100.000;
#STOPS:128.000=0.030
,142.500=1.000
;
#BGCHANGES:;
#KEYSOUNDS:;

//---------------dance-single - S. Philipp----------------
#NOTES:
     dance-single:
     S. Philipp:
     Challenge:
     9:
     0.561,0.659,0.191,0.048,0.503:
0000
0000
0000
0000
,
0000
0000
0000
0000
,
1000
0001
1000
0100
,
0010
0001
0100
0010
,
1000
0001
1000
0001
1000
0001
1000
0001
,
0100
0001
0100
0001
0100
0001
0100
0001
,
0010
0100
0010
0100
0010
0100
0010
0100
,
1000
0000
0100
0000
1000
0000
0100
0000
1000
0000
0000
0000
0001
0000
0010
0100
,
1000
0000
0001
0000
1000
0000
0001
0000
0001
0000
0000
0000
1000
0000
0100
0010
,
0001
0000
1000
0000
0001
0000
1000
0000
1000
0000
0000
0000
0100
0000
0010
0001
,
0010
0000
0001
0000
0010
0000
0100
0000
0100
0000
0000
0000
0010
0000
0100
1000
,
0000
1000
0100
0000
0100
0000
0010
0000
0001
0000
0000
0000
0001
0000
0001
0010
,
0000
0010
0100
0000
1000
0000
1000
0100
0000
0100
0010
0000
0001
0010
0100
1000
,
0010
0100
0001
0000
1000
0000
0001
1000
0000
1000
0001
0000
0001
0000
1000
0010
,
0100
0001
1000
0000
0001
0000
0001
0010
0000
0010
0100
0000
1000
0000
0010
0100
,
0001
1000
0001
0000
1000
0000
0001
0100
0000
0100
0010
0000
1000
0010
1000
0001
,
0010
0000
0001
1000
0010
0001
0010
0100
,
0001
0000
0000
0000
0100
0000
0100
0010
0000
0000
1000
0000
0001
0000
0000
0000
,
0000
0000
0001
0010
0100
1000
0010
0000
,
1000
0100
0001
0010
1000
0100
0010
0000
,
0000
0000
0000
0000
0001
0000
0010
0000
0100
0000
0000
0100
0000
0000
0000
0000
,
1000
0000
0010
0000
0001
0000
0020
0000
0000
0030
0110
0000
0000
0000
0000
0000
,
0010
1000
0001
1000
0010
0100
0001
0000
,
1000
0000
0100
0000
1000
0000
0001
0000
2000
0000
3000
0000
0001
0000
0001
0010
,
0100
0000
1000
0010
0100
0000
0001
0010
0100
0000
1000
0000
1000
0000
0100
0000
,
0010
0000
0001
0010
0001
0000
1000
0010
1000
0000
0010
0100
0010
0000
1000
0000
,
0001
0000
0010
0100
1000
0000
0010
0100
0001
0000
1000
0100
0010
0000
0001
2000
,
0000
0000
0100
0000
0000
0000
0001
0000
0000
0000
3001
0000
1000
0000
0010
0100
,
0000
0100
0001
0000
0010
0000
0010
0001
0000
0001
0010
0000
0100
0000
0100
1000
,
0000
1000
0100
0000
0010
0000
0010
0001
0000
0001
0010
0000
0001
0000
0010
0100
,
0010
0100
0010
0000
0001
0000
0001
0100
0000
0100
0010
0000
1000
0000
0010
1000
,
0010
1000
0010
0000
1000
0000
0100
0010
0000
0010
0001
0000
1000
0000
0001
0000
,
1001
0001
1000
0001
1000
0001
1000
0001
,
1000
0010
0100
0001
0010
0100
1000
0001
,
0101
0001
1001
1000
1100
0100
0110
0010
,
0001
0010
0100
0000
0000
0000
1000
0100
0020
0000
0030
0000
0011
0000
0001
0000
,
1001
0000
0010
0100
0110
0000
0100
0000
0101
0000
0001
1000
1001
0000
1000
0000
,
1100
0000
0000
0000
0100
0000
0010
0000
0110
0000
0000
0000
0010
0000
0000
0000
0011
0000
0000
0000
0001
0000
0010
0100
1000
0000
0001
0000
1000
0000
0001
0000
,
1000
0000
0000
0000
1000
0000
0010
0100
0001
0000
1000
0000
0001
0000
1000
0000
0001
0000
0000
0000
1000
0000
1000
0100
0010
0000
0001
0000
0010
0000
0001
0000
,
0010
0000
0000
0000
0001
0000
0001
0010
0100
0000
1000
0000
0100
0000
1000
0000
0100
0000
0000
0000
0001
0000
1000
0000
0001
0000
0100
0000
0001
0000
1000
0000
,
0100
0000
0010
0001
1000
0001
0100
0010
1000
0000
0001
0100
1000
0100
0001
0100
,
1000
0000
0000
0000
0100
0000
0001
0000
0010
0000
0001
0000
0100
0000
0001
0000
0010
0000
0000
0000
0010
0000
0001
0010
0100
0000
1000
0000
0010
0000
1000
0000
,
0100
0000
0000
0000
1000
0000
0010
0100
0001
0000
1000
0000
0001
0000
0010
0000
0100
0000
0000
0000
1000
0000
0100
0010
0001
0000
0010
0000
0001
0000
1000
0000
,
0001
0000
0000
0000
0100
0000
0010
0100
0001
0000
1000
0000
0001
0000
1000
0000
0001
0000
0000
0000
1000
0000
0000
0000
0100
0000
0000
0000
0010
0000
0000
0000
,
0000
0011
0000
1001
0000
0010
0100
0001
,
0000
0101
0000
1001
0000
0001
1000
0100
,
0000
0000
1100
0000
0000
0000
0110
0000
0000
0000
0010
0000
0000
0001
2000
0000
,
0000
0000
0001
0000
0000
0000
3100
0000
0000
0000
0010
0000
0010
0100
0000
0100
,
1000
0000
0100
0010
0001
1000
0100
0000
0100
1000
0000
1000
0010
0000
0010
0000
,
0010
0100
0000
0100
0001
0000
0001
0010
0100
1000
0001
0010
0100
0000
0100
0000
,
0100
1000
0000
1000
0001
0000
0001
0000
0000
0000
0100
0000
0010
0000
0100
0000
,
0100
0010
0000
0010
1000
0000
0010
0000
0000
0000
1000
0000
0010
0000
0100
0000
,
MMMM
0101
MMMM
1001
0000
1000
0100
0010
,
MMMM
0011
MMMM
1100
0000
0001
0010
0100
,
MMMM
0000
1001
0000
MMMM
0000
0101
0000
0000
0000
1000
0000
0000
0010
0200
0000
,
0000
0000
0000
0000
0000
0000
0000
0000
0300
0000
0010
0000
0100
0000
0010
1000
,
0010
1000
0010
1000
0010
1000
0010
1000
0010
1000
0010
1000
0010
0000
1000
0001
,
1000
0001
1000
0001
1000
0001
1000
0001
1000
0001
1000
0001
1000
0000
0001
0010
,
0001
0010
0001
0010
0001
0010
0001
0010
0001
0010
0001
0010
0001
0000
1000
0100
,
0010
0001
1000
0100
0010
0001
1000
0100
0010
0001
1000
0000
0001
0000
1000
0000
,
0000
0000
0011
0000
0001
0000
1001
0000
0000
0000
0001
0000
0010
0100
1000
0000
,
0000
0000
1100
0000
1000
0000
1001
0000
0000
0000
1000
0000
0010
0100
0001
0000
,
0000
0000
0101
0000
0001
0000
1001
0000
0000
0000
0001
0000
1000
0001
2000
0000
,
0000
0000
0001
0000
0000
0000
0100
0000
3000
0000
0100
0000
0100
0010
0000
0010
,
0001
0000
0010
0100
1000
0100
0010
0000
0010
0001
0000
0001
0100
0000
0100
0000
,
0100
0010
0000
0010
1000
0000
1000
0100
0010
0001
1000
0100
0010
0000
0010
0000
,
0010
0001
0000
0001
1000
0000
1000
0000
0000
0000
0010
0000
0100
0000
0010
0000
,
0010
0100
0000
0100
0001
0000
1000
0000
0000
0000
0001
0000
1000
0000
0001
0000
,
0010
0100
0000
0100
1000
0000
0001
0000
0010
0000
0100
0000
1000
0000
0001
0000
,
0100
0010
0100
0010
1000
0000
0001
0000
1000
0000
0001
0000
1000
0000
0100
0000
,
0010
0001
0000
0001
1000
0000
0010
0000
1000
0000
0001
0000
1000
0000
0200
0000
,
0000
0000
0000
0300
0000
0000
0000
0000
;

//---------------dance-single - S. Philipp----------------
#NOTES:
     dance-single:
     S. Philipp:
     Hard:
     8:
     0.404,0.382,0.131,0.077,0.042:
0000
0000
0000
0000
,
0000
0000
0000
0000
,
1000
0001
1000
0100
,
0010
0001
0100
0010
,
1000
0001
1000
0001
1000
0001
1000
0001
,
0100
0001
0100
0001
0100
0001
0100
0001
,
0010
0100
0010
0100
0010
0100
0010
0100
,
1000
0100
1000
0100
1000
0000
0001
0010
,
0100
0100
0010
0001
0001
0000
1000
0100
,
0010
0001
0001
1000
1000
0000
0010
0100
,
0001
0010
0001
0000
0010
0000
0100
0000
0100
0000
0000
0000
0010
0000
0100
0000
,
1000
0100
1000
0000
0010
0000
0100
0000
0001
0000
0000
0000
0001
0000
0001
0000
,
0010
0010
0100
0100
1000
0000
0001
0001
,
1000
0000
1000
0000
0010
0000
0010
0000
0100
0000
0000
0000
0010
0000
0100
0001
,
0100
0000
0010
0000
0100
0000
0010
0000
1000
0000
0000
0000
1000
0000
0100
0010
,
0001
0010
0010
0100
0100
0000
1000
0001
,
1001
0000
1000
0010
1000
0000
0001
0000
,
1000
0000
0000
0000
0100
0000
0100
0010
0000
0000
0001
0000
1000
0000
0000
0000
,
0000
0000
0001
0010
0100
1000
0010
0000
,
1000
0100
0001
0100
1000
0100
0010
0000
,
0000
0000
0000
0000
0001
0000
0010
0000
0100
0000
0000
0100
0000
0000
0000
0000
,
1000
0000
0000
0000
0010
0000
0000
0000
0001
0000
0000
0000
0020
0000
0000
0000
0000
0000
0000
0030
0010
0000
0000
0000
0000
0000
0000
0000
0000
0000
0000
0000
,
0010
1000
0001
1000
0010
0100
0001
0000
,
1000
0000
0100
0000
1000
0000
0001
0000
2000
0000
3000
0000
0001
0000
0001
0010
,
0100
0000
1000
0000
0010
0000
1000
0000
0010
0000
0000
0000
1000
0000
0100
0010
,
0001
0010
0001
0010
0001
0000
0010
0001
,
1000
0000
0010
0000
0100
0000
0010
0000
0100
0000
0000
0000
0001
0000
1000
0002
,
0000
0000
0000
0003
0000
0000
1000
0010
,
0100
0001
0010
0010
0001
0001
0100
0010
,
1000
0010
0010
0100
0100
0001
0010
0100
,
1000
1000
0001
0001
0100
0010
1000
1000
,
0010
0010
0100
0010
1000
0001
1000
0001
,
1001
1000
0001
1000
0001
1000
0001
1000
,
0001
0010
0100
1000
0010
0100
0001
1000
,
0001
1000
0001
1000
0100
0100
0010
0010
,
0001
0010
0200
0300
2200
3300
0001
0001
,
0001
1000
1000
1000
0001
1000
0001
1000
,
1000
0100
0010
0010
0001
0001
1000
1000
,
0001
1000
0010
0100
0001
0010
0100
1000
,
0001
1000
0010
0100
0100
0001
1000
0001
,
0100
0010
0100
0001
0010
0001
1000
0001
,
0010
0100
1000
0100
0010
0001
0010
0001
,
1000
0010
0100
0001
0010
0100
0010
0001
,
1000
0100
0010
0001
1000
0001
1000
0001
,
0000
1100
0000
0011
0000
0010
0100
0010
,
0000
0110
0000
0011
0000
0001
1000
0100
,
0000
1100
0000
1001
0000
0010
0100
0002
,
0000
0000
0000
0003
0000
1000
0100
0010
,
0001
0010
0100
1000
0100
0010
0010
0001
,
0001
0100
0100
0010
1000
0100
0010
0001
,
0001
1000
1000
0010
0010
0100
0001
1000
,
1000
0001
0001
1000
0100
0010
0001
0010
,
0000
0110
0000
1100
0000
1000
0100
0010
,
0000
0011
0000
1001
0000
0001
0100
0010
,
0000
0000
1010
0000
0000
0000
1001
0000
0000
0000
1000
0000
0000
0010
2000
0000
,
0000
0000
0000
0000
0000
0000
0000
0000
0000
0000
3100
0000
0010
0000
0004
0040
,
0000
0000
0000
0000
0000
0000
0000
0000
0000
0000
0000
0033
0000
0000
0400
0004
,
0000
0000
0000
0000
0000
0000
0000
0000
0000
0000
0000
0303
0000
0000
0040
4000
,
0000
0000
0000
0000
0000
0000
0000
0000
0000
0000
0000
3030
0000
0000
0400
0040
,
0000
0000
0000
0000
0000
0000
0000
0330
0000
0000
0010
0000
1000
0000
0100
0000
,
0000
0110
0000
0011
0000
0001
0010
0100
,
0000
1100
0000
1001
0000
1000
0010
0100
,
0000
0101
0000
1001
0000
0001
0010
0200
,
0000
0000
0000
0000
0300
0010
0001
1000
,
0001
0100
0010
1000
0100
0010
0001
0001
,
1000
0010
0100
0001
0010
0100
0100
1000
,
0100
0010
0001
0010
0100
1000
1000
0010
,
0100
0001
1000
0100
0010
0001
1000
0001
,
0000
0100
0000
0001
0000
0010
0001
0200
,
0000
0010
0000
0310
0000
1000
0100
0020
,
0000
0001
0000
0031
0000
0001
1000
2002
,
0000
0000
0000
3003
0000
0000
0000
0000
;

//---------------dance-single - S. Philipp----------------
#NOTES:
     dance-single:
     S. Philipp:
     Medium:
     7:
     0.358,0.340,0.137,0.054,0.027:
0000
0000
0000
0000
,
0000
0000
0000
0000
,
1000
0001
1000
0100
,
0010
0001
0100
0010
,
1000
0100
0010
0001
1000
0010
0100
0001
,
0100
0001
1000
0001
0010
0100
1000
0001
,
0100
0010
1000
0001
1000
0010
0100
0001
,
1000
0001
1000
0001
1001
0000
0001
0100
,
0010
0000
0010
0000
0010
0000
1000
0100
,
0010
0000
0010
0000
0010
0000
0001
1000
,
0001
0000
0001
0000
0001
0000
1000
0010
,
1000
0000
1000
0000
1000
0000
0001
0010
,
0100
1000
0001
0000
1000
0000
0001
0100
,
0010
1000
0010
0000
1000
0000
0010
0100
,
0001
1000
0100
0000
1000
0000
0001
1000
,
0001
0010
0100
0000
1000
0000
0100
0000
,
1100
0001
1000
0001
,
1000
0000
0000
0000
0010
0000
1000
0001
0000
0001
1000
0000
0010
0000
0000
0000
,
0100
0001
0100
0010
,
1000
0001
1000
0001
1000
0001
0100
0000
,
0000
0000
0010
1000
0100
0000
0100
0000
,
0010
0001
0010
0001
0000
0001
0000
0000
,
0010
0001
1000
0000
0010
1000
0001
0000
,
0010
0001
1000
0001
2000
3000
0001
0000
,
0100
0010
0010
1000
,
0001
0001
0001
0010
,
0100
1000
0100
0010
,
0002
0000
0000
0000
0000
0000
0000
0000
0003
0000
0000
0000
1000
0000
0000
0100
,
0010
0000
0000
0000
0010
0000
0000
0000
0001
0000
0000
0000
0100
0000
0000
0010
,
1000
0000
0000
0000
0100
0000
0000
0000
0100
0000
0000
0000
0010
0000
0000
0010
,
0001
0000
0000
0000
0001
0000
0000
0000
0100
0000
0000
0000
0010
0000
0000
1000
,
0100
0010
0001
1000
,
1001
0001
1000
0010
,
0100
0001
0010
0001
,
1000
0001
0100
0010
,
1000
0000
0001
0000
2002
3003
1000
0000
,
0001
1000
0100
0010
,
0001
1000
0001
0100
,
0010
1000
0010
0100
,
0001
0000
1000
0000
0100
0000
0010
0001
,
1000
0000
0010
0100
0001
0000
1000
0001
,
1000
0000
0010
1000
0001
0000
1000
0100
,
0010
0001
0001
0010
0100
1000
0001
1000
,
0001
1000
0010
0100
0001
1000
0001
1000
,
0000
1001
0000
0101
0000
0001
0100
0001
,
0000
0101
0000
0110
0000
0010
0100
0010
,
0000
1010
0000
1001
0000
1000
0001
2000
,
0000
0000
3000
0000
0000
0100
0010
0001
,
1000
0001
1000
0000
0010
0100
0001
1000
,
0001
0010
0100
0000
0010
0100
0010
0001
,
0010
0001
1000
0000
0010
1000
0001
0100
,
0010
0100
0001
0000
0000
1000
0001
1000
,
0000
1001
0000
0101
0000
0001
1000
0001
,
0000
1001
0000
1100
0000
0100
0010
0100
,
0000
0110
0000
0011
0000
0001
1000
0002
,
0000
0000
0000
0003
0000
1000
0010
1000
,
0001
0100
0010
1000
0001
0010
0100
1000
,
0001
1000
0010
1000
0001
0100
0001
1000
,
0010
1000
0001
0010
0100
1000
0001
0100
,
0010
1000
0010
1000
0001
1000
0001
0100
,
0000
0000
0110
0000
0000
0000
1010
0000
0000
0000
0010
0000
0000
0100
0010
0000
,
0000
0000
0110
0000
0000
0000
0101
0000
0000
0000
0001
0000
0000
0001
1000
0000
,
0000
0000
1001
0000
0000
0000
1001
0000
0000
0000
1000
0000
0000
1000
0200
0000
,
0000
0000
0000
0300
0000
0010
0001
1000
,
0100
0010
0001
0010
0100
1000
0100
0010
,
0001
0010
0100
1000
0010
0100
0001
0100
,
0010
1000
0010
0100
0001
0100
0010
1000
,
0001
1000
0001
0010
0100
1000
0001
1000
,
0001
1000
0001
0010
0100
1000
0010
0100
,
0010
0100
0001
1000
0001
0010
0100
1000
,
0001
1000
0010
0100
0001
1000
0001
2002
,
0000
0000
0000
3003
0000
0000
0000
0000
;

//---------------dance-single - S. Philipp----------------
#NOTES:
     dance-single:
     S. Philipp:
     Easy:
     4:
     0.245,0.255,0.095,0.042,0.000:
0000
0000
0000
0000
,
0000
0000
0000
0000
,
1000
0001
1000
0100
,
0010
0001
0100
0010
,
1000
0001
1000
0001
,
0100
0010
0100
0010
,
1000
0010
1000
0010
,
1000
0001
1000
0001
,
0100
0010
1000
0001
,
0010
0100
1000
0010
,
0100
0010
0100
0010
,
1000
0001
1000
0001
,
0010
0100
1000
0001
,
1000
0010
0100
0010
,
0100
0001
1000
0001
,
1000
0001
0010
0100
,
1100
0001
1000
0001
,
1000
0010
0100
0001
,
0000
0001
0100
0010
,
1000
0001
1000
0010
,
0000
0001
0100
0100
,
1000
0000
0001
0000
0000
0010
0000
0000
,
0010
0001
0010
0001
,
1000
0000
1000
0000
2000
3000
0001
0000
,
0100
0010
0010
1000
,
0001
0001
0001
0010
,
0100
1000
0100
0010
,
0002
0000
0003
1000
,
0100
0010
0001
0100
,
1000
0100
0001
0010
,
1000
0001
0100
1000
,
0010
0100
1000
1000
,
0001
1000
0001
1000
,
0001
0100
0010
0001
,
1000
0001
0100
0010
,
0001
0000
0200
0300
2200
3300
0001
0000
,
0001
1000
1000
0001
,
0100
0010
1000
0100
,
0010
0001
1000
0010
,
0100
0010
0100
0001
,
0100
0010
1000
0001
,
0010
0100
1000
0001
,
1000
0100
0010
0010
,
0001
0010
1001
0000
,
0000
1001
0000
1001
0000
0000
0000
0000
,
0000
0110
0000
0110
0000
0000
0000
0000
,
0000
0101
0000
0101
0000
0000
0000
0000
,
0000
0000
0000
0000
0000
0100
0001
0100
,
0001
0000
0100
0000
0000
0001
1000
0001
,
1000
0000
0100
0000
0000
0010
0100
0010
,
0100
0000
0010
0000
0000
0001
1000
0001
,
1000
0001
0000
0000
,
0000
1001
0000
0101
0000
0000
0000
0000
,
0000
1001
0000
1010
0000
0000
0000
0000
,
0000
0110
0000
0110
0000
0000
0000
0000
,
0000
0000
0000
0000
0000
1000
0100
1000
,
0100
1000
0100
0000
0000
0010
0001
0010
,
0001
0010
0001
0000
0000
1000
0001
1000
,
0001
1000
0001
0000
0000
0100
0010
0100
,
0010
0100
0010
0000
0000
0000
1000
0000
,
0100
0010
0001
0010
,
0100
1000
0001
1000
,
0010
0100
0001
1000
,
0010
0100
0001
0010
,
0100
1000
0100
0010
,
0001
0010
0001
1000
,
0001
1000
0010
0100
,
0001
1000
0100
0010
,
0001
1000
0001
1000
,
0010
0100
0001
0100
,
0010
0000
1000
0000
0001
1000
0001
2002
,
0000
3003
0000
0000
;
