#TITLE:COLORS;
#SUBTITLE:;
#ARTIST:Tobu;
#TITLETRANSLIT:;
#SUBTITLETRANSLIT:;
#ARTISTTRANSLIT:;
#GENRE:;
#CREDIT:Scott "Suko" Philipp;
#BANNER:colors-bn.png;
#BACKGROUND:colors-bg.png;
#LYRICSPATH:;
#CDTITLE:suko-CDtitle.png;
#MUSIC:Colors.ogg;
#OFFSET:-0.060;
#SAMPLESTART:69.500;
#SAMPLELENGTH:16.500;
#SELECTABLE:YES;
#BPMS:0.000=128.000;
#STOPS:;
#BGCHANGES:;
#KEYSOUNDS:;

//---------------dance-single - S.Philipp----------------
#NOTES:
     dance-single:
     S.Philipp:
     Hard:
     8:
     0.542,0.582,0.116,0.442,0.261:
0000
0000
0000
0000
,
0000
0000
0000
0000
,
0000
0000
0000
0000
,
0000
0000
0000
0000
,
2000
0000
0000
3000
0000
0000
0000
0000
,
0200
0000
0000
0300
0000
0000
0000
0000
,
0020
0000
0000
0030
0000
0000
0000
0000
,
0002
0000
0000
0003
0000
0000
0000
0000
,
0022
0033
1000
0000
0010
0000
0100
0000
,
0202
0303
0001
0000
0100
0000
0010
0000
,
2020
3030
1000
0000
0100
0000
0010
0000
,
0022
0033
0001
0000
1000
0000
0010
0000
,
2020
3030
0000
2002
3003
0000
0202
0303
,
0001
0000
0000
1000
0000
0000
0010
0000
0000
0100
0000
0000
0010
0000
1000
0000
,
0002
0000
0003
0020
0000
0030
0200
0000
,
1300
0000
0000
1000
0000
0000
0001
0000
0000
0001
0000
0000
0010
0000
0001
0000
,
2000
0000
3000
0020
0000
0030
0200
0300
,
0002
0000
0000
0010
0000
0000
0100
0000
0000
0010
0003
0000
0001
0000
1000
0000
,
0200
0000
0000
0010
0000
0000
0310
0000
,
0002
0000
0000
0010
0000
0000
1000
0000
0000
0013
0000
0000
0001
0000
1000
0000
,
0001
0000
0000
0100
0000
0000
0010
0000
0000
1000
0000
0000
1010
0000
0000
0000
,
1000
0000
0000
0010
0000
0000
0100
0000
0000
0001
0000
0000
1000
0000
1000
0000
,
0001
0000
0000
0010
0000
0000
0001
0000
0000
0010
0001
0000
0011
0000
0000
0000
,
0001
0000
0000
0001
0000
0000
2000
0000
3000
0010
0000
0000
0100
0000
0001
0000
,
0100
0000
0000
0100
0000
0000
0010
0000
0000
1000
0000
0000
1010
0000
0000
0000
,
1000
0000
0000
1000
0000
0000
0001
0000
0000
0001
0000
0000
1000
0000
0100
0000
,
0010
0000
0000
0010
0000
0000
0010
0000
0000
0001
0010
0000
0011
0000
0001
0010
,
0100
0000
0000
1000
0000
0000
0001
0000
0000
0100
0000
0000
0010
0000
1000
0000
,
1010
0000
0000
1000
0000
0000
0000
0001
0010
0000
0001
0000
1000
0000
0010
0000
,
0010
0000
0000
0100
0000
0000
0001
1000
0001
0000
1000
0000
0010
0000
0100
0000
,
0001
0000
0000
0001
0000
0000
0000
1000
0010
0000
1000
0000
0001
0000
0100
0000
,
0010
0000
0000
0100
0000
0000
0010
0100
0010
0100
0010
0000
1000
0000
0010
0000
,
1000
0000
0000
1000
0100
0000
0000
0100
0010
0000
0010
0000
0001
0000
1000
0000
,
0010
0000
0000
0010
1000
0000
0000
1000
0001
0000
0001
0000
1000
0000
0100
0000
,
0010
0000
0000
0010
0001
0000
0000
0001
1000
0000
1000
0000
0010
0000
0100
0000
,
0010
0000
0000
0010
1000
0000
0000
1000
0001
0000
0100
0000
0001
0000
0100
0000
,
0004
0400
0000
0000
0000
0000
0000
0000
0000
0000
0000
0000
0303
0000
MMMM
0000
,
0002
0000
0003
2000
0000
3000
0000
0000
0001
0000
0001
0000
0100
0000
0010
0000
,
2000
0000
3000
1000
0000
0000
0100
1000
0100
0000
0010
0000
0001
0000
0100
0000
,
0002
0000
0003
0001
0000
0000
0000
0000
1000
0000
0010
0000
0100
0000
0001
0000
,
2000
0000
3000
1000
0000
0000
0001
0100
0001
0000
1000
0000
0100
0000
0010
0000
,
0011
0000
0001
0010
0100
0000
1000
0000
0010
0000
1000
0000
0001
0000
1000
0000
,
1010
0000
1000
0010
0100
0000
0001
0000
0100
0000
0010
0000
1000
0000
0010
0000
,
0110
0000
0001
0100
0010
0000
1000
0000
0001
0000
0100
0000
0001
0000
0010
0000
,
0011
0000
0001
0010
0100
0000
1000
0000
0001
0000
1000
0000
0100
0000
0020
0000
,
0002
0033
MMMM
0000
1000
0100
0010
0001
,
1000
0000
1000
0010
0000
0000
0100
0000
0001
0000
0100
0000
0010
0000
1000
0000
,
0001
0000
0001
0010
0000
0000
0010
0000
0100
0000
1000
0000
0100
0000
0010
0000
,
0002
0000
0003
1000
0000
0000
0001
0010
0001
0000
1000
0000
0001
0000
1000
0000
,
0020
0000
0030
1000
0000
0000
0010
0100
0010
0000
1000
0000
0010
0000
0100
0000
,
0002
0000
0003
1000
0000
0000
1000
0100
0010
0000
0001
0000
1000
0000
0001
0000
,
0200
0000
0300
0100
0000
0000
0000
0000
0001
0000
0001
0010
0100
0000
1000
0000
,
0002
0000
0003
0001
0000
0000
1000
0100
1000
0000
0100
0000
0010
0000
0001
0000
,
2000
0000
0000
0000
0001
0000
0000
3000
2000
0000
0000
0000
0010
0000
0000
3000
2000
0000
0000
0000
0001
0000
0000
3000
2000
0000
0000
0000
3000
0000
0000
0000
,
0020
0000
0000
0000
1000
0000
0000
0030
0020
0000
0000
0000
0100
0000
0000
0030
0020
0000
0000
0000
1000
0000
0000
0030
0020
0000
0000
0000
0030
0000
0000
0000
,
2000
0000
0000
0000
0001
0000
0000
3000
2000
0000
0000
0000
0010
0000
0000
3000
2000
0000
0000
0000
0100
0000
0000
3000
2000
0000
0000
0000
0000
0000
3000
0000
,
0001
0100
0001
0000
1000
0010
1000
0000
0001
1000
0001
1000
0001
1000
0001
1000
,
0010
0010
1000
1000
0100
0100
0002
0003
,
0010
0010
1000
1000
0001
1000
0002
0003
,
1000
0010
0001
0010
1000
0100
0001
0100
,
0001
0100
1000
0010
0001
0010
1000
1000
,
0100
0100
0001
0001
0010
0010
2000
3000
,
0100
0100
0010
0010
0001
1000
0002
0003
,
1000
0010
0001
0010
1000
0100
0001
0100
,
0001
0100
1000
0010
0001
0010
1000
1000
,
0000
MMMM
0000
0000
0001
0000
0100
0000
0001
0000
1000
0000
0020
0000
0030
0000
,
1000
0100
0010
0001
1000
0010
2000
3000
,
0001
0100
1000
0100
0001
0010
1000
0010
,
1000
0010
0001
0100
1000
0100
0001
1000
,
0010
0010
1000
1000
0100
0100
0020
0030
,
0001
0001
0010
0010
0100
0100
2000
3000
,
0001
0100
1000
0001
0010
1000
0001
0100
,
1000
0001
0010
0100
0001
0010
0100
2000
,
3000
0000
0000
0000
;

//---------------dance-single - S. Philipp----------------
#NOTES:
     dance-single:
     S. Philipp:
     Medium:
     7:
     0.494,0.504,0.080,0.399,0.228:
0000
0000
0000
0000
,
0000
0000
0000
0000
,
0000
0000
0000
0000
,
0000
0000
0000
0000
,
2000
0000
0000
3000
0000
0000
0000
0000
,
0200
0000
0000
0300
0000
0000
0000
0000
,
0020
0000
0000
0030
0000
0000
0000
0000
,
0002
0000
0000
0003
0000
0000
0000
0000
,
0010
0001
1000
0010
,
1010
0100
0001
0100
,
0101
0001
1000
0100
,
1100
1000
0100
0010
,
0220
0330
0000
0001
0000
0000
2002
3003
,
1000
0000
0000
1000
0000
0000
0010
0000
0000
0010
0000
0000
1000
0000
0001
0000
,
0002
0000
0003
0020
0000
0030
0200
0000
,
1300
0000
0000
1000
0000
0000
0001
0000
0000
0001
0000
0000
0010
0000
0001
0000
,
2000
0000
3000
0020
0000
0030
0200
0300
,
0001
0000
0000
0011
0000
0000
0001
0000
0000
0101
0000
0000
0100
0000
0010
0000
,
0200
0000
0000
0010
0000
0000
0310
0000
,
1000
0000
0000
1100
0000
0000
1000
0000
0000
1010
0000
0000
0010
0000
0100
0000
,
0010
0000
0000
0100
0000
0000
0010
0000
0000
1000
0000
0000
1010
0000
0000
0000
,
1000
0000
0000
0010
0000
0000
0100
0000
0000
0001
0000
0000
1000
0000
1000
0000
,
0001
0000
0000
0010
0000
0000
0001
0000
0000
0010
0000
0000
0010
0000
0000
0000
,
0001
0000
0000
0001
0000
0000
2000
0000
3000
0010
0000
0000
0100
0000
0001
0000
,
0100
0000
0000
0100
0000
0000
0010
0000
0000
1000
0000
0000
1010
0000
0000
0000
,
1000
0000
0000
1000
0000
0000
0001
0000
0000
0001
0000
0000
1000
0000
0100
0000
,
0010
0000
0000
0001
0000
0000
0010
0000
0000
0001
0000
0000
0001
0000
1000
0000
,
0010
0000
0000
0100
0000
0000
0001
0000
0000
0100
0000
0000
0010
0000
1000
0000
,
0001
0000
0000
0010
0000
0000
0000
0001
0010
0000
0001
0000
1000
0000
0010
0000
,
0010
0000
0000
0100
0000
0000
0001
1000
0001
0000
1000
0000
0010
0000
0100
0000
,
0001
0000
0000
1000
0000
0000
0000
1000
0010
0000
1000
0000
0001
0000
0100
0000
,
0010
0000
0000
0100
0000
0000
0010
0100
0010
0100
0010
0000
1000
0000
0010
0000
,
1000
0000
0000
1000
0100
0000
0000
0100
0010
0000
0010
0000
0001
0000
1000
0000
,
0010
0000
0000
0010
1000
0000
0000
1000
0001
0000
0001
0000
1000
0000
0100
0000
,
0010
0000
0000
0010
0001
0000
0000
0001
1000
0000
1000
0000
0010
0000
1000
0000
,
0040
4000
0000
0000
0000
0000
0000
0000
0000
0000
0000
0000
3030
0000
0000
0000
,
0004
0400
0000
0000
0000
0000
0000
0000
0000
0000
0000
0000
0303
0000
0000
0000
,
0002
0000
0000
1000
0003
0000
0000
0000
0001
0000
0001
0000
0100
0000
0010
0000
,
2000
0000
3000
1000
0000
0000
0100
0000
0010
0000
0010
0000
0001
0000
0100
0000
,
0002
0000
0003
0001
0000
0000
0000
0000
1000
0000
0010
0000
0100
0000
0001
0000
,
2000
0000
3000
1000
0000
0000
0001
0000
1000
0000
1000
0000
0100
0000
0010
0000
,
0002
0000
0003
0001
0000
0000
0010
0000
0100
0000
1000
0000
0001
0000
1000
0000
,
0020
0000
0030
0010
0000
0000
1000
0000
0010
0000
1000
0000
0010
0000
0100
0000
,
0002
0000
0003
0001
0000
0000
0000
0000
0100
0000
0010
0000
1000
0000
0010
0000
,
1000
0000
1000
0100
0010
0000
0001
0000
1000
0000
0001
0000
0010
0000
0200
0000
,
2000
3300
MMMM
0000
1000
0100
0010
0001
,
1000
0000
1000
0010
0000
0000
0100
0000
0001
0000
0100
0000
0010
0000
1000
0000
,
0001
0000
0001
0010
0000
0000
0100
0000
0010
0000
0001
0000
0010
0000
0100
0000
,
1000
0000
0000
0002
0000
0003
1000
0100
1000
0000
0001
0000
1000
0000
0001
0000
,
0200
0000
0300
0002
0000
0003
0100
0010
0100
0000
0001
0000
0100
0000
0010
0000
,
2000
0000
3000
0002
0000
0003
1000
0100
0010
0000
0001
0000
1000
0000
0001
0000
,
0200
0000
0300
0200
0000
0300
0000
0000
0001
0000
0001
0010
0100
0000
1000
0000
,
0002
0000
0003
0002
0000
0003
1000
0100
1000
0000
0100
0000
0010
0000
0001
0000
,
2000
0000
0000
0000
0000
0000
0000
3000
2000
0000
0000
0000
0000
0000
0000
3000
2000
0000
0000
0000
0000
0000
0000
3000
2000
0000
0000
0000
3000
0000
0000
0000
,
0020
0000
0000
0000
0000
0000
0000
0030
0020
0000
0000
0000
0000
0000
0000
0030
0020
0000
0000
0000
0000
0000
0000
0030
0020
0000
0000
0000
0030
0000
0000
0000
,
0200
0000
0000
0000
0000
0000
0000
0000
0000
0000
0000
0000
0000
0000
0000
0000
0000
0000
0000
0000
0000
0000
0000
0000
0000
0000
0000
0000
0000
0000
0000
0000
0000
0000
0000
0000
0000
0000
0000
0000
0300
0000
0000
0000
0000
0000
0000
0000
0200
0000
0000
0000
0000
0000
0000
0000
0000
0000
0000
0000
0000
0000
0000
0000
0000
0000
0000
0000
0000
0000
0000
0000
0000
0000
0000
0000
0000
0000
0000
0000
0000
0000
0000
0000
0000
0000
0000
0000
0000
0000
0300
0000
0000
0000
0000
0000
0200
0000
0000
0000
0000
0000
0000
0000
0000
0000
0000
0000
0000
0000
0000
0000
0000
0000
0000
0000
0000
0000
0000
0000
0000
0000
0000
0000
0000
0000
0000
0000
0000
0000
0000
0000
0000
0000
0000
0000
0000
0000
0300
0000
0000
0000
0000
0000
0200
0000
0000
0000
0000
0000
0000
0000
0000
0000
0000
0000
0000
0000
0000
0000
0000
0000
0000
0000
0000
0000
0000
0000
0000
0000
0000
0000
0000
0000
0000
0000
0000
0000
0000
0000
0300
0000
0000
0000
0000
0000
0000
0000
0000
0000
0000
0000
,
0001
0000
0001
0000
1000
0000
1000
0000
0004
4000
0000
0000
0000
0000
3003
0000
,
0001
0001
0010
0010
0100
0100
2000
3000
,
0100
0100
0010
0010
0001
1000
0002
0003
,
1000
0010
0001
0010
1000
0100
0001
0100
,
0001
0100
1000
0010
0001
0010
1000
0001
,
1000
1000
0100
0100
0010
0010
0002
0003
,
0010
0010
0100
0100
1000
0001
2000
3000
,
0001
0100
1000
0100
0001
0010
1000
0010
,
1000
0010
0001
0100
1000
0100
0001
1000
,
0000
MMMM
0000
0000
0001
0000
0100
0000
0001
0000
1000
0000
0020
0000
0030
0000
,
1000
0100
0010
0001
1000
0010
2000
3000
,
0001
0100
0010
1000
0001
0100
0010
1000
,
1000
0010
0100
0001
1000
0010
0100
0001
,
0010
0010
0100
0100
1000
1000
0020
0030
,
0100
0100
0010
0010
1000
1000
0002
0003
,
1000
0010
0100
0001
1000
0001
0010
0100
,
1000
0100
0010
0001
1000
0001
1000
0002
,
0000
0003
0000
0000
0000
0000
0000
0000
;

//---------------dance-single - S. Philipp----------------
#NOTES:
     dance-single:
     S. Philipp:
     Easy:
     6:
     0.465,0.451,0.131,0.334,0.152:
0000
0000
0000
0000
,
0000
0000
0000
0000
,
0000
0000
0000
0000
,
0000
0000
0000
0000
,
2000
0000
0000
3000
0000
0000
0000
0000
,
0200
0000
0000
0300
0000
0000
0000
0000
,
0020
0000
0000
0030
0000
0000
0000
0000
,
0002
0000
0000
0003
0000
0000
0000
0000
,
0011
1000
0010
0100
,
0101
1000
0010
0100
,
1001
0100
0010
0001
,
0011
1000
0001
1000
,
2002
3003
0000
2020
3030
0000
0202
0303
,
1000
0000
0000
0001
0000
0000
0100
0000
0000
0010
0000
0000
0100
0000
0000
0000
,
0002
0000
0003
0020
0000
0030
0200
0000
,
1300
0000
0000
1000
0000
0000
0001
0000
0000
0001
0000
0000
0010
0000
0000
0000
,
0200
0000
0300
0020
0000
0030
0002
0003
,
2000
0000
0000
0001
0000
0000
0001
0000
0000
0001
3000
0000
1000
0000
0000
0000
,
0200
0000
0000
0010
0000
0000
0310
0000
,
0002
0000
0000
0010
0000
0000
0010
0000
0000
0010
0003
0000
1000
0000
0000
0000
,
0001
0000
0000
0100
0000
0000
0010
0000
0000
1000
0000
0000
1010
0000
0000
0000
,
1000
0000
0000
0010
0000
0000
0100
0000
0000
0001
0000
0000
0101
0000
0000
0000
,
0001
0000
0000
0010
0000
0000
0001
0000
0000
0010
0000
0000
0011
0000
0000
0000
,
0001
0000
0000
1000
0000
0000
0002
0000
0003
1000
0000
0000
1010
0000
0000
0000
,
0010
0000
0000
0100
0000
0000
0010
0000
0000
1000
0000
0000
1010
0000
0000
0000
,
1000
0000
0000
1000
0000
0000
0001
0000
0000
0001
0000
0000
1000
0000
0000
0000
,
0100
0000
0000
0010
0000
0000
0001
0000
0000
1000
0000
0000
1001
0000
0000
0000
,
1000
0000
0000
0010
0000
0000
1000
0000
0000
0100
0000
0000
0010
0000
0001
0000
,
0011
0000
0000
0000
0010
0001
1000
0010
,
0100
0000
0000
0010
1000
0001
0100
0010
,
1000
0000
0000
1000
0000
0000
0000
0000
0001
0000
0100
0000
0001
0000
1000
0000
,
0100
0000
0000
0010
0000
0000
0100
0000
0010
0000
0100
0000
1000
0000
0001
0000
,
1000
0000
0001
0000
0100
0001
0100
0001
,
0100
0000
0000
0001
0000
0000
0000
0000
1000
0000
0010
0000
1000
0000
0100
0000
,
0010
0000
0001
0000
0001
1000
0010
0100
,
0010
0000
1000
0000
0001
0100
0001
0100
,
0004
0400
0000
0000
0000
0000
0000
0000
0000
0000
0000
0000
0303
0000
0000
0000
,
0002
0003
0000
0000
2000
3000
0000
0000
0001
0000
0001
0000
0100
0000
0010
0000
,
2000
3000
0000
0000
2000
3000
0000
0000
0100
0000
0010
0000
0001
0000
0100
0000
,
0002
0003
0000
0000
0002
0003
0000
0000
1000
0000
0010
0000
0100
0000
0001
0000
,
2000
3000
0000
0000
2000
3000
0000
0000
0001
0000
1000
0000
0100
0000
0010
0000
,
0001
0000
0001
0010
0100
0000
0000
0000
1000
0000
0001
0000
1000
0000
0001
0000
,
0100
0000
0001
0010
0100
0000
0000
0000
1000
0000
0010
0000
1000
0000
0010
0000
,
0100
0000
0010
0100
0010
0000
0000
0000
1000
0000
0010
0000
1000
0000
0100
0000
,
1000
0000
0100
0010
0100
0000
0000
0000
0010
0000
0001
0000
0100
0000
0002
0000
,
0020
0033
MM00
0000
1000
0100
0010
0001
,
1000
0000
0000
1000
0000
0000
0001
0000
0100
0000
0010
0000
1000
0000
0001
0000
,
1000
0000
0000
0001
0000
0000
0000
0000
0010
0000
0001
0000
0010
0000
0100
0000
,
1000
0000
0000
0001
0000
0000
1000
0100
1000
0000
0001
0000
1000
0000
0001
0000
,
0100
0000
0000
0001
0000
0000
0000
0000
0100
0000
0001
0000
0100
0000
0010
0000
,
1000
0000
0000
0001
0000
0000
1000
0100
0010
0000
0001
0000
1000
0000
0001
0000
,
0200
0000
0300
0000
0010
0000
0000
0000
1000
0000
0001
0010
0100
0000
1000
0000
,
0001
0000
0000
1000
0000
0000
0100
1000
0100
0000
0010
0000
0001
0000
0000
0000
,
0012
0000
0010
0000
0010
0000
0010
0003
,
2001
0001
0001
3001
,
0102
0000
0100
0000
0100
0000
0100
0003
,
0210
0010
0010
0310
,
0100
0100
0001
0001
0010
0010
0200
0300
,
1000
1000
0001
0001
0100
0100
0020
0030
,
1000
0010
0100
0010
1000
0100
0010
0100
,
1000
0100
1000
0010
0001
0010
0200
0300
,
0001
0001
0010
0010
0100
0100
2000
3000
,
0100
0100
0010
0010
0001
1000
0002
0003
,
1000
0010
0100
0010
1000
0010
0100
0010
,
0100
0001
1000
0001
1000
0100
1000
0200
,
0300
M00M
0010
0001
1000
0001
0200
0300
,
0001
0010
0100
1000
0001
0100
0002
0003
,
1000
0010
0100
0010
1000
0100
0010
0100
,
0010
0001
1000
0010
0100
0010
1000
0000
,
0100
0100
0010
0010
0001
0001
0200
0300
,
0010
0010
1000
1000
0010
0010
0200
0300
,
0001
0100
0010
1000
0010
1000
0001
0010
,
0100
0010
0001
0100
0001
1000
0001
2000
,
0000
3000
0000
0000
;

//---------------dance-single - S. Philipp----------------
#NOTES:
     dance-single:
     S. Philipp:
     Beginner:
     3:
     0.248,0.266,0.022,0.225,0.000:
0000
0000
0000
0000
,
0000
0000
0000
0000
,
0000
0000
0000
0000
,
0000
0000
0000
0000
,
2000
0000
0000
3000
0000
0000
0000
0000
,
0200
0000
0000
0300
0000
0000
0000
0000
,
0020
0000
0000
0030
0000
0000
0000
0000
,
0002
0000
0000
0003
0000
0000
0000
0000
,
0001
1000
0010
0100
,
0001
1000
0010
0100
,
0001
0100
0010
1000
,
0001
1000
0001
1000
,
2002
3003
0000
0000
,
0202
0303
0000
0000
,
0002
0003
0000
0000
,
0200
0300
0000
0010
,
0200
0300
0000
0002
,
2003
0000
0000
0000
0000
3000
0000
0000
,
0200
0000
0000
0300
,
0020
0000
0030
0000
,
0001
0000
0000
0010
,
0001
0000
0000
1000
,
0001
0000
0000
1000
,
0001
0000
0000
0001
,
1000
0000
0000
0010
,
1000
0000
0000
1000
,
0010
0000
0000
1000
,
0100
0000
0000
0010
,
0001
0000
0010
0001
,
0100
0000
0001
0010
,
0001
0000
1000
0010
,
1000
0000
0010
0010
,
1000
0001
0010
0010
,
0010
0001
0100
0010
,
1000
0001
0001
0010
,
0010
0100
1000
1000
,
0004
0000
0000
0003
,
1000
0001
1000
0010
,
0100
0001
0100
0010
,
2000
3001
1000
0100
,
0010
0001
0001
0100
,
0001
0100
0010
1000
,
0100
0010
0001
1000
,
0100
0010
0001
1000
,
0001
0100
0010
0100
,
0020
0030
1000
0010
,
1000
1000
0100
0010
,
0001
0001
1000
0010
,
1000
0001
1000
0010
,
0100
0100
0001
0100
,
0010
0010
1000
0001
,
0200
0310
1000
0100
,
0020
0030
0002
1003
,
0004
0000
0000
0003
,
4000
0000
0000
3000
,
0004
0000
0000
0003
,
0400
0000
0000
0300
,
0001
1000
0010
0200
,
0301
1000
0010
2000
,
3001
0100
0010
1000
,
0001
1000
0001
0200
,
0301
0010
0100
2000
,
3100
0010
0001
2000
,
3001
1000
0001
0100
,
0010
1000
0100
0010
,
00MM
1000
0001
0200
,
0301
0100
0001
2000
,
3001
0100
0010
1000
,
0010
1000
0100
1000
,
0100
0010
0001
0020
,
0031
1000
0010
0200
,
0301
0010
0001
1000
,
0001
0100
0010
1000
,
2002
0000
3003
0000
;

//---------------dance-single - S. Philipp----------------
#NOTES:
     dance-single:
     S. Philipp:
     Challenge:
     9:
     0.560,0.582,0.123,0.508,0.297:
0000
0000
0000
0000
,
0000
0000
0000
0000
,
0000
0000
0000
0000
,
0000
0000
0000
0000
,
2000
0000
0000
3000
0000
0000
0000
0000
,
0200
0000
0000
0300
0000
0000
0000
0000
,
0020
0000
0000
0030
0000
0000
0000
0000
,
0002
0000
0000
0003
0000
0000
0000
0000
,
0011
0000
1000
0100
0000
0001
0100
0000
,
0101
0000
0001
0100
0000
0100
0010
0000
,
1010
0000
1000
0100
0000
0100
0010
0000
,
0011
0000
0001
1000
0000
1000
0010
0000
,
2020
3030
0000
M002
0003
0000
0202
0303
,
0002
0003
0000
2000
3000
0000
0020
0030
0000
0200
0300
0000
0010
0000
1000
0000
,
1002
0000
0003
200M
0000
3000
0200
0000
,
0310
0000
0000
0010
0000
0000
0001
0000
0000
0001
0000
0000
0010
0000
0001
0000
,
2002
0000
3003
M020
0000
0030
0200
0300
,
0002
0000
0000
0010
0000
0000
0100
0000
0000
0010
0003
0000
0001
0000
1000
0000
,
0200
0000
0000
M010
0000
0000
0310
0000
,
0M02
0000
0000
0010
0000
0000
1000
0000
0000
0013
0000
0000
0001
0000
1000
0000
,
0001
0000
0000
0010
0000
0000
0100
0000
0000
1000
0000
0000
1001
0000
0000
0000
,
1000
0000
0000
0010
0000
0000
0100
0000
0000
0001
0000
0000
0010
0000
0100
0000
,
1000
0000
0000
0000
0000
0000
0000
0000
0000
0010
0000
0000
0000
0000
0000
0000
0000
0000
1000
0000
0000
0000
0000
0000
0000
0000
0000
0000
0010
0000
0100
0000
0000
0000
0000
0000
0110
0000
0000
0000
0000
0000
0000
0000
0000
0000
0000
0000
,
1000
0000
0000
1000
0000
0000
0001
0000
0000
0100
0000
0000
0010
0000
1000
0000
,
0010
0000
0000
0010
0000
0000
0100
0000
0000
0001
0000
0000
1001
0000
0000
0000
,
1000
0000
0000
1000
0000
0000
0100
0000
0000
0100
0000
0000
1000
0000
0100
0000
,
0010
0000
0000
0000
0000
0000
0000
0000
0000
0001
0000
0000
0000
0000
0000
0000
0000
0000
0010
0000
0000
0000
0000
0000
0000
0000
0000
0000
0001
0000
0010
0000
0000
0000
0000
0000
0011
0000
0000
0000
0000
0000
0001
0000
0000
0010
0000
0000
,
0100
0000
1000
0100
0000
0000
0010
0000
0000
0001
0000
0000
0010
0000
0001
0000
,
2002
3003
0000
1000
0000
0000
0000
0001
1000
0000
0001
0000
1000
0000
0010
0000
,
0100
0000
0000
0100
0000
0000
0010
1000
0010
0000
1000
0000
0010
0000
0100
0000
,
0001
0000
0000
0001
0000
0000
0000
1000
0010
0000
1000
0000
0001
0000
0100
0000
,
0010
0000
0000
0100
0000
0000
0010
0100
0010
0100
0010
0000
1000
0000
0010
0000
,
1000
0000
0000
1000
0100
0000
0000
0100
0010
0000
0001
0000
1000
0000
0001
0000
,
0100
0000
0000
0100
0001
0000
0000
0001
1000
0000
0001
0000
1000
0000
0100
0000
,
0010
0000
0000
0010
0001
0000
0000
0001
1000
0000
0010
0000
1000
0000
0001
0000
,
0100
0000
0001
0100
0010
0000
1000
0100
0010
0000
0001
0010
0100
0000
1000
0001
,
4000
0004
0000
0000
0000
0000
0000
0000
0000
0000
0000
0000
3003
0000
MMMM
0000
,
0002
0000
0003
2000
0000
3000
0000
0000
0001
0000
0001
0000
0100
0000
0010
0000
,
1000
0000
0000
1000
0000
0000
0100
1000
0100
0000
0010
0000
0001
0000
0100
0000
,
0001
0000
0001
1000
0000
0000
0000
0000
1000
0000
0010
0000
0100
0000
0001
0000
,
1000
0000
0000
1000
0000
0000
0001
0100
0001
0000
1000
0000
0100
0000
0010
0000
,
0011
0000
0001
0010
0100
0000
1000
0000
0010
0000
1000
0010
1000
0000
0001
0000
,
1001
0000
1000
0010
0100
0000
0001
0000
0100
0000
0010
1000
0010
0000
0100
0000
,
0110
0000
0001
0100
0010
0000
1000
0000
0001
0000
0100
0000
0001
0000
0010
0000
,
0011
0000
0001
0010
0100
0000
1000
0000
0001
0000
1000
0000
0100
0000
0020
0000
,
0002
0033
MMMM
0000
1000
0100
0010
0001
,
1000
0000
1000
0010
0000
0000
0100
0000
0001
0000
0100
0000
0010
0000
1000
0000
,
0002
0003
0000
0002
0000
0000
0003
0000
1000
0000
1000
0100
0010
0000
0001
0000
,
0020
0000
0030
0020
0000
0030
0001
0010
0100
0000
1000
0000
0001
0000
1000
0000
,
0010
0000
1000
0010
1000
0000
0010
0000
0100
0000
0001
0000
0100
0000
0010
0000
,
1000
0000
0001
1000
0001
0000
1000
0100
0010
0000
0001
0000
1000
0000
0001
0000
,
0200
0000
0300
0200
0000
0300
0000
0000
0001
0000
0001
0010
0100
0000
1000
0000
,
0002
0000
0003
0002
0000
0003
1000
0100
1000
0000
0100
0000
0010
0000
0001
0000
,
2000
0000
0000
0000
0001
0000
0000
3000
2000
0000
0000
0000
0010
0000
0000
3000
2000
0000
0000
0000
0001
0000
0000
3000
2000
0000
0000
0000
3000
0000
0000
0000
,
0020
0000
0000
0000
1000
0000
0000
0030
0020
0000
0000
0000
0100
0000
0000
0030
0020
0000
0000
0000
1000
0000
0000
0030
0020
0000
0000
0000
0030
0000
0000
0000
,
2000
0000
0000
0000
0000
0000
0000
0000
0000
0000
0000
0000
0000
0000
0000
0000
0000
0000
0000
0000
0000
0000
0000
0000
0001
0000
0000
0000
0000
0000
0000
0000
0000
0000
0000
0000
0000
0000
0000
0000
0000
0000
3000
0000
0000
0000
0000
0000
2000
0000
0000
0000
0000
0000
0000
0000
0000
0000
0000
0000
0000
0000
0000
0000
0000
0000
0000
0000
0000
0000
0000
0000
0010
0000
0000
0000
0000
0000
0000
0000
0000
0000
0000
0000
0000
0000
0000
0000
3000
0000
0000
0000
0000
0000
0000
0000
2000
0000
0000
0000
0000
0000
0000
0000
0000
0000
0000
0000
0000
0000
0000
0000
0000
0000
0000
0000
0000
0000
0000
0000
0100
0000
0000
0000
0000
0000
0000
0000
0000
0000
0000
0000
0000
0000
0000
0000
0000
0000
3000
0000
0000
0000
0000
0000
2000
0000
0000
0000
0000
0000
0000
0000
0000
0000
0000
0000
0000
0000
0000
0000
0000
0000
0000
0000
0000
0000
0000
0000
0000
0000
0000
0000
0000
0000
0000
0000
0000
0000
0000
0000
3000
0000
0000
0000
0000
0000
0000
0000
0000
0000
0000
0000
,
0001
0100
0001
0000
1000
0010
1000
0000
0001
1000
0001
1000
0001
1000
0001
1000
,
0002
0003
0200
0300
2000
3000
0020
0030
,
0002
0003
0200
0300
2000
3000
0020
0030
,
0001
0010
1000
0010
0001
0100
1000
0100
,
0001
1000
0100
0010
0001
1000
0010
0100
,
0002
0003
0200
0300
2000
3000
0020
0030
,
0002
0003
0200
0300
2000
3000
0020
0030
,
0001
0010
1000
0010
0001
0100
1000
0100
,
0001
1000
0100
0010
0001
1000
0010
0100
,
0000
MMMM
0000
0000
0001
0000
0100
0000
0001
0000
1000
0000
0020
0000
0030
0000
,
1000
0000
0100
0010
0100
0000
0010
0001
0010
0000
0001
0000
2000
0000
3000
0000
,
0001
0000
0100
0010
1000
0000
0010
0000
1000
0000
0010
0100
0001
0000
0010
0000
,
1000
0010
0001
0100
1000
0100
0001
1000
,
0010
0000
0010
0000
1000
0000
1000
0000
0100
0000
0010
0100
0020
0000
0030
0000
,
0001
0000
0010
0001
0010
0000
0001
0000
1000
0000
0010
0000
0200
0000
0300
0000
,
0001
0100
1000
0001
0010
1000
0001
0100
,
0001
1000
0100
0010
0001
0010
0100
2000
,
3000
0000
0000
0000
;
