#TITLE:Calcutta;
#SUBTITLE:(Taxi, taxi, taxi);
#ARTIST:Dr.Bombay;
#TITLETRANSLIT:;
#SUBTITLETRANSLIT:;
#ARTISTTRANSLIT:;
#GENRE:;
#CREDIT:;
#BANNER:Calcutta-bn.png;
#BACKGROUND:Calcutta-bg.png;
#LYRICSPATH:;
#CDTITLE:suko 9x1.png;
#MUSIC:03 - Calcutta (Taxi,, taxi, taxi) [Original version].mp3;
#OFFSET:1.353;
#SAMPLESTART:113.000;
#SAMPLELENGTH:12.000;
#SELECTABLE:YES;
#BPMS:0.000=138.000;
#STOPS:;
#BGCHANGES:2.750=Dr Bombay - Calcutta (Taxi^ Taxi^ Taxi) (HQ)_mpeg2video.mpg=1.000=1=0=0=StretchNoLoop==CrossFade==,
99999=-nosongbg-=1.000=0=0=0 // don't automatically add -songbackground-
;
#KEYSOUNDS:;

//---------------dance-single - S. Philipp----------------
#NOTES:
     dance-single:
     S. Philipp:
     Challenge:
     9:
     0.651,0.781,0.462,0.381,0.409:
0000
0000
0000
0000
,
0000
0000
0000
0000
,
0000
0000
0000
0000
,
0000
0000
0000
0000
,
0000
0000
0000
0000
,
0000
0000
0000
0000
,
0000
0000
0000
0000
,
0000
0000
0000
0000
,
0000
0000
0000
0000
,
0001
0000
1000
0000
0001
0000
1000
0100
0000
0010
0000
0010
0000
0001
0010
0100
,
1000
0000
1000
0000
0001
0000
1000
0100
0000
0010
0001
0010
0001
0010
0001
0000
,
1000
0000
0001
0000
1000
0000
0001
0010
0000
0100
0000
0100
0000
1000
0100
0010
,
0001
0000
0001
0000
1000
0000
0001
0010
0000
0100
1000
0100
1000
0100
1000
0000
,
0001
0000
0100
0000
0010
0000
1000
0010
0000
0100
0000
0100
0000
0001
0100
0010
,
1000
0000
0001
0000
1000
0000
0001
0100
0000
0010
1000
0010
1000
0010
1000
0000
,
0001
0000
1000
0000
0001
0000
1000
0100
0000
0010
0000
0010
0000
0001
0010
0100
,
1000
0000
1000
0000
0001
0000
0100
0010
0000
1000
0010
1000
0010
1000
0010
0000
,
1000
0001
1000
0010
0100
MMM1
0000
1000
,
0010
0000
0100
0000
0001
0000
1000
0000
0001
0000
0010
0001
0010
0000
0100
0000
,
1000
0001
0010
0100
1000
0001
1000
0010
,
0100
0000
0010
0100
0010
0000
1000
0000
MMM1
0000
0000
0000
1000
0000
0010
0000
,
0100
0010
1000
0001
1001
0000
0001
0100
,
0001
0000
1000
0100
1000
0000
0001
0000
0020
0000
0030
0000
0001
0000
1000
0000
,
0001
0000
1000
0100
1000
0000
0010
0000
0100
0000
0110
0000
0000
0000
0001
0000
,
1000
0000
0000
0000
0010
0000
0100
0000
0002
0000
0003
0000
0000
0000
0100
0010
,
0100
0001
0100
0001
0200
0300
0001
1000
,
0000
0001
0010
0100
2100
3000
1000
0001
,
0100
0000
0010
0100
0001
0000
1000
0000
0100
0000
0010
0000
0100
0000
0010
0000
,
0001
0000
0001
0010
0100
0000
1000
0000
1001
0000
0000
MMMM
0000
0000
1000
0000
,
0001
0100
0010
0000
0010
0000
1000
0001
,
1000
0000
1000
0100
0010
0000
0001
0000
2000
0000
3000
0000
0001
0000
0010
0000
,
0002
0000
0000
0000
1000
0000
0000
0000
1003
0000
0001
0100
0001
0000
1000
0000
,
0010
1000
0001
1000
2020
3030
0000
MMMM
,
1010
0000
MMMM
0000
0110
0000
MMMM
0000
0202
0000
0303
0000
0000
0000
0001
0100
,
0001
0000
1000
0010
1000
0000
0001
1000
0001
0000
0010
0000
0010
0000
0000
0000
,
0011
0000
MMMM
0000
0110
0000
MMMM
0000
2200
0000
3300
0000
0000
0000
1000
0100
,
1000
0000
0001
0010
0001
0000
1000
0001
1000
0000
0010
0000
0010
0000
0000
0000
,
0110
MMMM
1001
MMMM
0202
0303
0000
0000
,
4000
3000
0040
0030
0400
0300
0001
0000
,
0101
MMMM
0110
MMMM
2020
3030
0000
0000
,
0000
2000
3200
0320
0032
1003
0001
0100
,
0001
0000
1000
0000
0001
0000
1000
0100
0000
0010
0000
0010
0000
0001
0010
0100
,
1000
0000
1000
0000
0001
0000
1000
0100
0000
0010
0001
0010
0001
0010
0001
0000
,
1000
0000
0001
0000
1000
0000
0001
0010
0000
0100
0000
0100
0000
1000
0100
0010
,
0001
0000
0001
0000
1000
0000
0001
0010
0000
0100
1000
0100
1000
0100
1000
0000
,
0001
0000
0100
0000
0010
0000
1000
0010
0000
0100
0000
0100
0000
0001
0100
0010
,
1000
0000
0001
0000
1000
0000
0001
0100
0000
0010
1000
0010
1000
0010
1000
0000
,
0001
0000
1000
0000
0001
0000
1000
0100
0000
0010
0000
0010
0000
0001
0010
0100
,
1000
0000
1000
0000
0001
0000
0100
0010
0000
1000
0010
1000
0010
1000
0010
0000
,
1000
0001
0100
0010
1000
1010
0000
0001
,
1000
0001
0100
0010
0110
0000
1000
0001
,
0100
0000
0010
0000
1000
0000
0001
0000
0010
0000
0200
0000
0300
0000
0010
0001
,
0010
0001
0010
0100
1100
0000
0001
1000
,
0001
0000
1000
0010
0000
0010
1000
0000
0002
0000
0003
0000
1000
0000
0100
0000
,
0010
0000
0001
0010
0000
0010
0001
0000
1000
0000
0000
0000
0001
0000
1000
0000
,
0001
0000
1000
0010
0000
0010
1000
0000
0001
0000
1000
0000
0040
0000
0030
0000
,
0400
0300
0004
0003
0202
0303
0000
MMMM
,
1010
0000
MMMM
0000
0110
0000
MMMM
0000
0202
0000
0303
0000
0000
0000
0001
0100
,
0001
0000
1000
0010
1000
0000
0100
1000
0100
0000
0010
0000
0010
0000
MMMM
0000
,
0011
0000
MMMM
0000
0110
0000
MMMM
0000
2200
0000
3300
0000
0000
0000
1000
0100
,
1000
0000
0001
0010
0001
0000
0100
0001
0100
0000
0010
0000
0010
0000
MMMM
0000
,
0110
MMMM
1001
MMMM
0202
0303
0000
0000
,
4000
3000
0040
0030
0400
0300
0001
MMMM
,
0101
MMMM
1100
MMMM
0220
0330
0000
0000
,
4000
3000
0040
0030
0400
0300
0001
MMMM
,
0101
0000
MMMM
0000
1100
0000
MMMM
0000
2002
0000
3003
0000
0000
0000
1000
0100
,
1000
0000
0001
0000
0001
0000
0010
0100
0010
0000
0100
0000
0100
0000
0000
0000
,
0110
MMMM
0011
MMMM
2200
3300
0000
0001
,
1000
0100
0010
0001
0100
0001
0100
MMMM
,
1010
MMMM
0101
MMMM
2002
3003
0000
0000
,
0040
0030
0400
0300
0004
0003
1000
MMMM
,
1010
MMMM
1001
MMMM
0202
0000
0303
0000
,
0000
1000
0010
1000
0001
1000
0001
1000
,
0004
4000
0000
0000
0000
0000
0000
0000
0000
0000
0000
0000
0000
0000
3003
0000
,
0000
1000
0010
0100
0001
0010
0100
1000
,
0400
4000
0000
0000
0000
0000
0000
0000
0000
0000
0000
0000
0000
0000
3300
0000
,
0000
0000
0000
0000
,
0010
0001
0010
0001
0010
0000
0010
0000
0001
0000
0001
0000
1000
0000
1000
0000
,
2002
3003
0202
0303
0220
0330
2020
3030
,
1000
0000
0001
0000
1000
0000
0010
0100
0000
0100
0000
0100
0000
0010
0100
0001
,
1000
0000
0010
0000
0100
0000
0100
0010
0000
1000
0100
0010
0001
1000
0100
0000
,
0010
0001
0010
0001
1000
0000
1000
0000
0001
0000
0001
0000
0100
0000
0100
0000
,
0220
0330
2002
3003
0202
0303
2002
3003
,
1000
0000
1000
0000
0001
0000
1000
0100
0000
0010
0000
0010
0000
0001
0010
0100
,
1000
0000
0001
0000
0001
0000
1000
0100
0000
1000
0100
0010
0001
0010
0100
0000
,
1000
0100
1000
0100
1000
0000
1100
0000
0001
0010
0001
0010
0001
0000
0011
0000
,
1000
0001
1000
0001
1000
0000
1001
0000
0001
0000
1001
0000
1000
0000
1001
0000
,
0001
0100
0001
0100
0001
0000
0101
0000
1000
0010
1000
0010
1000
0000
1010
0000
,
0010
0100
0010
0100
0010
0000
0110
0000
0100
0000
0110
0000
0010
0000
0110
0000
,
0100
0001
0100
0001
0100
0000
0101
0000
0001
0000
0101
0000
0100
0000
0101
0000
,
2000
0000
0000
0000
0000
0000
0000
0000
3020
0000
0000
0000
0000
0000
0000
0000
0200
0000
0000
0000
0000
0000
0000
0330
0110
0000
0000
0000
0000
0000
0000
0000
,
1000
0000
0010
0000
1000
0000
0010
1000
0000
0001
0000
0001
0000
1000
0100
0010
,
0001
0000
1000
0000
1000
0000
0001
0010
0000
0001
0010
0100
1000
0001
0010
0000
,
0011
0000
MMMM
0000
0110
0000
MMMM
0000
2200
0000
3300
0000
0000
0000
0001
0100
,
0001
0000
1000
0010
1000
0000
0100
1000
0100
0000
0010
0000
0010
0000
MMMM
0000
,
0011
0000
MMMM
0000
0110
0000
MMMM
0000
2200
0000
3300
0000
0000
0000
1000
0100
,
1000
0000
0001
0010
0001
0000
0100
0001
0100
0000
0010
0000
0010
0000
MMMM
0000
,
0110
MMMM
1001
MMMM
0202
0303
0000
0000
,
4000
3000
0040
0030
0400
0300
0001
MMMM
,
0101
MMMM
1100
MMMM
0220
0330
0000
0000
,
4000
3000
0040
0030
0400
0300
0001
MMMM
,
0101
0000
MMMM
0000
1100
0000
MMMM
0000
2002
0000
3003
0000
0000
0000
1000
0100
,
1000
0000
0001
0000
0001
0000
0010
0100
0010
0000
0100
0000
0100
0000
0000
0000
,
0110
MMMM
0011
MMMM
2200
3300
0000
0001
,
1000
0100
0010
0001
0100
0001
0100
MMMM
,
1010
MMMM
1001
MMMM
0202
0303
0000
0000
,
4000
3000
0004
0003
0040
0030
0100
MMMM
,
1100
MMMM
0011
MMMM
2002
3003
0000
0000
,
0000
1000
0010
0100
0001
0010
0100
1000
,
0004
4000
0000
0000
0000
0000
0000
0000
0000
0000
0000
0000
3003
0000
0000
0000
,
0000
1000
0010
0100
0001
1000
0001
0100
,
0004
0400
0000
0000
0000
0000
0000
0000
0000
0000
0000
0000
0303
0000
0000
0000
,
0000
1000
0010
0100
0001
1000
0100
0010
,
0400
0040
0000
0000
0000
0000
0000
0000
0000
0000
0000
0000
0000
0000
0000
0000
,
0330
0000
0000
0000
;
