#TITLE:Another Winter;
#SUBTITLE:from Scott Pillgrim;
#ARTIST:Anamanaguchi;
#TITLETRANSLIT:;
#SUBTITLETRANSLIT:;
#ARTISTTRANSLIT:;
#GENRE:;
#CREDIT:Scott "Suko" Philipp;
#BANNER:another-bn.png;
#BACKGROUND:another-bg.png;
#LYRICSPATH:;
#CDTITLE:suko 9x1.png;
#MUSIC:Another Winter.ogg;
#OFFSET:-1.517;
#SAMPLESTART:32.000;
#SAMPLELENGTH:14.000;
#SELECTABLE:YES;
#DISPLAYBPM:188.000;
#BPMS:0.000=188.240;
#STOPS:;
#BGCHANGES:;
#KEYSOUNDS:;

//---------------dance-single - S.Philipp----------------
#NOTES:
     dance-single:
     S.Philipp:
     Challenge:
     9:
     0.820,0.769,0.270,0.976,0.051:
1000
0010
1000
0010
1000
0010
0100
0010
,
0100
0010
0100
0010
1000
0010
1000
0MMM
,
0001
0100
0001
0100
0001
0100
0010
0100
,
0010
0100
0010
0100
0001
0100
0001
MMM0
,
1000
0010
1000
0001
0010
0100
0010
0001
,
1000
0001
0100
0010
1000
0001
0100
M0MM
,
0001
0100
0001
1000
0100
0010
0100
1000
,
0001
1000
0010
0100
0001
1000
0010
MM0M
,
1000
0000
0010
0100
0001
0000
0010
0000
,
0100
0000
1000
0100
0010
0000
0001
1000
,
0200
0000
0000
0000
0010
0000
0000
0000
0010
0000
0000
0000
0010
0000
0000
0300
,
0101
0000
1100
0000
0101
0000
110M
00M0
,
0M02
0003
0100
0010
1000
0000
0100
0000
,
0020
0030
0001
0010
0100
0000
1000
0001
,
0020
0000
0000
0000
0100
0000
0000
0000
0100
0000
0000
0000
0100
0000
0000
0030
,
1010
0000
0011
0000
1010
0000
M011
0M00
,
10M0
0000
0002
0000
2003
0000
0010
3000
,
0020
0230
0300
0001
1000
0M01
00M0
200M
,
0200
0000
0000
3300
0022
0000
0000
0033
,
0202
0000
0000
0303
2020
0000
0000
3030
,
2000
3000
0000
0000
0002
0000
2003
0000
,
0000
0000
0000
0000
0010
0000
0000
3000
1010
0000
0000
0000
0000
0000
0000
0000
,
0020
0030
0000
0000
0200
0000
0302
0000
,
0000
0000
1000
0003
1100
0000
0000
0000
,
1000
0100
0010
0001
1000
0100
0010
0001
,
1000
0100
0010
0001
1000
0100
0010
0001
,
1000
0010
1000
0001
1000
0001
0100
0001
,
0100
0010
0100
0010
1000
0001
1000
0001
,
2002
3003
0000
0000
2000
3000
0000
0000
,
0002
0003
0200
0320
0030
1000
0000
0200
,
0300
0010
0001
0010
0001
0020
MM3M
0000
,
0100
1000
0100
0000
2000
3000
0002
0003
,
2002
0000
3003
MMMM
0202
0303
0000
0000
,
0002
0000
2003
3020
0000
0030
0000
2MMM
,
0000
3020
0230
0300
0002
0003
2000
0002
,
0000
3003
0000
0000
MMMM
0000
0000
0000
,
0002
0003
2000
3002
0003
0002
0203
0000
,
0010
0000
0320
0000
1M30
0000
2000
3000
,
0002
0003
0002
2003
3000
2000
3200
0000
,
0010
0000
0320
0000
0M31
0000
0002
0003
,
0020
0030
0200
0320
0030
0020
0032
0003
,
0022
0000
0000
0033
2002
0000
0000
3003
,
2000
3000
0020
0230
0300
0200
0301
0000
,
2002
0000
0000
3003
2200
0000
3300
0000
,
1000
0100
M010
0M01
10M0
010M
M010
0M01
,
10M0
010M
M010
0M01
10M0
010M
M010
0M01
,
0001
M010
010M
10M0
0M01
M010
010M
10M0
,
0M01
M010
010M
10M0
0M01
M010
010M
1000
,
00M1
1M00
001M
M100
00M1
0M10
M10M
10M0
,
0M10
M100
0001
M010
010M
10M0
0M10
M100
,
00M1
1M00
001M
M100
00M1
M100
001M
1000
,
01M0
M010
0M01
0100
M01M
1000
01M0
M01M
,
0001
0000
1000
0100
1000
0000
0001
0000
1000
0000
0001
1000
0001
0000
1000
0000
,
0001
0000
0100
0001
0100
0000
0001
0000
1000
0000
0100
1000
0100
0000
1000
0000
,
0010
0000
0100
0010
0100
0000
0001
0000
0100
0000
0001
0100
0001
0000
1000
0000
,
0001
0000
1000
0001
1000
0000
0001
0000
0010
0000
0100
0010
0100
0000
1000
0000
,
0001
0010
0100
1000
0100
0010
0001
0010
,
0100
1000
0100
0010
0001
0010
0100
1000
,
0001
0100
0001
1000
0001
0010
0100
1000
,
0010
0001
0010
1000
0100
0001
0100
0110
;

//---------------dance-single - S.Philipp----------------
#NOTES:
     dance-single:
     S.Philipp:
     Hard:
     9:
     0.712,0.731,0.257,0.706,0.000:
1000
0010
1000
0010
1000
0010
0100
0010
,
0100
0010
0100
0010
1000
0010
1000
0000
,
0001
0100
0001
0100
0001
0100
0010
0100
,
0010
0100
0010
0100
0001
0100
0001
0000
,
1000
0010
1000
0001
0010
0100
0010
0001
,
1000
0001
0100
0010
1000
0001
0100
0000
,
0001
0100
0001
1000
0100
0010
0100
1000
,
0001
1000
0010
0100
0001
1000
0010
0000
,
2000
3000
0002
0000
,
0203
0020
0300
1030
0001
0010
0000
0001
,
0200
0000
0000
0000
,
0300
0000
0000
0000
,
0002
0003
2000
0000
,
3020
0200
0030
0301
1000
0001
0000
1000
,
0200
0000
0000
0000
0000
0300
0010
0000
,
0220
0330
2002
3003
,
0000
0000
0000
0000
0002
0000
0000
0003
,
0200
0320
0030
1000
0001
1000
0000
0200
,
0020
0000
0000
0000
,
0000
0000
0000
0330
0002
0003
0000
0000
,
2000
3000
0000
0000
0002
0000
2003
0000
,
0000
3000
0000
0000
0000
0000
0000
0000
,
0002
0000
0003
0000
0200
0000
0020
0330
,
0000
0000
2000
3000
0002
0003
0000
0000
,
1000
0100
0010
0001
1000
0100
0010
0001
,
1000
0100
0010
0001
1000
0100
0010
0001
,
1000
0010
1000
0001
1000
0001
0100
0001
,
0100
0010
0100
0010
1000
0001
1000
0001
,
1001
0000
0000
0000
2000
3000
0000
0000
,
0002
0003
0200
0320
0030
1000
0000
0200
,
0300
0010
0001
0010
0001
0010
0000
0000
,
0100
1000
0100
0000
2000
3000
0002
0003
,
2002
0000
3000
0003
0200
0300
0000
0000
,
0002
0000
0003
2000
0000
3000
0000
0200
,
0000
0320
0032
0003
2000
3000
0001
2002
,
3003
0000
0000
0000
,
0002
0003
0200
0320
0030
0010
2000
0000
,
0100
0001
0100
3001
,
1000
0000
0010
0100
0000
0100
0002
0000
,
0010
1000
0010
1003
,
0001
0000
0001
1000
0000
0002
0200
0000
,
0010
1000
0010
1303
,
0001
0000
1000
0001
0000
2000
0200
0000
,
0010
0001
0010
3301
,
1000
0100
0010
0001
1000
0100
0010
0001
,
1000
0100
0010
0001
1000
0100
0010
0001
,
0001
0010
0100
1000
0001
0010
0100
1000
,
0001
0010
0100
1000
0001
0010
0100
1000
,
0001
1000
0010
0100
0001
0010
0100
1000
,
0010
0100
0001
0010
0100
1000
0010
0100
,
0001
1000
0100
0010
0001
0010
0100
1000
,
0010
0100
0001
0010
0100
1000
0010
0100
,
0001
1000
1001
0001
1000
0010
1010
0000
,
1000
0010
1010
1000
0001
0100
0101
0000
,
1000
0001
1001
1000
0001
1000
1001
0000
,
0001
0100
0110
0010
1000
0010
1010
0000
,
1000
0100
0010
0001
0010
0100
1000
0100
,
0010
0001
0010
0100
1000
0100
0010
0001
,
0011
1001
1001
1001
,
1010
1000
0001
0101
0100
0010
0100
0110
;

//---------------dance-single - S.Philipp----------------
#NOTES:
     dance-single:
     S.Philipp:
     Medium:
     6:
     0.514,0.615,0.193,0.180,0.000:
0010
0000
1000
0000
,
0001
0000
0010
0000
,
0100
0000
1000
0000
,
0010
0000
0100
0000
,
0001
0010
0100
1000
,
0010
0100
0001
0010
,
0100
1000
0010
0100
,
0001
0010
0100
1000
,
1001
0000
0010
0000
,
0100
0001
0000
1000
0001
1000
0000
0001
,
0010
0000
0000
0000
,
0000
0000
0000
0000
,
1001
0000
1000
0000
,
0010
0100
0000
0010
1000
0010
0000
1000
,
0001
0000
0000
0010
,
0001
0000
0011
0000
,
0002
0000
1003
0000
,
0010
1000
0000
0010
1000
0001
0000
1000
,
0001
0000
0000
0000
,
0000
0000
2000
0000
,
3020
0030
0100
0002
,
0000
0000
0000
0003
0010
0000
0000
0000
,
0010
0000
0100
1000
,
0000
0010
0100
0000
,
0001
1000
0100
0010
0001
1000
0100
0010
,
0001
1000
0100
0010
0001
1000
0100
0000
,
1000
0001
0010
0100
1000
0001
0010
0100
,
1000
0001
0010
0100
1001
0010
0100
0000
,
1000
0000
0000
0000
2002
3003
0000
0000
,
0001
0000
0100
0010
0000
1000
0000
0001
,
0000
0010
0100
1000
0001
0010
0000
0000
,
0001
1000
0001
0000
0100
0000
0001
0000
,
0101
0000
2000
3000
,
0200
0000
0300
0020
0000
0030
0000
0002
,
0003
0100
0010
0000
1000
0000
0100
2000
,
0000
0000
0000
3000
0000
0000
0000
0000
,
0010
0000
1000
0001
0000
0010
0001
0000
,
0010
0100
1000
0010
,
0100
0000
0001
0010
0000
0001
0010
0000
,
0001
0010
0100
1000
,
0010
0000
1000
0010
0000
0010
1000
0000
,
0001
0010
0100
1000
,
0100
0000
0100
1000
0000
1000
0100
0000
,
0020
0000
0030
0000
0022
0033
0000
0000
,
0001
1000
0100
0010
0001
1000
0100
0010
,
0001
1000
0100
0010
0001
1000
0100
0000
,
1000
0001
0010
0100
1000
0001
0010
0100
,
1000
0001
0010
0100
1001
0010
0100
0000
,
0001
1000
0100
0010
0001
1000
0100
0010
,
0001
1000
0100
0010
0001
1000
0100
0000
,
1000
0001
0010
0100
1000
0001
0010
0100
,
1000
0001
0010
0100
1001
0010
0100
0000
,
1000
0001
0010
0011
,
0001
1000
0001
1001
,
1000
0100
0010
0110
,
0010
0001
0010
0011
,
1000
0010
0100
0110
,
0010
1000
0010
0100
,
0110
0001
1000
0100
,
1000
0100
0010
0001
1000
0100
0010
0001
;

//---------------dance-single - S.Philipp----------------
#NOTES:
     dance-single:
     S.Philipp:
     Easy:
     3:
     0.349,0.307,0.026,0.000,0.000:
0010
0000
1000
0000
,
0001
0000
0010
0000
,
0100
0000
1000
0000
,
0010
0000
0100
0000
,
0001
0010
0100
1000
,
0010
0100
0001
0010
,
0100
1000
0010
0100
,
0001
0010
0100
1000
,
0001
0000
0010
0000
,
0010
0001
1000
0001
,
1000
0000
0000
0000
,
0000
0000
0000
0000
,
0001
0000
1000
0000
,
0010
0100
0010
0010
,
1000
0000
0000
1000
,
0001
0000
0001
0000
,
1000
0000
0000
0000
,
0010
1000
0010
1000
,
0001
0000
0000
0000
,
0000
0000
1000
0000
,
0010
0000
0100
0001
,
0000
0000
0000
0000
,
0010
0000
0100
1000
,
0000
0010
0100
0000
,
0001
0100
0001
0100
,
0001
0100
0001
0100
,
0001
1000
0010
1000
,
0010
1000
0001
0010
,
0100
0000
1001
0000
,
0001
0100
0010
1000
,
0001
0010
0001
0010
,
0001
0001
0100
0001
,
0001
0000
1000
0000
,
0100
0000
0010
0000
,
0001
0000
1000
0100
,
1000
0000
0000
0000
,
0010
1000
0001
0001
,
0010
0100
1000
0010
,
0100
0001
0010
0001
,
0001
0010
0100
1000
,
0010
1000
0010
0010
,
0100
0010
0100
0001
,
0010
0010
0001
0010
,
0100
0000
1100
0000
,
1000
0010
1000
0010
,
1000
0010
1000
0010
,
1000
0001
0100
0001
,
0100
0001
0001
0010
,
0001
0100
0001
0100
,
0001
0100
0001
0100
,
0010
0100
0010
1000
,
0010
1000
1000
0100
,
0010
0001
0010
0001
,
0001
1000
0001
0001
,
1000
0100
0010
0010
,
0010
0001
0010
0001
,
1000
0010
0100
0010
,
0010
1000
0010
0100
,
0100
0001
1000
0100
,
0010
0001
0010
0100
;
