#TITLE:All I Want For Christmas Is You;
#SUBTITLE:;
#ARTIST:Mariah Carey;
#TITLETRANSLIT:;
#SUBTITLETRANSLIT:;
#ARTISTTRANSLIT:;
#GENRE:;
#CREDIT:Scott "Suko" Philipp;
#BANNER:all-i-want-christmas-bn.png;
#BACKGROUND:all-i-want-christmas-bg.png;
#JACKET:all-i-want-christmas-jacket.png;
#LYRICSPATH:;
#CDTITLE:;
#MUSIC:All I Want For Christmas Is You.ogg;
#OFFSET:-18.660;
#SAMPLESTART:60.000;
#SAMPLELENGTH:17.000;
#SELECTABLE:YES;
#BPMS:0.000=150.160;
#STOPS:;
#BGCHANGES:;
#KEYSOUNDS:;

//---------------dance-single - S. Philipp----------------
#NOTES:
     dance-single:
     S. Philipp:
     Challenge:
     9:
     0.561,0.622,0.015,0.355,0.809:
10MM
1MM0
10MM
1MM0
,
MM01
0MM1
MM01
0MM1
,
M1M0
01MM
M10M
01MM
,
M1M0
0000
0010
0100
0000
0100
0001
0000
0001
1000
0000
1000
,
0010
0000
0000
0100
0000
0000
0010
0000
0010
0100
0000
0000
,
0001
0000
0000
1000
0000
0000
0100
0000
1000
0100
0000
0000
,
1000
0000
0000
0100
0000
0000
0010
0000
0001
1000
0000
0000
,
0001
0000
0000
0100
0000
0000
0001
0000
0001
0100
0000
0100
,
0010
0000
0000
0100
0000
0100
0010
0000
0000
0010
0000
0010
,
1000
0000
0000
1000
0000
1000
0001
0000
0001
0100
0001
0100
,
0010
0000
0000
0010
0000
0010
1000
0000
0000
1000
0000
1000
,
0001
0000
0001
0010
0000
0010
0100
0000
0100
1000
0100
1000
,
0100
0000
1000
0100
0000
0100
0010
0000
0010
0001
0000
0000
,
0100
0000
0100
0010
0000
0010
1000
0000
1000
0001
0000
0000
,
0001
0000
0001
1000
0000
0000
1000
0000
1000
0100
0000
0000
,
0100
0000
0100
0010
0000
0010
0001
0000
0001
0010
0001
0010
,
0002
MMM3
0000
0010
0000
0010
0001
0000
0000
0001
0000
0001
,
0100
0000
0000
0100
0000
0100
0010
0000
0010
1000
0010
1000
,
0002
MMM3
0000
1000
0000
1000
0100
0000
0000
0100
0000
0100
,
0010
0000
0000
0010
0000
0010
0001
0000
0001
0010
0100
1000
,
0002
MMM3
0000
0100
0000
0000
0010
0000
0100
0002
0003
0000
,
1000
0000
0000
0001
0000
0000
1000
0000
0001
0020
0030
0000
,
0100
0000
0000
0010
0000
0000
0100
0000
0010
0200
0300
0000
,
1000
0000
0000
0100
0000
0000
1000
0000
0001
0010
0100
1000
,
0002
MMM3
0000
1000
0000
0000
0001
0000
0100
0001
0000
0000
,
0200
0000
0300
0002
0000
0003
0100
0000
0100
0010
0000
0000
,
1000
0010
1000
0010
0000
0010
1000
0000
1000
0100
0000
0010
,
0001
1000
0100
2000
0000
0000
0000
0000
3000
0002
0000
0003
,
1000
0001
1000
0001
1000
0001
1000
0001
1000
0001
1000
0001
,
M100
0001
M100
0001
M100
0001
M100
0001
M100
0001
M100
0001
,
1000
001M
1000
001M
1000
001M
1000
001M
1000
001M
1000
001M
,
1000
0000
0010
0010
0000
1000
1000
0000
0100
0100
0000
0010
,
0002
0000
0003
0010
0000
0000
0001
0000
0001
2000
3000
0000
,
0010
0000
0000
1000
0000
0000
0010
0000
0100
0020
0030
0000
,
0100
0000
0000
0001
0000
0000
0010
0000
0010
0200
0300
0000
,
1000
0000
0000
0010
0000
0000
0010
0000
0010
0100
0000
0100
,
0002
0003
0000
1000
0000
1000
0200
0300
0000
0100
0000
0100
,
0020
0030
0000
0010
0000
0010
0001
0000
0001
0010
0100
1000
,
0002
MMM3
0000
0100
0000
0100
0020
0030
0000
1000
0000
1000
,
0002
0003
0000
0100
0000
0100
0002
0003
0100
0001
0100
0001
,
0100
0000
0100
0001
0000
0001
0100
0000
0100
0001
0000
0000
,
0100
0000
0100
0010
0000
0010
1000
0000
1000
0100
0000
0000
,
0100
0000
0100
0010
0000
0010
0001
0000
0001
0010
0000
0000
,
0001
0000
0001
0100
0000
0100
0010
0000
1000
0100
0010
0001
,
2000
3MMM
0000
0001
0000
0001
0100
0000
0000
0100
0000
0100
,
0010
0000
0000
0010
0000
0010
1000
0000
1000
0010
0100
0001
,
1000
0000
0000
0001
0000
0001
0100
0000
0000
0100
0000
0100
,
0001
0000
0000
0001
0000
0001
0100
0000
0100
0010
1000
0001
,
0100
0000
0100
0010
0000
0010
1000
0000
1000
0001
0000
0001
,
1000
0000
1000
0100
0000
0100
0020
0030
0000
0001
0000
0000
,
0010
0000
0010
0001
0000
0001
1000
0000
1000
0010
0000
0010
,
1000
0000
1000
0100
0000
0100
0020
0030
0001
0010
0100
1000
,
0002
MMM3
0000
0010
0000
0010
0100
0000
0000
0100
0000
0100
,
2000
0000
3000
1000
0000
1000
0010
0000
0000
0100
0000
0000
,
0010
0000
0010
0100
0000
0100
0010
0000
0010
1000
0000
0000
,
1010
0000
0000
2MM2
0000
0MM0
0000
0MM0
0003
02MM
0000
00MM
,
0000
00MM
0300
0M2M
0000
0M0M
0000
0M0M
0030
0002
3003
0000
,
0000
0000
0001
1000
0000
1000
0001
0000
1000
0100
0010
0001
,
0200
0300
0000
0001
0010
0001
0010
0001
0010
0001
0010
0001
,
0010
010M
0010
010M
0010
010M
0010
010M
0010
010M
0010
010M
,
1000
00M1
1000
00M1
1000
00M1
1000
00M1
1000
00M1
1000
00M1
,
1000
0000
1000
0001
0000
0001
0100
0000
0100
0002
0003
0000
,
1000
0000
1000
0200
0300
0000
0100
0000
0100
0020
0030
0000
,
0010
0000
0010
0001
0000
0001
1000
0000
1000
0001
0010
0100
,
1000
0000
1000
0200
0300
0000
0100
0000
0100
0020
0030
0000
,
0010
0000
0010
0001
0000
0001
1000
0000
1000
0100
0010
0001
,
1000
0000
1000
0200
0300
0000
2000
3000
0000
0002
0003
0000
,
0100
0000
0100
0002
0003
0000
2000
3000
0000
0002
0000
0003
,
0010
0000
0010
0200
0300
0000
2000
3000
0000
0200
0300
0000
,
0010
0000
0010
0001
0000
0001
0010
0000
0001
0010
0100
1000
,
0002
0000
0003
0000
0000
0000
0000
0000
0000
0000
0000
0000
;

//---------------dance-single - S. Philipp----------------
#NOTES:
     dance-single:
     S. Philipp:
     Hard:
     8:
     0.452,0.439,0.015,0.066,0.587:
1000
1000
1000
1000
,
0001
0001
0001
0001
,
0100
0100
0100
0100
,
0100
0000
0010
0100
0000
0100
0001
0000
0001
1000
0000
1000
,
0010
0000
0000
0100
0000
0000
0010
0000
0100
0010
0000
0000
,
1000
0000
0000
0001
0000
0000
0010
0000
0001
0010
0000
0000
,
0001
0000
0000
0010
0000
0000
0100
0000
1000
0001
0000
0000
,
1000
0000
0000
0010
0000
0000
1000
0000
1000
0010
0000
0010
,
0100
0000
0000
0010
0000
0010
0100
0000
0000
0100
0000
0100
,
0001
0000
0000
0001
0000
0001
1000
0000
1000
0010
0000
0010
,
0100
0000
0000
0100
0000
0100
0001
0000
0000
0001
0000
0001
,
1000
0000
1000
0100
0000
0100
0010
0000
0010
0001
0010
0001
,
0010
0000
0010
0001
0000
0000
0001
0000
0001
0100
0000
0000
,
0100
0000
0100
0010
0000
0010
1000
0000
1000
0001
0000
0000
,
0001
0000
0001
1000
0000
0000
1000
0000
1000
0100
0000
0000
,
0100
0000
0100
0010
0000
0010
0001
0000
0001
0010
0001
0010
,
0001
0000
0000
0010
0000
0010
0001
0000
0000
0001
0000
0001
,
0100
0000
0000
0100
0000
0100
0010
0000
0010
1000
0000
1000
,
0001
0000
0000
0001
0000
0001
0010
0000
0000
0010
0000
0010
,
0100
0000
0000
0100
0000
0100
1000
0000
1000
0100
0010
0001
,
1000
0000
0000
0010
0000
0000
0100
0000
0010
1000
0000
0000
,
0001
0000
0000
1000
0000
0000
0001
0000
1000
0100
0000
0000
,
0010
0000
0000
0100
0000
0000
0010
0000
0100
0010
0000
0000
,
0001
0000
0000
0010
0000
0000
0001
0000
1000
0001
0000
0001
,
1000
0000
0000
0001
0000
0000
1000
0000
0010
1000
0000
0000
,
0010
0000
0000
1000
0000
0000
0010
0100
0010
0100
0000
0000
,
0100
0000
0100
0001
0000
0001
0100
0000
0100
0010
0000
0010
,
1000
0000
0000
1002
0000
0000
0000
0000
0003
2000
0000
3000
,
0004
4000
0000
0000
0000
0000
0000
0000
0000
0000
0003
3000
,
0040
4000
0000
0000
0000
0000
0000
0000
0000
0000
0030
3000
,
0004
0400
0000
0000
0000
0000
0000
0000
0000
0000
0003
0300
,
0001
0000
0001
0100
0000
0100
1000
0000
1000
0100
0000
0100
,
0001
0000
0000
0010
0000
0000
0100
0000
0100
1000
0000
0000
,
0010
0000
0000
1000
0000
0000
0010
0000
0010
0100
0000
0000
,
0001
0000
0000
0100
0000
0000
0010
0000
0010
1000
0000
0000
,
0010
0000
0000
0100
0000
0000
0010
0000
0010
0100
0000
0100
,
0001
0000
0000
1000
0000
1000
0100
0000
0000
0100
0000
0100
,
0010
0000
0000
0010
0000
0010
0001
0000
0001
0010
0100
1000
,
0001
0000
0000
0100
0000
0100
0010
0000
0000
1000
0000
1000
,
0010
0000
0000
0010
0000
0010
1000
0000
1000
0010
0100
0001
,
1000
0000
1000
0010
0000
0000
0010
0000
0010
0100
0000
0000
,
0100
0000
0100
0001
0000
0001
1000
0000
1000
0100
0000
0000
,
0100
0000
0100
0010
0000
0000
0010
0000
0010
0001
0000
0000
,
0001
0000
0001
0100
0000
0100
0010
0000
0010
1000
0010
1000
,
0010
0000
0000
1000
0000
1000
0010
0000
0000
0010
0000
0010
,
0100
0000
0000
0100
0000
0100
0001
0000
0001
1000
0001
1000
,
0001
0000
0001
1000
0000
0000
1000
0000
1000
0100
0000
0000
,
0100
0000
0100
0010
0000
0010
0001
0000
1000
0100
0010
0001
,
0010
0000
0010
0001
0000
0001
0100
0000
0100
0010
0000
0010
,
1000
0000
1000
0100
0000
0100
0020
0030
0000
0001
0000
0000
,
0010
0000
0010
0001
0000
0001
1000
0000
1000
0010
0000
0010
,
1000
0000
1000
0100
0000
0100
0010
0000
0001
0010
0100
1000
,
0002
0003
0000
0010
0000
0010
0001
0000
0000
0100
0000
0000
,
0010
0000
0000
1000
0000
1000
0010
0000
0000
1000
0000
0000
,
0010
0000
0010
0100
0000
0100
0010
0000
0010
1000
0000
1000
,
0001
0000
0000
2002
0000
0000
0000
0003
0000
0002
0000
0000
,
0000
0003
0000
0002
0000
0000
0000
0003
0000
0002
3000
0003
,
0000
0000
0001
1000
0000
1000
0010
0000
0010
1000
0001
0100
,
0010
0000
0000
4000
0040
0000
0000
0000
0000
0000
3000
0030
,
4000
0004
0000
0000
0000
0000
0000
0000
0000
0000
3000
0003
,
4000
0400
0000
0000
0000
0000
0000
0000
0000
0000
3000
0300
,
0000
0000
0100
0010
0000
0010
0001
0000
0001
0100
0000
0000
,
0001
0000
0001
0010
0000
0000
0010
0000
0010
0100
0000
0000
,
0100
0000
0100
1000
0000
1000
0010
0000
0010
0100
0010
0100
,
0010
0000
0010
1000
0000
0000
1000
0000
1000
0010
0000
0000
,
0010
0000
0010
0100
0000
0100
0001
0000
0001
0100
0001
0100
,
0001
0000
0001
0100
0000
0000
0001
0000
0000
0100
0000
0000
,
0010
0000
0010
1000
0000
0000
0001
0000
0000
1000
0000
0000
,
0100
0000
0100
0010
0000
0000
0001
0000
0000
0010
0000
0000
,
0100
0000
0100
1000
0000
1000
0100
0000
0010
0100
0010
0100
,
0010
0000
0000
0000
;

//---------------dance-single - S. Philipp----------------
#NOTES:
     dance-single:
     S. Philipp:
     Easy:
     4:
     0.294,0.243,0.052,0.103,0.000:
1000
1000
1000
1000
,
0001
0001
0001
0001
,
0100
0100
0100
0100
,
0100
0010
1000
0001
,
0010
0100
0010
0010
,
0001
1000
0010
1000
,
0001
0010
0100
0010
,
0001
0010
0001
1000
,
0010
0100
0010
0100
,
0001
0001
0001
0010
,
0010
0100
1000
0001
,
0001
0100
0010
1000
,
0001
0001
0001
0001
,
0100
0010
0010
1000
,
0001
0001
1000
0100
,
0100
0010
0001
0001
,
0001
0010
0001
0001
,
0001
0100
0010
0010
,
1000
1000
1000
0010
,
0010
0100
0100
0010
,
1000
0010
0100
0010
,
1000
1000
0001
0100
,
0010
0100
0010
0010
,
1000
0010
1000
0001
,
0001
0001
1000
0010
,
0100
0001
1000
0010
,
0100
0001
1000
0010
,
0010
1000
0000
0001
,
2002
0000
0000
3003
,
2020
0000
0000
3030
,
0202
0000
0000
0303
,
0001
0001
0100
0100
,
1000
0010
0100
0100
,
0010
1000
0010
0010
,
1000
0100
0010
0010
,
0010
0100
0010
0010
,
0001
1000
0100
0100
,
0010
0010
0001
0001
,
0001
0100
0010
1000
,
0010
0010
0010
0010
,
1000
0010
0010
0010
,
0100
0001
0001
0100
,
0100
0010
0010
1000
,
1000
1000
0010
0010
,
0010
1000
0010
0010
,
0010
0100
0001
0001
,
0001
1000
1000
0100
,
0100
0010
0001
0010
,
0001
0001
0001
0010
,
0010
0100
0100
1000
,
0010
1000
0001
0010
,
0010
0100
0010
0001
,
1000
0010
1000
0100
,
0010
0001
0010
0001
,
0010
0010
0010
0010
,
0001
1000
0000
0001
,
0000
1000
0000
0001
,
0000
1000
0010
1000
,
0010
2020
0000
3030
,
2002
0000
0000
3003
,
2200
0000
0000
3300
,
0000
0010
0001
1000
,
0001
1000
0010
0010
,
0100
0100
0010
0010
,
1000
1000
1000
0010
,
0010
0010
0100
0001
,
1000
0001
1000
0100
,
0010
0010
0001
1000
,
0100
0010
0001
0010
,
0100
0100
0100
0010
,
0220
0000
0000
0000
,
0000
0000
0000
0000
,
0000
0000
0000
0000
,
0330
0000
0000
0000
;

//---------------dance-single - S. Philipp----------------
#NOTES:
     dance-single:
     S. Philipp:
     Medium:
     5:
     0.281,0.283,0.015,0.052,0.000:
1000
1000
1000
1000
,
0001
0001
0001
0001
,
0100
0100
0100
0100
,
0010
1000
0001
1000
,
0010
0100
0001
0100
,
0010
1000
0010
0100
,
0001
0010
0100
0010
,
0001
0010
0100
0010
,
0100
0010
0001
0100
,
0001
0001
1000
0010
,
0100
0100
0001
0001
,
1000
0100
0010
0001
,
0010
0001
0001
0100
,
0100
0010
1000
0001
,
0001
1000
1000
0100
,
0100
0010
0001
0010
,
0001
0010
0001
0001
,
0100
0100
0010
1000
,
0001
0001
0010
0010
,
0100
0100
1000
0100
,
1000
0010
0100
0001
,
1000
1000
0001
0100
,
0010
0100
0010
0010
,
1000
1000
0001
0001
,
1000
0001
1000
1000
,
0010
1000
0010
0100
,
0100
0001
0100
0010
,
1000
0000
0000
1002
0000
0000
0000
0000
0003
1000
0000
0000
,
0004
0000
0000
0000
0000
0000
0000
0000
0000
0000
0003
0000
,
0040
0000
0000
0000
0000
0000
0000
0000
0000
0000
0030
0000
,
0004
0000
0000
0000
0000
0000
0000
0000
0000
0000
0003
0000
,
1000
0100
1000
0100
,
0010
0001
1000
1000
,
0010
1000
0010
0100
,
0001
0100
0010
1000
,
0010
0100
0010
0100
,
0001
1000
0100
0100
,
0010
0010
0001
0010
,
0001
0100
0010
1000
,
0010
0010
1000
0010
,
1000
0010
0010
0100
,
0100
0001
1000
0100
,
0100
0010
0010
0001
,
0001
0100
0010
1000
,
0010
1000
0010
0010
,
0100
0100
0001
1000
,
0001
1000
1000
0100
,
0100
0010
0001
0100
,
0010
0001
0100
0010
,
1000
0100
0010
0001
,
0010
0001
1000
0010
,
1000
0100
0010
0010
,
0002
0003
0000
0010
0000
0000
0001
0000
0000
0100
0000
0000
,
0010
1000
0010
1000
,
0010
0100
0010
1000
,
0001
0000
0000
2002
0000
0000
0000
0003
0000
0002
0000
0000
,
0000
0003
0000
0002
0000
0000
0000
0003
0000
0002
3000
0003
,
0000
1000
0010
1000
,
0010
0000
0000
4000
0000
0000
0000
0000
0000
0000
3000
0000
,
0004
0000
0000
0003
,
4000
0000
0000
0000
0000
0000
0000
0000
0000
0000
3000
0000
,
0000
0010
1000
0100
,
0010
0001
0010
0100
,
0100
1000
0010
0100
,
0010
1000
1000
0010
,
0010
0100
0001
0100
,
0001
0100
0001
0100
,
0010
1000
0001
1000
,
0100
0010
0001
0010
,
0100
1000
0100
0010
;

//---------------lights-cabinet-----------------
#NOTES:
     lights-cabinet:
     SMLightsBuilder:
     Easy:
     1:
     0.000,0.000,0.000,0.000,0.000:
10001100
10001100
10001100
10001100
,
00011100
00011100
00011100
00011100
,
01001100
01001100
01001100
01001100
,
01001100
00000000
00100000
01001100
00000000
01000000
00011100
00000000
00010000
10001100
00000000
10000000
,
00101100
00000000
00000000
01001100
00000000
00000000
00101100
00000000
01000000
00101100
00000000
00000000
,
10001100
00000000
00000000
00011100
00000000
00000000
00101100
00000000
00010000
00101100
00000000
00000000
,
00011100
00000000
00000000
00101100
00000000
00000000
01001100
00000000
10000000
00011100
00000000
00000000
,
10001100
00000000
00000000
00101100
00000000
00000000
10001100
00000000
10000000
00101100
00000000
00100000
,
01001100
00000000
00000000
00101100
00000000
00100000
01001100
00000000
00000000
01001100
00000000
01000000
,
00011100
00000000
00000000
00011100
00000000
00010000
10001100
00000000
10000000
00101100
00000000
00100000
,
01001100
00000000
00000000
01001100
00000000
01000000
00011100
00000000
00000000
00011100
00000000
00010000
,
10001100
00000000
10000000
01001100
00000000
01000000
00101100
00000000
00100000
00011100
00100000
00010000
,
00101100
00000000
00100000
00011100
00000000
00000000
00011100
00000000
00010000
01001100
00000000
00000000
,
01001100
00000000
01000000
00101100
00000000
00100000
10001100
00000000
10000000
00011100
00000000
00000000
,
00011100
00000000
00010000
10001100
00000000
00000000
10001100
00000000
10000000
01001100
00000000
00000000
,
01001100
00000000
01000000
00101100
00000000
00100000
00011100
00000000
00010000
00101100
00010000
00100000
,
00011100
00000000
00000000
00101100
00000000
00100000
00011100
00000000
00000000
00011100
00000000
00010000
,
01001100
00000000
00000000
01001100
00000000
01000000
00101100
00000000
00100000
10001100
00000000
10000000
,
00011100
00000000
00000000
00011100
00000000
00010000
00101100
00000000
00000000
00101100
00000000
00100000
,
01001100
00000000
00000000
01001100
00000000
01000000
10001100
00000000
10000000
01001100
00100000
00010000
,
10001100
00000000
00000000
00101100
00000000
00000000
01001100
00000000
00100000
10001100
00000000
00000000
,
00011100
00000000
00000000
10001100
00000000
00000000
00011100
00000000
10000000
01001100
00000000
00000000
,
00101100
00000000
00000000
01001100
00000000
00000000
00101100
00000000
01000000
00101100
00000000
00000000
,
00011100
00000000
00000000
00101100
00000000
00000000
00011100
00000000
10000000
00011100
00000000
00010000
,
10001100
00000000
00000000
00011100
00000000
00000000
10001100
00000000
00100000
10001100
00000000
00000000
,
00101100
00000000
00000000
10001100
00000000
00000000
00101100
01000000
00100000
01001100
00000000
00000000
,
01001100
00000000
01000000
00011100
00000000
00010000
01001100
00000000
01000000
00101100
00000000
00100000
,
10001100
00000000
00000000
10022200
00000000
00000000
00000000
00000000
00033300
20002200
00000000
30003300
,
00042200
40000000
00000000
00000000
00000000
00000000
00000000
00000000
00000000
00000000
00033300
30003300
,
00402200
40000000
00000000
00000000
00000000
00000000
00000000
00000000
00000000
00000000
00303300
30003300
,
00042200
04000000
00000000
00000000
00000000
00000000
00000000
00000000
00000000
00000000
00033300
03003300
,
00011100
00000000
00010000
01001100
00000000
01000000
10001100
00000000
10000000
01001100
00000000
01000000
,
00011100
00000000
00000000
00101100
00000000
00000000
01001100
00000000
01000000
10001100
00000000
00000000
,
00101100
00000000
00000000
10001100
00000000
00000000
00101100
00000000
00100000
01001100
00000000
00000000
,
00011100
00000000
00000000
01001100
00000000
00000000
00101100
00000000
00100000
10001100
00000000
00000000
,
00101100
00000000
00000000
01001100
00000000
00000000
00101100
00000000
00100000
01001100
00000000
01000000
,
00011100
00000000
00000000
10001100
00000000
10000000
01001100
00000000
00000000
01001100
00000000
01000000
,
00101100
00000000
00000000
00101100
00000000
00100000
00011100
00000000
00010000
00101100
01000000
10000000
,
00011100
00000000
00000000
01001100
00000000
01000000
00101100
00000000
00000000
10001100
00000000
10000000
,
00101100
00000000
00000000
00101100
00000000
00100000
10001100
00000000
10000000
00101100
01000000
00010000
,
10001100
00000000
10000000
00101100
00000000
00000000
00101100
00000000
00100000
01001100
00000000
00000000
,
01001100
00000000
01000000
00011100
00000000
00010000
10001100
00000000
10000000
01001100
00000000
00000000
,
01001100
00000000
01000000
00101100
00000000
00000000
00101100
00000000
00100000
00011100
00000000
00000000
,
00011100
00000000
00010000
01001100
00000000
01000000
00101100
00000000
00100000
10001100
00100000
10000000
,
00101100
00000000
00000000
10001100
00000000
10000000
00101100
00000000
00000000
00101100
00000000
00100000
,
01001100
00000000
00000000
01001100
00000000
01000000
00011100
00000000
00010000
10001100
00010000
10000000
,
00011100
00000000
00010000
10001100
00000000
00000000
10001100
00000000
10000000
01001100
00000000
00000000
,
01001100
00000000
01000000
00101100
00000000
00100000
00011100
00000000
10000000
01001100
00100000
00010000
,
00101100
00000000
00100000
00011100
00000000
00010000
01001100
00000000
01000000
00101100
00000000
00100000
,
10001100
00000000
10000000
01001100
00000000
01000000
00202200
00303300
00000000
00011100
00000000
00000000
,
00101100
00000000
00100000
00011100
00000000
00010000
10001100
00000000
10000000
00101100
00000000
00100000
,
10001100
00000000
10000000
01001100
00000000
01000000
00101100
00000000
00010000
00101100
01000000
10000000
,
00022200
00033300
00000000
00101100
00000000
00100000
00011100
00000000
00000000
01001100
00000000
00000000
,
00101100
00000000
00000000
10001100
00000000
10000000
00101100
00000000
00000000
10001100
00000000
00000000
,
00101100
00000000
00100000
01001100
00000000
01000000
00101100
00000000
00100000
10001100
00000000
10000000
,
00011100
00000000
00000000
20022200
00000000
00000000
00000000
00033300
00000000
00022200
00000000
00000000
,
00000000
00033300
00000000
00022200
00000000
00000000
00000000
00033300
00000000
00022200
30003300
00033300
,
00000000
00000000
00010000
10001100
00000000
10000000
00101100
00000000
00100000
10001100
00010000
01000000
,
00101100
00000000
00000000
40002200
00400000
00000000
00000000
00000000
00000000
00000000
30003300
00303300
,
40002200
00040000
00000000
00000000
00000000
00000000
00000000
00000000
00000000
00000000
30003300
00033300
,
40002200
04000000
00000000
00000000
00000000
00000000
00000000
00000000
00000000
00000000
30003300
03003300
,
00000000
00000000
01000000
00101100
00000000
00100000
00011100
00000000
00010000
01001100
00000000
00000000
,
00011100
00000000
00010000
00101100
00000000
00000000
00101100
00000000
00100000
01001100
00000000
00000000
,
01001100
00000000
01000000
10001100
00000000
10000000
00101100
00000000
00100000
01001100
00100000
01000000
,
00101100
00000000
00100000
10001100
00000000
00000000
10001100
00000000
10000000
00101100
00000000
00000000
,
00101100
00000000
00100000
01001100
00000000
01000000
00011100
00000000
00010000
01001100
00010000
01000000
,
00011100
00000000
00010000
01001100
00000000
00000000
00011100
00000000
00000000
01001100
00000000
00000000
,
00101100
00000000
00100000
10001100
00000000
00000000
00011100
00000000
00000000
10001100
00000000
00000000
,
01001100
00000000
01000000
00101100
00000000
00000000
00011100
00000000
00000000
00101100
00000000
00000000
,
01001100
00000000
01000000
10001100
00000000
10000000
01001100
00000000
00100000
01001100
00100000
01000000
,
00101100
00000000
00000000
00000000
;
