#TITLE:Let Me See Your Love;
#SUBTITLE:;
#ARTIST:Skank Funk;
#TITLETRANSLIT:;
#SUBTITLETRANSLIT:;
#ARTISTTRANSLIT:;
#GENRE:;
#CREDIT:Scott "Suko" Philipp;
#BANNER:let-me-see-your-love-bn.png;
#BACKGROUND:let-me-see-your-love-bg.png;
#LYRICSPATH:;
#CDTITLE:;
#MUSIC:Let Me See Your Love-short.mp3;
#OFFSET:-0.570;
#SAMPLESTART:34.818;
#SAMPLELENGTH:15.210;
#SELECTABLE:YES;
#DISPLAYBPM:138.000;
#BPMS:0.000=137.990,140.000=275.980,141.750=137.990,155.000=275.980,157.000=137.990;
#STOPS:140.000=0.109
,140.500=0.109
,141.000=0.055
,141.250=0.109
,141.750=0.435
,155.000=0.214
,156.000=0.214
,157.000=0.435
;
#BGCHANGES:;
#KEYSOUNDS:;

//---------------dance-single - S. Philipp----------------
#NOTES:
     dance-single:
     S. Philipp:
     Medium:
     5:
     0.283,0.397,0.295,0.107,0.009:
0000
0000
0000
0000
,
0000
0000
0000
0000
,
0000
0000
0000
0000
,
0000
0000
0000
0000
,
0000
0010
0000
0100
0000
0001
0000
1000
,
0000
0010
0000
0100
0000
0001
0000
0010
,
0000
0100
0000
1000
0000
0001
0000
0010
,
0000
0000
0000
0000
,
1000
0100
0010
0001
,
0001
0100
0010
1000
,
0010
1000
0100
1000
,
0001
0010
0001
0100
,
0001
0100
1000
0100
,
0001
0100
1000
0100
,
0001
0010
0100
1000
,
0001
0000
1000
0000
0001
0000
1000
0000
0004
4000
0000
0000
0000
3003
0000
0000
,
0001
0101
0100
0110
,
0010
1010
1000
1100
,
0100
0110
0010
0011
,
0001
0100
0010
1000
,
0010
1010
1000
1100
,
0100
0110
0010
0011
,
0001
0100
0010
1000
,
0010
0100
0001
0000
,
0000
1000
0000
1000
0000
1000
0000
1000
,
0000
1000
0000
1000
0000
0000
0000
0000
,
0000
0100
0000
0100
0000
0100
0000
0100
,
0000
0100
0000
0100
0000
0000
0000
0000
,
0000
0010
0000
0010
0000
0010
0000
0010
,
0000
0010
0000
0010
0000
0000
0000
0000
,
0000
0001
0000
0001
0000
0001
0000
1001
,
0000
0000
0000
0000
0000
1000
0001
1000
,
0000
1100
0000
0011
,
0000
1001
0000
1010
,
0000
0101
0000
0110
,
0000
0000
0000
0000
,
1100
0000
0011
0000
,
1001
0000
1010
0000
,
0101
0000
0110
0000
,
0000
0000
0002
0000
,
0000
0000
0000
0003
2000
0000
0000
0000
,
0000
0000
0000
3000
0020
0000
0000
0000
,
0000
0000
0000
0030
0200
0000
0000
0000
,
0000
0000
0000
0300
0001
1000
0001
1000
,
0001
1000
0001
1000
0001
1000
0001
1000
,
0001
0000
1000
0000
0001
0000
1000
0000
0004
4000
0000
0000
0000
0000
0000
0000
,
0000
0000
0000
0000
3003
0000
0000
MMMM
,
0000
0000
0001
0101
,
0100
0110
0010
1010
,
1000
1100
0100
0110
,
0010
0011
0001
0100
,
0010
1000
0010
1010
,
1000
1100
0100
0110
,
0010
0011
0001
0100
,
0010
1000
0100
0010
,
0001
1000
0020
0000
,
0000
0000
0000
0030
2000
00M0
0000
0000
,
0000
0000
0000
3000
0020
M000
0000
0000
,
0000
0000
0000
0030
0200
00M0
0000
0000
,
0000
0000
0000
0300
0002
0000
0000
0000
,
0000
0000
0000
0003
0020
0000
0000
0000
,
0000
0000
0000
0030
0200
0000
0000
0000
,
0000
0000
0000
0300
2000
0000
0000
0000
,
0000
0000
0000
3000
0000
0000
0000
0000
;

//---------------dance-single - S. Philipp----------------
#NOTES:
     dance-single:
     S. Philipp:
     Hard:
     7:
     0.350,0.454,0.107,0.287,0.143:
0000
0000
0000
0000
,
0000
0000
0000
0000
,
0000
0000
0000
0000
,
0000
0000
0000
0000
,
0000
0010
0000
0100
0000
0001
0000
1000
,
0000
0010
0000
0100
0000
0001
0000
0010
,
0000
0100
0000
1000
0000
0001
0000
0010
,
0220
0330
0000
0000
,
1000
0100
0001
0000
0100
0000
0100
0000
,
0001
0100
1000
0000
0001
0000
0001
0000
,
0100
0001
0010
0000
0001
0000
0001
0000
,
0010
0001
0100
0000
0010
0000
0010
0000
,
0001
0010
1000
0000
0010
0000
0010
0000
,
1000
0010
0001
0000
0010
0000
0010
0000
,
0001
0100
0010
0000
0100
0000
0100
0000
,
1000
0000
0001
0000
1000
0000
0001
0000
4000
0004
0000
0000
3003
0000
0000
0000
,
0001
0000
0000
0001
0100
0000
0000
0000
0100
0000
0000
0100
0010
0000
0000
0000
,
0010
0000
0000
0010
1000
0000
0000
0000
1000
0000
0000
1000
0100
0000
0000
0000
,
0100
0000
0000
0100
0010
0000
0000
0000
0010
0000
0000
0010
0001
0000
0000
0000
,
0001
0000
0000
0001
0100
0000
0000
0000
0100
0000
0000
0100
0010
0000
0000
0000
,
0010
0000
0000
0010
1000
0000
0000
0000
1000
0000
0000
1000
0100
0000
0000
0000
,
0100
0000
0000
0100
0010
0000
0000
0000
0010
0000
0000
0010
0001
0000
0000
0000
,
0001
0000
0000
0001
0100
0000
0000
0000
0100
0000
0000
0100
0010
0000
0000
0000
,
0010
0000
0100
0001
0000
1000
0100
0010
,
0000
0001
0000
0001
0000
0001
0000
0001
,
0000
0001
0000
0001
0000
0001
0100
0010
,
0100
0010
0000
0010
0000
0010
0000
0010
,
0000
0010
0000
0010
0000
1000
0100
1000
,
0000
0100
0000
0100
0000
0100
0000
0100
,
0000
0100
0000
0100
0000
0100
0010
0001
,
0010
0001
0000
0001
0000
0001
0000
0002
,
0000
0003
0000
0000
0000
1000
0001
1000
,
0000
0000
2200
3300
0000
0000
0022
0033
,
0000
0000
2002
3003
0000
0000
2020
3030
,
0000
0000
0202
0303
0000
0000
0000
0000
,
4004
0000
0000
0000
0000
0000
0000
3003
0000
0000
0000
0000
0000
0000
0000
0000
,
2200
3300
0000
0000
0022
0033
0000
0000
,
2002
3003
0000
0000
2020
3030
0000
0000
,
0202
0303
0000
0000
0000
0000
1000
0000
,
0001
0000
2000
3000
0002
0000
0000
0000
,
0000
0000
0000
0003
2000
0000
0000
0000
,
0000
0000
0000
3000
0020
0000
0000
0000
,
0000
0000
0000
0030
0200
0000
0000
0000
,
0000
0000
0000
0300
0001
1000
0001
1000
,
0001
1000
0001
1000
0001
1000
0001
1000
,
0001
0000
1000
0000
0001
0000
1000
0000
0004
4000
0000
0000
0000
0000
0000
0000
,
0000
0000
0000
0000
3003
0000
0000
MMMM
,
0000
0000
0000
0000
0000
0000
0000
0000
0001
0000
0000
0001
0100
0000
0000
0000
,
0100
0000
0000
0100
0010
0000
0000
0000
0010
0000
0000
0010
1000
0000
0000
0000
,
1000
0000
0000
1000
0100
0000
0000
0000
0100
0000
0000
0100
0010
0000
0000
0000
,
0010
0000
0000
0010
0001
0000
0000
0000
0001
0000
0000
0001
0100
0000
0000
0000
,
0100
0000
0000
0100
0010
0000
0000
0000
0010
0000
0000
0010
1000
0000
0000
0000
,
1000
0000
0000
1000
0100
0000
0000
0000
0100
0000
0000
0100
0010
0000
0000
0000
,
0010
0000
0000
0010
0001
0000
0000
0000
0001
0000
0000
0001
0100
0000
0000
0000
,
0100
0000
0000
0100
0010
0000
0000
0000
0010
0000
0000
0010
1000
0000
0000
0000
,
1000
0000
0000
1000
0100
0000
0000
0000
0020
0000
0000
0000
0000
0000
0000
0000
,
0000
0000
0000
0030
0002
00M0
0000
0000
,
0000
0000
0000
0003
0200
000M
0000
0000
,
0000
0000
0000
0300
0020
0M00
0000
0000
,
0000
0000
0000
0030
4000
0000
0000
0000
,
0000
0000
0000
0000
3000
0000
0400
0000
0000
0000
0000
0000
,
0000
0000
0000
0000
0300
0000
0040
0000
0000
0000
0000
0000
,
0000
0000
0000
0000
0030
0000
0004
0000
0000
0000
0000
0000
,
0000
0000
0000
0000
0003
0000
0000
0000
0000
0000
0000
0000
;

//---------------dance-single - S. Philipp----------------
#NOTES:
     dance-single:
     S. Philipp:
     Easy:
     3:
     0.210,0.226,0.197,0.179,0.004:
0000
0000
0000
0000
,
0000
0000
0000
0000
,
0000
0000
0000
0000
,
0000
0000
0000
0000
,
0001
0000
0000
0000
,
1000
0000
0000
0000
,
0100
0000
0000
0000
,
0010
0000
0000
0000
,
1000
0100
0010
0001
,
0000
0000
0000
0000
,
0001
0010
0100
1000
,
0000
0000
0000
0000
,
0010
0100
0001
1000
,
0000
0000
0000
0000
,
0100
0010
0100
0010
,
0000
0000
0000
0000
,
2000
0000
3100
0000
,
1001
0000
1001
0000
,
0020
0000
0130
0000
,
0110
0000
0110
0000
,
0200
0000
0301
0000
,
0101
0000
0101
0000
,
0002
0000
1003
0000
,
1001
0000
1001
0000
,
0000
1000
0000
0001
0000
1000
0000
0001
,
0000
1000
0000
0001
0000
0000
0000
0000
,
0000
0100
0000
0010
0000
0100
0000
0010
,
0000
0100
0000
0010
0000
0000
0000
0000
,
0000
1000
0000
0001
0000
1000
0000
0001
,
0000
1000
0000
0001
0000
0000
0000
0000
,
0000
0100
0000
0010
0000
0100
0000
0010
,
0000
0000
0000
0000
,
1001
0000
0000
0000
,
1010
0000
0000
0000
,
0101
0000
0000
0000
,
1001
0000
0000
0110
,
0000
0000
0000
0011
,
0000
0000
0000
1100
,
0000
0000
0000
1001
,
1001
1001
0200
0000
,
0300
0000
0002
0000
,
0003
0000
0200
0000
,
0300
0000
0020
0000
,
0030
0000
1000
0001
,
1000
0001
1000
0001
,
1000
0000
0000
0000
0001
0000
0000
0000
4000
0004
0000
0000
0000
0000
0000
0000
,
0000
0000
3003
0000
,
0000
0000
0010
0100
,
0010
0100
0001
1000
,
0001
1000
0100
0010
,
0100
0010
1000
0001
,
1000
0001
0010
0100
,
0010
0100
0001
1000
,
0001
1000
0100
0010
,
0100
0010
1000
0001
,
1000
0001
2000
0000
,
3000
0000
0002
0000
,
0003
0000
0020
0000
,
0030
0000
0200
0000
,
0300
0000
2020
0000
,
3030
0000
0220
0000
,
0330
0000
0202
0000
,
0303
0000
2002
0000
,
3003
0000
0000
0000
;

//---------------dance-single - S. Philipp----------------
#NOTES:
     dance-single:
     S. Philipp:
     Challenge:
     9:
     0.537,0.738,0.045,0.170,0.573:
0000
0000
0000
0000
,
0000
0000
0000
0000
,
0000
0000
0000
0000
,
0000
0000
0000
0000
,
0000
0010
0000
0010
0000
0010
0000
0010
,
0000
0010
0000
0010
0000
0010
0000
0010
,
0000
0010
0000
0010
0000
0010
0000
0010
,
2002
3003
0000
0000
,
0001
0100
0001
0000
0010
0001
0010
0000
0001
0100
0001
0000
0010
0001
0010
0000
,
0100
1000
0100
0000
1000
0010
1000
0000
0100
1000
0100
0000
1000
0010
1000
0000
,
0010
0001
0010
0000
1000
0010
1000
0000
0010
0001
0010
0000
1000
0010
1000
0000
,
0001
0100
0001
0000
0100
1000
0100
0000
0001
0100
0001
0000
0100
1000
0100
0000
,
0001
0100
0001
0000
0010
0001
0010
0000
0001
0100
0001
0000
0010
0001
0010
0000
,
0100
1000
0100
0000
1000
0010
1000
0000
0100
1000
0100
0000
1000
0010
1000
0000
,
0010
0001
0010
0000
1000
0010
1000
0000
0010
0001
0010
0000
1000
0010
1000
0000
,
0001
0100
0001
0000
0100
1000
0100
0000
0001
0100
0001
0100
1000
0100
0001
0010
,
0001
0000
0000
0001
0010
0000
0000
0010
0100
0000
0000
0100
1000
0000
0000
1000
,
0001
0000
0000
0001
0100
0000
0000
0100
0010
0000
0000
0010
1000
0000
0000
1000
,
0100
0000
0000
0100
0010
0000
0000
0010
0001
0000
0000
0001
1000
0000
0000
1000
,
0010
0000
0000
0010
0100
0000
0000
0100
0001
0000
0000
0001
0010
0000
0000
0010
,
0100
0000
0000
0100
0010
0000
0000
0010
0100
0000
0000
0100
1000
0000
0000
1000
,
0001
0000
0000
0001
0100
0000
0000
0100
0010
0000
0000
0010
1000
0000
0000
1000
,
0100
0000
0000
0100
0010
0000
0000
0010
0001
0000
0000
0001
1000
0000
0000
1000
,
0010
0000
0000
0010
0100
0000
0001
0000
0000
0000
0001
0000
0010
0000
0100
0000
,
0000
1000
0000
1000
0000
1000
0000
1000
,
0000
1000
0000
1000
0000
0010
0100
0010
,
0000
0010
0000
0010
0000
0010
0000
0010
,
0000
0010
0000
0010
0000
0100
0001
0100
,
0000
0100
0000
0100
0000
0100
0000
0100
,
0000
0100
0000
0100
0000
0001
1000
0001
,
0000
0000
0000
0000
0001
0000
0000
0000
0000
0000
0000
0000
0001
0000
0000
0000
0000
0000
0000
0000
0002
0000
0000
0000
0000
0000
0000
0003
1001
0000
0000
0000
,
0000
0000
0000
0000
0000
1000
0001
1000
,
0000
0000
0001
0000
1000
0100
0010
0002
0000
0003
0000
0000
0000
0000
0000
0000
,
0000
0000
1000
0000
0001
0010
0100
2000
0000
3000
0000
0000
0000
0000
0000
0000
,
0000
0000
0100
0000
0010
0001
1000
0200
0000
0300
0000
0000
0000
0000
0000
0000
,
1000
0000
0001
0000
1000
0001
0000
0200
0000
0300
0000
0000
0000
0000
0010
0000
,
1000
0100
0010
0002
0000
0000
0013
0000
0011
0000
0000
0000
0000
0000
0010
0000
,
0001
0010
0100
2000
0000
0000
3100
0000
1100
0000
0000
0000
0000
0000
1000
0000
,
0100
0010
0001
0200
0000
0300
0010
0000
1010
0000
0000
0000
1000
0000
0000
0000
,
0001
0000
0000
0000
0200
0300
0000
0000
0002
0000
0000
0000
0000
0000
0000
0000
,
0000
0000
0000
0003
0200
0000
0000
0000
,
0000
0000
0000
0300
0020
0000
0000
0000
,
0000
0000
0000
0030
2000
0000
0000
0000
,
3000
0000
0000
0000
0000
0000
0000
0000
1000
0100
1000
0100
1000
0100
1000
0100
,
0010
0100
0010
0100
0010
0100
0010
0001
0010
0001
0010
0001
0010
0001
0100
0001
,
0100
0001
0100
0001
0100
0010
0100
0010
0400
0040
0000
0000
0000
0000
0000
0000
,
0000
0000
0000
0330
0000
0000
0000
MMMM
,
0000
0000
0000
0000
0000
0000
0000
0000
1000
0010
1000
0000
0100
1000
0100
0000
,
1000
0010
1000
0000
0100
1000
0100
0000
0010
0001
0010
0000
0001
0100
0001
0000
,
0010
0001
0010
0000
0001
0100
0001
0000
0100
1000
0100
0000
0001
0100
0001
0000
,
0100
1000
0100
0000
0001
0100
0001
0000
1000
0010
1000
0000
0010
0001
0010
0000
,
1000
0010
1000
0000
0010
0001
0010
0000
1000
0010
1000
0000
0100
1000
0100
0000
,
1000
0010
1000
0000
0100
1000
0100
0000
0010
0001
0010
0000
0001
0100
0001
0000
,
0010
0001
0010
0000
0001
0100
0001
0000
0100
1000
0100
0000
0001
0100
0001
0000
,
0100
1000
0100
0000
0001
0100
0001
0000
1000
0010
1000
0000
0010
0001
0010
0000
,
1000
0010
1000
0010
0001
0010
1000
0100
2000
0000
0000
0000
0000
0000
0000
0000
,
0000
0000
0000
0000
3200
M000
0000
0000
,
0000
0000
0000
0000
0320
0M00
0000
0000
,
0000
0000
0000
0000
0032
00M0
0000
0000
,
0000
0003
4000
0000
,
0000
0000
0000
3000
0040
0000
0000
0000
,
0000
0000
0000
0030
0400
0000
0000
0000
,
0000
0000
0000
0300
0004
0000
0000
0000
,
0000
0000
0000
0003
0000
0000
0000
0000
;
