#TITLE:Chain;
#SUBTITLE:(Air Gear Intro);
#ARTIST:SkankFunk;
#TITLETRANSLIT:;
#SUBTITLETRANSLIT:;
#ARTISTTRANSLIT:;
#GENRE:;
#CREDIT:Scott "Suko" Philipp;
#BANNER:chain-bn.png;
#BACKGROUND:chain-bg.png;
#LYRICSPATH:;
#CDTITLE:suko 9x1.png;
#MUSIC:chain.mp3;
#OFFSET:0.235;
#SAMPLESTART:51.900;
#SAMPLELENGTH:15.000;
#SELECTABLE:YES;
#BPMS:0.000=184.000;
#STOPS:;
#BGCHANGES:3.000=chain.avi=1.000=1=0=1===CrossFade==,
248.000=chain-bg.png=1.000=1=0=1===CrossFade==,
99999=-nosongbg-=1.000=0=0=0 // don't automatically add -songbackground-
;
#KEYSOUNDS:;

//---------------dance-single - S. Philipp----------------
#NOTES:
     dance-single:
     S. Philipp:
     Hard:
     8:
     0.638,0.653,0.223,0.267,0.033:
0000
0000
0000
0000
,
0000
0000
0000
0000
,
0000
0000
0000
0000
,
1000
0100
1000
0010
1000
0100
1000
0010
,
1000
0100
1000
0010
1000
0100
1000
0000
,
0010
1000
0010
0001
0010
1000
0010
0001
,
0010
1000
0010
0001
0010
1000
0010
0000
,
0100
0001
0100
1000
0100
0001
0100
1000
,
0100
0001
0100
1000
0100
0001
0100
0000
,
0001
0010
0001
0100
0001
0010
0001
0100
,
0001
0010
0001
0100
0001
0010
0001
0000
,
0000
0000
1000
0000
1000
0000
0001
1000
,
0000
0000
0010
0000
1000
0000
0000
0000
0004
4000
0000
0000
3003
0000
0000
0000
,
1000
0000
0100
0010
0001
0000
0001
0100
,
0010
1000
0010
0100
0001
0000
0001
1000
,
0000
0000
0010
0000
0100
0010
0000
0000
,
1000
0000
0100
0000
0010
0000
0011
0011
,
0000
0000
1001
0000
0000
0001
0010
0100
,
1000
0000
0100
0010
0000
0001
0000
0000
,
4000
0004
0000
0000
0000
0000
0000
0000
3003
0000
0001
0000
0010
0000
0100
0000
,
1000
0000
0001
1000
0000
1000
0001
1000
,
0000
0001
0010
0100
1000
0100
0010
0000
,
0001
0010
0100
1000
0000
1000
0100
0000
,
0000
1000
0100
0001
0100
1000
0000
0001
,
0100
1000
0100
0001
0100
1000
0000
0100
,
0001
0010
0100
1000
0010
0100
0100
0000
,
1001
0011
0110
1100
,
2002
0000
0000
3003
,
1010
0110
0101
1001
,
0220
0000
0000
0330
,
1000
0100
0010
0001
,
0020
0030
0200
0300
,
2000
3000
0020
0030
,
0100
0000
0202
0000
0000
0303
0000
0000
,
1000
0010
0100
0001
,
1000
0001
1000
0001
1000
0001
1000
0001
,
0100
0010
0100
0010
0100
0010
0100
0010
,
1000
0010
1000
0010
1000
0010
1000
0010
,
1000
0001
1000
0001
1000
0001
1000
0001
,
2000
0000
3020
0000
,
0230
0000
0300
0001
,
2002
0000
0000
0000
0000
3003
0010
0000
,
1010
0000
0000
2002
0000
0000
3003
0000
,
1000
0010
0100
0001
0010
0100
1000
0010
,
1000
0000
0010
0000
0100
0000
0001
0000
0010
0100
1000
0100
1000
0000
0000
0000
,
0001
0100
0010
1000
0100
0010
0001
0100
,
0001
0000
0100
0000
0010
0000
1000
0000
0100
0010
0001
0010
0001
0000
0000
0000
,
0010
0001
0010
0100
0010
1000
0010
0001
,
0010
0001
0010
0100
0010
1000
0010
0000
,
0100
1000
0100
0010
0100
0001
0100
1000
,
0100
1000
0100
0010
0100
0001
0100
0000
,
2200
0000
0000
0000
0000
3300
0020
0002
,
0000
0000
0000
0000
,
0000
0000
0033
0001
,
1001
0000
1000
0010
0000
0000
0100
0000
,
0000
0020
0000
0100
,
0000
1000
0000
0001
,
0000
0100
0000
1000
,
0000
0001
0000
0130
,
1000
0001
0000
0100
0001
0100
0001
0000
,
0001
1000
0000
0100
1000
0100
1000
0000
,
1000
0100
0010
0001
0001
0100
0010
1000
,
1000
0100
0010
0001
0001
0100
0010
0000
,
1000
0100
0010
0001
0100
0001
0010
0100
,
1000
0010
1000
0100
0010
0001
0100
0000
,
0010
1000
0001
0100
0010
1000
0100
0010
,
0001
0010
0100
1000
0100
0010
0001
0000
,
1000
0100
0010
0001
0001
0100
0010
1000
,
1000
0100
0010
0001
0001
0100
0010
0220
,
0330
0000
0000
0000
;

//---------------dance-single - S. Philipp----------------
#NOTES:
     dance-single:
     S. Philipp:
     Medium:
     7:
     0.596,0.576,0.189,0.256,0.000:
0000
0000
0000
0000
,
0000
0000
0000
0000
,
0000
0000
0000
0000
,
1000
0100
0010
0001
1000
0100
0010
0001
,
1000
0100
0010
0001
1000
0100
0010
0000
,
0001
0100
0010
1000
0001
0100
0010
1000
,
0001
0100
0010
1000
0001
0100
0010
0000
,
1000
0100
0010
0001
0100
0010
1000
0100
,
0010
0001
0100
0010
1000
0100
0010
0000
,
0001
0010
0001
0100
0001
1000
0001
0100
,
0001
0010
0001
1000
0001
0100
0001
0000
,
0000
0000
1000
0000
1000
0000
0001
1000
,
0000
0010
1000
0000
0001
1000
0001
0000
,
1000
0100
0010
0001
,
0100
0000
0010
0000
1000
0000
0001
1000
,
0000
0000
0010
0000
0100
0010
0000
0000
,
1000
0000
0100
0000
0010
0000
0011
0011
,
0000
0000
1001
0000
0000
0001
0010
0100
,
1000
0000
0100
0010
0000
0001
0000
0000
,
2002
0000
0000
3003
0000
0001
0010
0100
,
1000
0000
0001
1000
0000
1000
0001
1000
,
0000
0001
0010
0100
1000
0100
0010
0000
,
0001
0010
0100
1000
0000
1000
0100
0000
,
0000
1000
0100
0010
0001
1000
0000
0001
,
0100
0010
1000
0001
0100
0010
0000
0100
,
0001
0010
0100
1000
0010
0100
0100
0000
,
1001
0011
0110
1100
,
2002
0000
0000
3003
,
1010
0110
0101
1001
,
0220
0000
0000
0330
,
1000
0100
0010
0001
,
0020
0030
0200
0300
,
2000
3000
0020
0030
,
0100
0000
0202
0000
0000
0303
0000
0000
,
1000
0010
0100
0001
,
1000
0001
1000
0001
0000
0001
1000
0000
,
0100
0010
0100
0010
0000
0010
0100
0000
,
1000
0010
1000
0010
0000
0010
1000
0000
,
1000
0001
1000
0001
0000
0001
1000
0001
,
2000
0000
3020
0000
,
0230
0000
0300
0001
,
2002
0000
0000
3003
,
0000
0000
0000
0000
,
1000
0010
0100
0001
0010
0100
1000
0010
,
1000
0010
0100
0001
0010
0100
1000
0000
,
0001
0100
0001
1000
0100
1000
0001
0000
,
1000
0010
1000
0001
0010
0001
1000
0000
,
1000
0100
0010
0001
1000
0100
0010
0001
,
1000
0100
0010
0001
1000
0100
0010
0000
,
0001
0100
0010
1000
0001
0100
0010
1000
,
0001
0100
0010
1000
0001
0100
0010
0000
,
0200
0000
0000
0000
0000
0300
0020
2000
,
0000
0000
0000
0000
,
0000
0000
3030
1000
,
0001
0000
1000
0100
0000
0000
0010
0000
,
0000
0200
0000
0010
,
0000
0001
0000
1000
,
0000
0010
0000
0001
,
0000
1000
0000
0300
,
0100
0000
0000
1000
0100
1000
0100
0000
,
0010
0000
0000
0001
0010
0001
0010
0000
,
0001
0010
0100
1000
0001
0010
0100
1000
,
0001
0010
0100
1000
0001
0010
0100
0000
,
1000
0010
0100
0001
1000
0010
0100
0001
,
1000
0010
0100
0001
1000
0010
0100
0000
,
0010
1000
0001
0100
0010
1000
0100
0010
,
0001
0010
0100
1000
0100
0010
0001
0000
,
1000
0100
0010
0001
0001
0100
0010
1000
,
1000
0100
0010
0001
0001
0100
0010
0220
,
0330
0000
0000
0000
;

//---------------dance-single - S. Philipp----------------
#NOTES:
     dance-single:
     S. Philipp:
     Challenge:
     9:
     0.763,0.767,0.434,0.212,0.250:
0000
0000
0000
0000
,
0000
0000
0000
0000
,
0000
0000
0000
0000
,
1000
0100
0010
0001
0100
0001
0010
0100
,
1000
0000
0010
0000
1000
0000
0100
0000
0010
0001
0100
0000
0101
0000
0000
0000
,
0010
1000
0001
0100
0010
1000
0100
0010
,
0001
0000
0100
0000
0001
0000
0010
0000
0100
1000
0010
0000
1010
0000
0000
0000
,
1000
0010
0100
0001
0010
0100
1000
0010
,
0001
0000
0010
0000
1000
0000
0100
0000
1000
0100
1000
0100
1000
0000
0000
0000
,
0100
0010
0001
1000
0100
0010
0001
0100
,
1000
0000
0100
0000
0001
0000
0010
0000
0001
0010
0001
0010
0001
0000
0000
0000
,
0000
0000
1000
0010
0100
0001
1000
0100
,
0010
0001
1000
0010
0100
0001
1000
0000
,
1000
0100
0010
0001
0100
0000
0010
0100
,
0001
1000
0100
0000
1000
0000
0100
1100
,
0000
0000
0000
0000
0001
0000
0000
0000
0100
0000
0101
0000
0000
0000
0001
1000
,
0001
0000
1000
0000
0001
0000
1000
0000
0001
0000
0100
0010
1000
0000
0001
0000
,
0000
0000
0000
0000
1001
0000
0000
0000
0000
0000
0001
0100
0001
0000
1000
0100
,
1000
0000
1100
1001
0000
0101
0000
0000
,
0004
4000
0000
0000
0000
0000
0000
0000
3003
0000
0001
1000
0001
0000
0100
0000
,
0010
0000
0000
0000
1000
0010
0100
0000
0000
0000
0100
0000
0001
0000
1000
0000
,
0000
0000
1000
0100
1000
0000
0010
0100
0010
0000
0100
0000
0001
0000
0000
0000
,
0001
1000
0001
0000
1000
0000
0100
0000
0000
0000
0100
0000
1000
0000
0000
0000
,
0000
0000
1000
0100
1000
0000
0001
0010
0001
0000
1000
0000
0000
0000
0001
1000
,
0001
0000
0001
0010
0001
0010
0100
1000
0100
0000
0100
0000
0000
0000
1000
0001
,
1000
0000
1000
0100
1000
0100
0010
0001
0010
0000
0010
0000
0000
0000
0000
0000
,
0011
0010
0110
0100
1100
1000
1001
0001
,
0202
0000
0000
0303
,
1010
1000
1001
0001
0101
0100
0110
0010
,
0022
0000
0000
0000
0000
0000
0030
0003
,
1000
0100
0001
0010
1000
0010
0001
1000
,
0002
0000
0200
0000
,
0010
0000
1000
0000
,
1010
1313
0000
0000
,
0100
0000
0001
0000
0010
0000
0100
0000
1000
0000
0100
0000
0010
0001
0010
0100
,
2000
0000
0001
0001
0000
0010
3010
0000
,
1020
0000
1000
1000
0000
0100
0130
0000
,
0102
0000
0100
0100
0000
1000
1003
0000
,
2001
0000
0001
0001
0000
0010
3010
0000
,
0001
0100
1000
0100
1000
0100
0001
0010
,
0100
0000
0010
0000
0001
0000
0010
0000
0001
0000
0100
0000
0010
1000
0010
1000
,
0020
0030
0000
1010
,
0110
0000
0000
0202
0000
0000
0303
0000
,
0001
0100
1000
1000
0100
0001
0001
0000
,
0100
0001
0100
0001
0100
0000
0001
0000
0001
0000
1000
0000
1000
0000
0000
0000
,
0010
0100
0001
0001
0010
0100
0100
0000
,
1000
0100
1000
0100
1000
0000
0100
0000
0100
0000
0010
0000
0010
0000
0000
0000
,
0001
0100
0010
1000
0100
0010
0100
1000
,
0010
0100
0001
0000
1000
0000
1000
0000
0100
0010
0001
0000
1001
0000
0000
0000
,
1000
0010
0100
0001
0010
0100
0010
0001
,
0100
0010
1000
0000
0001
0000
0001
0000
0010
0000
0100
0000
1000
0100
1000
0100
,
2000
0000
0000
0000
0000
0000
3004
0400
,
0000
0000
0000
0000
,
0000
0000
0000
0000
0303
0000
0001
1000
,
0010
0100
0001
0000
1000
0000
1000
0000
0000
0000
0000
0000
1001
0000
0000
0000
,
0000
0000
2200
0000
0000
0000
0011
0300
,
0000
0000
0002
0000
0000
0000
0010
3000
,
0000
0000
0200
0000
0000
0000
1010
0003
,
0000
0020
0000
1330
,
0110
1001
0000
1000
0100
0010
0001
0000
,
1001
0110
0000
0010
0100
0001
1000
0000
,
1000
0100
0010
0001
0100
0001
0010
0100
,
1000
0000
0010
0000
1000
0000
0100
0000
0010
0001
0100
0000
0101
0000
0000
0000
,
0010
1000
0001
0100
0010
1000
0100
0010
,
0001
0000
0100
0000
0001
0000
0010
0000
0100
1000
0010
0000
1010
0000
0000
0000
,
1000
0010
0100
0001
0010
0100
1000
0010
,
0001
0000
0010
0000
1000
0000
0100
0000
1000
0100
1000
0100
1000
0000
0000
0000
,
0100
0010
0001
1000
0100
0010
0001
0100
,
1000
0000
0100
0000
0001
0000
0010
0000
0001
0010
0001
0000
0011
0000
0011
0000
;

//---------------dance-single - S.Philipp----------------
#NOTES:
     dance-single:
     S.Philipp:
     Easy:
     5:
     0.361,0.344,0.056,0.200,0.000:
0000
0000
0000
0000
,
0000
0000
0000
0000
,
0000
0000
0000
0000
,
0001
0100
1000
1000
,
0001
1000
1000
0100
,
0010
0010
0100
1000
,
1000
0001
0001
1000
,
0001
1000
1000
0010
,
0100
0001
0100
0001
,
0100
0001
0010
1000
,
0100
0100
0001
0001
,
0000
0010
1000
0100
,
0100
0010
1000
1000
,
0001
0001
0001
0100
,
0100
0100
0010
0001
,
0100
0100
0100
1000
,
0100
0001
0100
1000
,
0001
0010
0000
0100
,
0100
0001
0001
0001
,
0022
0000
0033
0100
,
0010
0001
0010
0001
,
0010
0100
0100
0100
,
0100
1000
0010
0100
,
0000
1000
0001
0000
,
1000
1000
0001
0000
,
1000
0100
0001
0000
,
0001
0100
0100
0100
,
0022
0000
0000
0033
,
0100
0100
0001
0001
,
2200
0000
0000
3300
,
0100
0100
0001
0100
,
2000
3000
0200
0300
,
0020
0030
2000
3000
,
1000
0202
0000
0303
,
0010
1000
1000
0100
,
0010
1000
1000
0100
,
0100
1000
0010
0001
,
0010
0100
1000
0001
,
0001
0100
0001
1000
,
0010
0000
1000
0000
,
0100
0000
0000
0001
,
0022
0000
0000
0033
,
0000
0000
0000
0000
,
0001
1000
0001
0100
,
0001
0001
0010
0100
,
0000
0100
0100
0001
,
1000
0100
0100
0001
,
0000
0001
1000
0010
,
0001
1000
0100
0001
,
0000
1000
0001
1000
,
0100
0001
1000
0001
,
0020
0000
0030
2000
,
0002
0000
0000
0000
,
0000
0000
3003
0000
,
0001
0010
0001
0100
,
0000
0200
0000
0000
,
0000
0000
0000
0000
,
0000
0000
0000
0000
,
0000
0000
0000
0300
,
0010
0000
0100
0100
,
1000
0000
0001
0001
,
0100
0010
0100
0100
,
1000
1000
0100
1000
,
0010
1000
1000
0001
,
0001
0100
1000
0001
,
1000
0100
0100
0100
,
0100
0001
0010
0001
,
1000
0001
0100
0100
,
1000
0001
0100
0001
;

//---------------dance-single - S. Philipp----------------
#NOTES:
     dance-single:
     S. Philipp:
     Beginner:
     2:
     0.261,0.306,0.056,0.178,0.000:
0000
0000
0000
0000
,
0000
0000
0000
0000
,
0000
0000
0000
0000
,
0001
0000
1000
0000
,
0001
1000
0000
0100
,
0000
0010
0000
1000
,
0000
0001
0000
1000
,
0001
0000
1000
0000
,
0100
0000
0000
0001
,
0100
0000
0000
1000
,
0100
0100
0001
0001
,
0000
0010
1000
0000
,
0100
0010
1000
1000
,
0001
0000
0001
0100
,
0000
0100
0010
0001
,
0100
0000
0100
1000
,
0000
0001
0000
1000
,
0001
0010
0000
0100
,
0000
0001
0000
0000
,
0011
0000
0000
0100
,
0010
0000
0000
0001
,
0010
0100
0000
0000
,
0100
1000
0010
0100
,
0000
1000
0001
0000
,
0000
1000
0001
0000
,
1000
0100
0001
0000
,
0001
0100
0000
0100
,
0022
0000
0000
0033
,
0000
0100
0001
0000
,
2200
0000
0000
3300
,
0000
0100
0001
0000
,
2000
3000
0200
0300
,
0020
0030
2000
3000
,
0000
0202
0000
0303
,
0000
1000
0000
0100
,
0010
1000
0000
0100
,
0000
1000
0010
0000
,
0010
0000
1000
0001
,
0000
0100
0001
1000
,
0010
0000
1000
0000
,
0100
0000
0000
0000
,
0022
0000
0000
0033
,
0000
0000
0000
0000
,
0001
0000
0001
0100
,
0000
0001
0000
0100
,
0000
0100
0000
0001
,
1000
0100
0000
0001
,
0000
0001
1000
0000
,
0001
1000
0100
0000
,
0000
1000
0001
0000
,
0100
0000
1000
0001
,
0020
0000
0030
2000
,
0002
0000
0000
0000
,
0000
0000
3003
0000
,
0000
0010
0001
0100
,
0000
0200
0000
0000
,
0000
0000
0000
0000
,
0000
0000
0000
0000
,
0000
0000
0000
0300
,
0010
0000
0000
0100
,
1000
0000
0000
0001
,
0100
0010
0000
0100
,
1000
0000
0100
1000
,
0010
1000
0000
0001
,
0000
0100
1000
0001
,
1000
0100
0000
0100
,
0000
0001
0010
0001
,
1000
0001
0000
0100
,
1000
0000
0100
0001
;
