#TITLE:4F73R M3;
#SUBTITLE:;
#ARTIST:SuperGreenX;
#TITLETRANSLIT:;
#SUBTITLETRANSLIT:;
#ARTISTTRANSLIT:;
#GENRE:;
#CREDIT:;
#BANNER:4F73R_M3-bn.png;
#BACKGROUND:4F73R_M3-bg.png;
#LYRICSPATH:;
#CDTITLE:suko 9x1.png;
#MUSIC:4F73R_M3.mp3;
#OFFSET:-0.099;
#SAMPLESTART:69.600;
#SAMPLELENGTH:18.000;
#SELECTABLE:YES;
#BPMS:0.000=110.000;
#STOPS:;
#BGCHANGES:;
#KEYSOUNDS:;

//---------------dance-single - S. Philipp----------------
#NOTES:
     dance-single:
     S. Philipp:
     Hard:
     9:
     0.654,0.733,0.616,0.344,0.725:
0000
0000
0000
0000
0000
0000
00M0
0000
0000
0000
0000
M000
0000
0000
0000
0000
,
0000
0000
000M
0000
0000
0000
00M0
0000
0000
0000
0000
0M00
0000
0000
0000
0000
,
0000
M000
0000
0000
0000
00M0
0000
0000
0000
0M00
0000
0000
0000
0000
000M
0000
,
0000
00M0
0000
0M00
0000
0000
M000
0000
,
00M0
0M00
000M
00M0
0000
0000
M000
0000
,
00M0
0000
0M00
0000
0000
000M
0000
00M0
,
0000
0M00
0000
0000
M000
0000
00M0
0000
,
000M
0000
0000
0000
0000
0000
0M00
0000
0000
0000
0000
00M0
0000
0M00
00M0
0000
,
1000
0000
0100
0010
0001
0000
0100
0000
0001
0010
0001
0000
0011
0000
1001
0000
,
0010
0000
0100
0001
1000
0000
0100
0000
1000
0001
0100
0000
0101
0000
0110
0000
,
0001
0000
0010
0100
1000
0000
0010
0000
1000
0100
1000
0000
1100
0000
1001
0000
,
0100
0000
0001
1000
0010
0000
0100
0000
0010
1000
0010
0000
1010
0000
1001
0000
,
0000
0000
0000
0000
0000
0000
2020
3030
2200
3300
0000
0022
0033
0000
0202
0303
,
0000
0000
0001
0000
1000
0000
0100
0010
0100
0000
1000
0010
0000
1000
0001
0000
,
0000
0000
0000
0000
0000
0000
0202
0303
2002
3003
0000
2200
3300
0000
0220
0330
,
0000
0000
0001
0010
0100
0000
1000
0000
0001
1000
0010
0100
0001
0010
0100
0000
,
1000
0001
0000
1000
0000
0010
0000
1000
0000
0001
0000
1000
0010
0000
1000
0000
,
0001
0010
0100
1000
0010
1000
0001
0010
0100
1000
0010
1000
0001
0000
0100
0000
,
0010
1000
0000
1000
0000
0001
0000
0010
0000
0100
0000
1000
0010
0000
1000
0001
,
0010
0100
1000
0000
0001
0000
0001
0100
0000
0100
0010
0000
1000
0000
1000
0000
,
1000
0100
0000
1000
0000
0010
0000
1000
0000
0001
0000
0010
0100
0000
1000
0000
,
0010
0100
0001
0010
0100
1000
0010
1000
0010
0100
0001
0100
0010
0000
1000
0000
,
1000
0100
0000
1000
0000
0100
0000
0010
0000
0001
0000
0010
0001
0000
0001
0000
,
0100
0010
1000
0100
1000
0000
0001
0010
0100
1000
0100
0000
0010
0100
1000
0000
,
0001
0000
0000
1000
0000
0000
0010
0000
1000
0000
0001
1000
0000
0000
0000
0000
,
0010
1000
0010
0000
1000
0000
0001
0010
0001
0000
0010
0001
0000
0000
0000
0000
,
1000
0000
0001
1000
0000
0000
1000
0010
0000
0100
0001
0010
0001
0000
0000
0000
,
0010
0000
0001
0000
1000
0000
0010
1000
0001
0000
0010
0000
0100
0000
1000
0000
,
0010
0000
1010
0000
0000
0000
0022
0033
2002
3003
0000
0202
0303
0000
2200
3300
,
0001
0000
0010
0000
0100
0000
1000
0000
0001
0000
0000
0101
0000
0000
0000
0000
,
1000
0000
0010
0000
0100
0000
0022
0033
0202
0303
0000
2020
3030
0000
2200
3300
,
0010
0001
1000
0010
1000
0000
0001
0100
0010
1000
0000
0000
2020
0000
3030
0000
,
1000
0001
0000
1000
0000
0010
0000
1000
0000
0001
0000
1000
0010
0000
1000
0000
,
0001
0010
0100
1000
0010
0100
0001
0010
0100
1000
0010
0001
0010
0100
0010
0000
,
0100
0010
0000
0100
0000
0001
0000
0010
0000
0100
0000
1000
0010
0000
1000
0010
,
1000
0100
0010
0100
0010
0000
0001
1000
0000
0001
1000
0000
0110
0000
0101
0000
,
1000
0100
0000
0100
0000
0010
0000
0010
0000
0001
0000
0001
1000
0000
1000
0000
,
0100
0010
0001
0100
0010
0100
0001
0010
0100
1000
0010
0100
0010
0000
0100
0000
,
0001
0010
0000
0100
0000
1000
0000
0010
0000
0100
0000
0001
1000
0000
0100
0000
,
0010
0100
1000
0100
1000
0000
1000
0100
0010
0001
0010
0000
0001
0010
0100
0000
,
1100
0000
1001
0000
0001
0010
0000
0010
0001
0000
0001
0100
0000
0100
0010
0000
,
0110
0000
0110
0000
0010
1000
0000
1000
0010
0000
0010
0100
0000
0100
0001
0000
,
0101
0000
0101
0000
0001
0100
0000
0100
0001
0000
0001
1000
0000
1000
0010
0000
,
1010
0000
1010
0000
1000
0100
0000
0100
1000
0000
1000
0100
0000
0100
0010
0000
,
0011
0000
0011
0000
0001
0100
0000
0100
1000
0000
1000
0010
0000
0010
0001
0000
,
0011
0000
0011
0000
0001
0100
0000
0100
1000
0000
1000
0010
0000
0010
0001
0000
,
0011
0000
1001
0000
1000
0100
0000
0100
0001
0000
0001
0010
0000
0010
1000
0000
,
1010
0000
1010
0000
1000
0100
0000
0100
0001
0000
0001
0010
0000
0010
1000
0000
,
1010
0000
0000
1010
0000
0000
1010
0000
0000
1010
0000
0000
0110
0000
1001
0000
,
0101
0000
0000
0101
0000
0000
0101
0000
0000
0101
0000
0000
1001
0000
0101
0000
,
0110
0000
0000
0110
0000
0000
0110
0000
0000
0110
0000
0000
1010
0000
1001
0000
,
1100
0000
0000
1100
0000
0000
1100
0000
0000
1100
0000
0000
0110
0000
0011
0000
,
0101
0000
0000
0101
0000
0000
0101
0000
0000
0101
0000
0000
0101
0000
1001
0000
,
1010
0000
0000
1010
0000
0000
1010
0000
0000
1010
0000
0000
1010
0000
0110
0000
,
1001
0000
0000
1001
0000
0000
1001
0000
0000
1001
0000
0000
0011
0000
0110
0000
,
1100
0000
0000
1100
0000
0000
1100
0000
0000
1100
0000
0000
1001
0000
0101
0000
,
1000
0000
0100
0010
0001
0010
0100
0000
1000
0000
0010
0000
0100
0000
0010
0000
,
0100
0000
0001
0100
0010
1000
0010
0000
0100
0000
0001
1000
0000
0000
0100
0000
,
0010
0000
0001
0010
0001
0000
1000
0000
0010
0000
0100
0001
0000
0000
0100
0001
,
0010
0000
0010
0001
0100
0000
1000
0100
0001
0000
0001
1000
0000
0000
0100
0010
,
0100
0000
1000
0001
0000
0000
1000
0000
0010
0000
0001
0010
0000
0000
1000
0000
,
0100
0000
0100
0010
0001
0000
0010
0000
0001
0010
0000
0200
0300
0000
0000
0000
,
1000
0000
0100
0000
0001
0000
0100
0000
1000
0000
0010
0001
0000
0000
0010
0000
,
1000
0000
0001
0000
0010
0000
0100
0010
0001
0000
0100
0000
0202
0000
0303
0000
,
0001
1000
0000
0001
0000
0100
0000
0001
0000
1000
0000
0001
0100
0000
0001
0000
,
0202
0000
0303
0000
2002
0000
3003
0000
2200
0000
3300
0000
0220
0330
2002
3003
,
0220
0000
0000
0000
0000
0000
0000
0000
0330
0000
0000
0000
0000
0000
1000
0001
,
0010
0100
1000
0100
0010
0000
0010
0001
0000
0001
1000
0000
2020
3030
2002
3003
,
0202
0000
0303
0000
,
0100
0010
1000
0010
0100
0001
0010
0100
0010
0001
0100
0000
0220
0330
2020
3030
,
2002
0000
3003
0000
,
0010
0100
0001
0010
0100
0000
1000
0100
0010
0001
0010
0000
0100
0010
0001
0000
,
0004
4003
3040
0430
,
0301
1000
0000
0100
0000
0010
0000
0001
0000
0010
0000
0100
1000
0000
0001
0000
,
1000
0100
0010
0001
0100
0001
1000
0100
0010
0001
0100
0001
1000
0000
0010
0000
,
0100
0001
0000
0001
0000
1000
0000
0100
0000
0010
0000
0001
0100
0000
0001
1000
,
0100
0010
0001
0000
1000
0000
1000
0010
0000
0010
0100
0000
0001
0000
0001
0000
,
0001
0010
0000
0001
0000
0100
0000
0001
0000
1000
0000
0100
0010
0000
0001
0000
,
0100
0010
1000
0100
0010
0001
0100
0001
0100
0010
1000
0010
0100
0000
0001
0000
,
0001
0010
0000
0001
0000
0010
0000
0100
0000
1000
0000
0100
1000
0000
1000
0000
,
0010
0100
0001
0010
0001
0000
1000
0100
0010
0001
0010
0000
0001
0100
0010
0000
,
0110
1010
0000
0110
0101
1001
0110
0000
,
2002
0000
0000
0000
,
0000
0000
0000
0000
,
3003
0000
0000
0000
;

//---------------dance-single - S. Philipp----------------
#NOTES:
     dance-single:
     S. Philipp:
     Easy:
     3:
     0.199,0.412,0.087,0.175,0.000:
0000
0000
0000
0000
,
0000
0000
0000
0000
,
0000
0000
0000
0000
,
0000
0000
0000
0000
,
0000
0000
0000
0000
,
0000
0000
0000
0000
,
0000
0000
0000
0000
,
0000
0000
0000
0000
,
1000
0001
0001
0001
,
0010
1000
0100
0001
,
0001
1000
1000
0100
,
0100
0010
0010
0010
,
0000
0000
0000
0000
0000
0000
0000
0000
2200
3300
0000
0000
0000
0000
0000
0000
,
0000
1000
0100
0000
,
0000
0000
0000
0000
0000
0000
0000
0000
2002
3003
0000
0000
0000
0000
0000
0000
,
0000
0100
0001
0001
,
1000
0000
0000
0010
,
0001
0010
0100
0001
,
0010
0000
0000
0010
,
0010
0001
0000
1000
,
1000
0000
0000
0100
,
0010
0100
0010
0010
,
1000
0000
0000
0001
,
0100
1000
0100
0010
,
0001
0000
1000
0000
,
0010
1000
0001
0000
,
1000
0000
0000
0001
,
0010
1000
0001
0100
,
0010
0000
0000
0000
0000
0000
0000
0000
2002
3003
0000
0000
0000
0000
0000
0000
,
0001
0100
0001
0000
,
1000
0000
0000
0000
0100
0000
0000
0000
0202
0303
0000
0000
0000
0000
0000
0000
,
0010
0000
1000
0000
0010
0000
2020
3030
,
1000
0000
0000
0010
,
0001
0010
0100
0010
,
0100
0000
0000
0010
,
1000
0010
0000
0010
,
1000
0000
0000
1000
,
0100
0010
0100
0010
,
0001
0000
0000
1000
,
0010
1000
0010
0001
,
0001
0001
0001
0000
,
0010
0010
0010
0000
,
0001
0001
0001
0000
,
0010
1000
1000
0000
,
0001
0001
1000
0000
,
0001
0001
1000
0000
,
0001
1000
0001
0000
,
0010
1000
0001
0000
,
0010
0000
0000
0010
,
0001
0000
0000
0001
,
0010
0000
0000
0010
,
0100
0000
0000
0010
,
0001
0000
0000
0001
,
0010
0000
0000
0010
,
0001
0000
0000
0001
,
0100
0000
0000
0001
,
1000
0001
1000
0100
,
0100
0010
0100
0000
,
0010
0001
0010
0000
,
0010
0100
0001
0000
,
0100
0000
0010
0000
,
0100
0001
0001
0000
,
1000
0001
1000
0000
,
1000
0000
0010
0000
0001
0000
0202
0303
,
0001
0000
0000
0100
,
0202
0000
0303
0000
2002
0000
3003
0000
2200
0000
3300
0000
0220
0330
0000
0000
,
0220
0000
0330
0000
,
0010
0000
0000
0000
0010
0000
0000
0000
0000
0000
0000
0000
2020
3030
0000
0000
,
0202
0000
0303
0000
,
0100
0000
0000
0000
0100
0000
0000
0000
0010
0000
0000
0000
0220
0330
0000
0000
,
2002
0000
3003
0000
,
0010
0100
0010
0100
,
0004
4003
3040
0430
,
0300
0000
0000
1000
,
1000
0100
0010
1000
,
0100
0000
0000
0100
,
0100
1000
0000
0001
,
0001
0000
0000
0010
,
0100
0010
0100
0100
,
0001
0000
0000
1000
,
0010
0001
0010
0001
,
0010
0000
0001
0010
,
2002
0000
0000
0000
,
0000
0000
0000
0000
,
3003
0000
0000
0000
;

//---------------dance-single - S. Philipp----------------
#NOTES:
     dance-single:
     S. Philipp:
     Medium:
     6:
     0.449,0.550,0.191,0.109,0.011:
0000
0000
0000
0000
,
0000
0000
0000
0000
,
0000
0000
0000
0000
,
0000
0000
0000
0000
,
0000
0000
0000
0000
,
0000
0000
0000
0000
,
0000
0000
0000
0000
,
0000
0000
0000
0000
,
0010
1000
0100
0100
0010
0010
0001
1000
,
0001
1000
1000
0001
0010
0100
0100
0100
,
0010
0001
1000
0001
0001
1000
1000
1000
,
0100
1000
0100
0010
0010
0001
0010
0001
,
0000
0000
0000
0000
0000
0000
0110
0000
1001
0000
0000
1010
0000
0000
1100
0000
,
0000
1000
0001
0010
0010
0100
0100
1000
,
0000
0000
0000
0000
0000
0000
1001
0000
0110
0000
0000
0101
0000
0000
0011
0000
,
0000
1000
0100
1000
1000
0010
0010
0000
,
0100
0010
1000
0001
0010
0010
1000
0010
,
0001
1000
0001
0001
1000
1000
0010
1000
,
0010
0010
0100
0010
0001
0010
0010
0100
,
1000
1000
1000
0100
0001
0001
1000
0001
,
0010
0010
0100
1000
0001
1000
1000
0010
,
1000
0001
1000
0001
0010
0100
1000
0001
,
0010
0100
0100
0100
1000
0001
1000
1000
,
0001
0001
1000
0010
0010
0010
0010
0100
,
0010
0000
0100
0100
0001
0001
0001
0000
,
0100
0010
1000
0001
0100
0010
1000
0000
,
1000
0010
0100
0001
0001
0010
0100
0000
,
1000
0100
1000
1000
0100
1000
0010
1000
,
0100
0000
0010
0000
0000
0000
0110
0000
1100
0000
0000
1001
0000
0000
0101
0000
,
0000
1000
1000
0100
1000
0001
0001
0000
,
0100
0000
0010
0000
0010
0000
1010
0000
1001
0000
0000
0101
0000
0000
1001
0000
,
0000
0100
1000
0100
0100
0010
0110
0000
,
0100
1000
0100
0100
0010
0010
0001
0001
,
0100
0010
0100
0100
0001
1000
0010
0100
,
0100
0010
1000
0100
1000
1000
0010
0100
,
0100
0001
1000
1000
0001
0100
0001
0100
,
0100
1000
0100
0010
1000
0001
0100
0010
,
1000
1000
1000
0010
0010
0100
0100
0001
,
0001
0010
0100
1000
0100
0100
0010
0010
,
0001
1000
0010
0010
0010
0010
0010
0100
,
0010
0100
0001
0100
1000
0100
0001
0010
,
0001
0100
0010
0010
1000
0010
1000
0001
,
1000
0001
0100
0100
0100
0010
0010
0010
,
0100
0010
1000
0001
1000
0001
0100
0100
,
0100
0100
0100
0010
1000
0100
0010
0100
,
0010
0001
0001
0001
0010
0100
1000
0010
,
1000
1000
0100
1000
0001
1000
1000
0100
,
0010
0001
0100
0001
0010
0100
1000
1000
,
0001
0000
1000
1000
0000
0001
0100
0010
,
1000
0000
0010
0010
0000
0100
0001
0100
,
0001
0000
1000
0010
0000
0100
0001
1000
,
0100
0000
0100
0100
0000
0010
0001
0100
,
0001
0000
1000
1000
0000
1000
0001
1000
,
0001
0000
1000
0100
0000
0010
0100
0001
,
0100
0000
0100
1000
0000
0100
0100
0100
,
1000
0000
1000
0010
0000
0010
0100
0001
,
0010
0100
1000
0010
0010
0010
1000
0100
,
0001
0100
1000
1000
0100
0010
0100
0010
,
0100
1000
1000
0100
1000
0100
0100
0010
,
0001
0010
0100
0100
0100
1000
0010
0100
,
0100
0010
0100
0001
1000
0100
1000
0100
,
0100
0100
1000
0100
0010
0010
0100
0000
,
0010
1000
0010
1000
0001
0010
0100
1000
,
0001
1000
0001
1000
0010
0010
2002
3003
,
0100
0001
1000
0001
0010
0010
0100
0100
,
2002
3003
2200
3300
0202
0303
0011
1100
,
0022
0000
0000
0000
0033
0000
0000
1000
,
0100
1000
0010
1000
0100
0100
0220
0330
,
2002
0000
3003
0000
,
0010
0100
0010
0001
1000
1000
0022
0033
,
2200
0000
3300
0000
,
1000
0001
1000
1000
0010
0100
0010
1000
,
4000
3400
0340
0034
,
0013
0100
1000
1000
0010
1000
0010
0010
,
0100
1000
1000
0100
1000
0100
0001
0010
,
0001
1000
1000
0001
0001
0010
0100
0100
,
0010
0100
1000
1000
1000
1000
0100
1000
,
0100
0010
0001
0100
1000
0100
0010
0100
,
0001
1000
0001
0100
0100
1000
0100
0001
,
0010
0100
1000
1000
1000
0010
1000
0100
,
0100
0100
0010
0100
0010
0100
0010
0001
,
0011
0011
0000
1001
0101
0110
1010
0000
,
2002
0000
0000
0000
,
0000
0000
0000
0000
,
3003
0000
0000
0000
;

//---------------dance-single - S. Philipp----------------
#NOTES:
     dance-single:
     S. Philipp:
     Beginner:
     1:
     0.131,0.229,0.055,0.109,0.000:
0000
0000
0000
0000
,
0000
0000
0000
0000
,
0000
0000
0000
0000
,
0000
0000
0000
0000
,
0000
0000
0000
0000
,
0000
0000
0000
0000
,
0000
0000
0000
0000
,
0000
0000
0000
0000
,
1000
0001
0000
0001
,
0000
1000
0000
0001
,
0000
1000
0000
0100
,
0000
0010
0000
0010
,
0000
0000
0000
0000
,
0000
1000
0100
0000
,
0000
0000
0000
0000
0000
0000
0000
0000
2002
3003
0000
0000
0000
0000
0000
0000
,
0000
0100
0000
0001
,
1000
0000
0000
0010
,
0000
0010
0000
0001
,
0010
0000
0000
0010
,
0000
0001
0000
1000
,
0000
0000
0000
0100
,
0010
0000
0010
0000
,
1000
0000
0000
0001
,
0100
0000
0100
0000
,
0001
0000
1000
0000
,
0010
1000
0001
0000
,
1000
0000
0000
0001
,
0000
1000
0001
0000
,
0010
0000
0000
0000
0000
0000
0000
0000
2002
3003
0000
0000
0000
0000
0000
0000
,
0001
0000
0001
0000
,
1000
0000
0000
0000
0000
0000
0000
0000
0202
0303
0000
0000
0000
0000
0000
0000
,
0000
0000
1000
0000
0000
0000
2020
3030
,
0000
0000
0000
0010
,
0001
0000
0100
0010
,
0000
0000
0000
0010
,
1000
0010
0000
0010
,
1000
0000
0000
1000
,
0000
0010
0000
0010
,
0001
0000
0000
1000
,
0000
1000
0010
0001
,
0000
0001
0000
0000
,
0010
0000
0010
0000
,
0001
0000
0001
0000
,
0010
1000
0000
0000
,
0001
0000
1000
0000
,
0001
0000
1000
0000
,
0001
1000
0001
0000
,
0000
1000
0001
0000
,
0000
0000
0000
0010
,
0001
0000
0000
0001
,
0010
0000
0000
0010
,
0100
0000
0000
0010
,
0001
0000
0000
0001
,
0010
0000
0000
0010
,
0001
0000
0000
0001
,
0100
0000
0000
0001
,
0000
0001
1000
0000
,
0100
0000
0100
0000
,
0010
0000
0010
0000
,
0000
0100
0001
0000
,
0100
0000
0010
0000
,
0100
0000
0001
0000
,
1000
0001
1000
0000
,
1000
0000
0000
0000
0000
0000
0202
0303
,
0000
0000
0000
0100
,
0000
0000
2002
3003
0000
0000
0000
0000
,
0220
0000
0330
0000
,
0000
0010
0000
0000
,
0202
0000
0303
0000
,
0000
0000
0000
0000
0100
0000
0000
0000
0000
0000
0000
0000
0220
0330
0000
0000
,
0000
0000
0000
0000
,
0010
0000
0000
0100
,
0001
1000
0000
0100
,
0000
0000
0000
1000
,
0000
0100
0000
1000
,
0000
0000
0000
0100
,
0000
1000
0000
0001
,
0000
0000
0000
0010
,
0000
0010
0100
0000
,
0001
0000
0000
1000
,
0000
0001
0000
0000
,
0010
0000
0001
0000
,
2002
0000
0000
0000
,
0000
0000
0000
0000
,
3003
0000
0000
0000
;
