#TITLE:#Selfie;
#SUBTITLE:;
#ARTIST:The Chainsmokers;
#TITLETRANSLIT:;
#SUBTITLETRANSLIT:;
#ARTISTTRANSLIT:;
#GENRE:;
#CREDIT:Scott "Suko" Philipp;
#BANNER:selfie-bn.png;
#BACKGROUND:selfie-bg.png;
#LYRICSPATH:;
#CDTITLE:suko 9x1.png;
#MUSIC:Selfie.mp3;
#OFFSET:-1.193;
#SAMPLESTART:36.880;
#SAMPLELENGTH:12.000;
#SELECTABLE:YES;
#BPMS:0.000=128.000,16.000=64.000,32.000=128.000,48.000=170.667,64.000=128.000,92.000=256.000,96.000=128.000,124.000=256.000,128.000=64.000,136.000=128.000,148.000=256.000,152.000=64.000,152.500=128.000,153.500=64.000,154.000=128.000,155.000=64.000,155.500=128.000,158.000=64.000,158.500=128.000,160.000=64.000,160.500=128.000,161.500=64.000,162.000=128.000,164.500=64.000,165.000=128.000,166.500=64.000,167.000=128.000,168.000=64.000,168.500=128.000,171.000=64.000,171.500=128.000,173.000=64.000,173.500=128.000,174.500=64.000,175.500=256.000,177.500=64.000,178.000=128.000,179.000=64.000,179.500=128.000,180.500=64.000,181.000=128.000,183.500=64.000,184.000=128.000,185.500=64.000,186.000=128.000,187.000=64.000,187.500=128.000,190.000=64.000,190.500=128.000,204.000=256.000,206.000=64.000;
#STOPS:64.000=1.875
,92.000=0.117
,92.500=0.117
,93.000=0.117
,93.500=0.117
,94.000=0.059
,94.250=0.059
,94.500=0.059
,94.750=0.059
,95.000=0.117
,95.500=0.117
,124.000=0.118
,124.500=0.118
,125.000=0.118
,125.500=0.118
,126.000=0.118
,126.500=0.118
,127.000=0.118
,127.500=0.118
,148.000=0.059
,148.250=0.059
,148.500=0.059
,148.750=0.059
,149.000=0.059
,149.250=0.059
,149.500=0.059
,149.750=0.059
,150.000=0.059
,150.250=0.059
,150.500=0.059
,150.750=0.059
,151.000=0.059
,151.250=0.059
,151.500=0.059
,151.750=0.059
,175.500=0.059
,175.750=0.059
,176.000=0.059
,176.250=0.059
,176.500=0.059
,176.750=0.059
,177.000=0.059
,177.250=0.059
,204.000=0.059
,204.250=0.059
,204.500=0.059
,204.750=0.059
,205.000=0.059
,205.250=0.059
,205.500=0.059
,205.750=0.059
;
#BGCHANGES:;
#KEYSOUNDS:;

//---------------dance-single - Blank----------------
#NOTES:
     dance-single:
     Blank:
     Beginner:
     1:
     0.513,0.525,0.008,0.016,0.133:
1000
0001
1000
0001
1000
0001
1000
0001
,
1000
0001
1000
0001
1000
0001
1000
0001
,
1000
0001
1000
0001
1000
0001
1000
0001
,
1000
0001
1000
0001
1000
0001
1000
0001
,
1000
0001
1000
0001
1000
0001
1000
0001
,
1000
0001
1000
0001
1000
0001
1000
0001
,
1000
0001
1000
0001
1000
0001
1000
0001
,
1000
0001
1000
0001
1000
0001
1000
0001
,
1000
0001
1000
0001
1000
0001
1000
0001
,
1000
0001
1000
0001
1000
0001
1000
0001
,
1000
0001
1000
0001
1000
0001
1000
0001
,
1000
0001
1000
0001
1000
0001
1000
0001
,
1000
0001
1000
0001
1000
0001
1000
0001
1000
0001
1000
0001
,
1000
0001
1000
0001
1000
0001
1000
0001
1000
0001
1000
0001
,
1000
0001
1000
0001
1000
0001
1000
0001
1000
0001
1000
0001
,
1000
0001
1000
0001
1000
0001
1000
0001
1000
0001
1000
0001
,
1000
0001
1000
0001
1000
0001
1000
0001
,
1000
0001
1000
0001
1000
0001
1000
0001
,
1000
0001
1000
0001
1000
0001
1000
0001
,
1000
0001
1000
0001
1000
0001
1000
0001
,
MMMM
0001
1000
0001
1000
0001
1000
0001
,
1000
0001
1000
0001
1000
0001
1000
0001
,
1000
0001
1000
0001
1000
0001
1000
0001
,
1000
0000
0001
0000
1000
0000
0001
0000
1000
0001
1000
0000
0001
0000
1000
0000
,
0000
0001
1000
0001
1000
0001
1000
0001
,
1000
0001
1000
0001
1000
0001
1000
0001
,
1000
0001
1000
0001
1000
0001
1000
0001
,
1000
0001
1000
0001
1000
0001
1000
0001
,
1000
0001
1000
0001
1000
0001
1000
0001
,
1000
0001
1000
0001
1000
0001
1000
0001
,
1000
0001
1000
0001
1000
0001
1000
0001
,
1000
0001
1000
0001
1000
0001
1000
0001
,
1000
0001
1000
0001
1000
0001
1000
0001
,
1000
0001
1000
0001
1000
0001
1000
0001
,
1000
0001
1000
0001
1000
0001
1000
0001
,
1000
0001
1000
0001
1000
0001
1000
0001
,
1000
0001
1000
0001
1000
0001
1000
0001
,
1000
0001
1000
0001
1000
0001
1000
0001
,
1000
0001
1000
0001
1000
0001
1000
0001
,
1000
0001
1000
0001
1000
0001
1000
0001
,
1000
0001
1000
0001
1000
0001
1000
0001
,
1000
0001
1000
0001
1000
0001
1000
0001
,
1000
0001
1000
0001
1000
0001
1000
0001
,
1000
0001
1000
0001
1000
0001
1000
0001
,
1000
0001
1000
0001
1000
0001
1000
0001
,
1000
0001
1000
0001
1000
0000
1000
0000
,
1000
0001
1000
0001
1000
0001
1000
0001
,
1000
0001
1000
0001
1000
0001
1000
0001
,
1000
0001
1000
0001
1000
0001
1000
0001
,
1000
0001
1000
0001
1000
0001
1000
0001
,
1000
0001
1000
0001
1000
0001
1000
0001
,
1000
0001
1000
0001
1000
0001
1000
0001
,
1000
0001
1000
0001
1000
0001
1000
0001
,
1000
0001
0000
0001
0000
2002
0000
0000
,
0000
3003
0000
0000
0000
0000
0000
0000
;

//---------------dance-single - Blank----------------
#NOTES:
     dance-single:
     Blank:
     Easy:
     1:
     0.608,0.757,0.121,0.340,0.481:
0000
0000
0000
0000
,
0000
0000
0000
0000
,
1000
0000
0010
0000
0100
0100
0001
0000
,
1000
0010
0100
0000
0001
0001
1000
0000
,
0001
0000
0000
0001
0000
0000
1000
0100
0010
0000
0001
0000
1000
0000
1000
0000
0001
0000
0000
0001
0000
0000
1000
0100
0010
0000
0001
0010
0100
1000
0001
0000
,
1000
0000
0000
1000
0000
0000
0001
0010
0100
0000
1000
0000
0001
0000
0001
0000
1000
0000
0000
1000
0000
0000
0001
0010
0100
0000
1000
0010
0100
0001
0100
0000
,
0010
0000
0000
0100
0000
0000
0001
1000
0010
0000
0100
0000
0010
0000
0010
0000
0100
0000
0000
0100
0000
0000
0010
1000
0100
0000
1000
0100
0010
0001
1000
0000
,
0100
0000
0000
0010
0000
0000
0001
1000
0010
0000
0100
0000
0010
0000
0010
0000
0100
0000
0000
0100
0000
0000
0010
1000
0100
0000
1000
0100
0010
0001
1000
0000
,
0100
0010
0001
0011
0010
0100
1000
1100
,
0100
1000
0001
1001
1000
0010
0100
0110
,
0010
0100
0001
0101
0100
0001
1000
1010
,
0010
1000
0001
1001
1000
0100
0010
0011
,
0001
0100
0001
0100
0001
0100
0001
0100
0001
0100
0001
0100
,
0001
0100
0001
0100
0010
0100
0010
0100
0010
0100
0010
0100
,
0010
0100
0010
0100
0010
0100
0010
0100
0010
1000
0010
1000
,
0010
1000
0010
1000
0040
4000
0000
0000
0000
0000
0000
0000
,
0000
0000
0000
0000
0000
0000
1000
0000
3000
0010
0030
0000
1000
0000
0000
0000
0000
0000
0010
0000
0000
0000
0000
0000
0100
0000
0000
0000
0000
0000
0002
0000
0000
0000
0000
0000
0003
0000
0000
0100
0000
0000
0020
0000
0000
0000
0000
0000
,
1030
0000
0001
0010
0100
0000
1000
0010
0100
0001
2000
0000
3001
0010
0200
0000
,
0300
0000
1000
0000
1000
0000
0001
0010
0100
0000
2000
0000
3100
0010
0002
0000
,
1003
0000
0001
0000
0100
0000
0010
0000
1000
0010
0200
0000
0301
0000
0001
0000
,
MMMM
0000
0001
0000
1000
0000
0010
0100
0010
0000
1000
0000
0001
0000
1000
0000
,
0010
0000
0100
0001
0100
0000
0001
1000
0001
0010
0100
0000
0001
0010
0100
0000
,
0000
0000
0001
0000
1000
0000
0001
1000
0100
0000
0010
0000
0001
0000
0010
0000
,
0100
0000
1000
0000
0001
0000
1000
0000
0010
1000
0010
0000
1000
0000
2002
3003
,
0000
0000
0001
0000
1000
0000
0010
1000
0010
0000
0100
0000
0001
0000
0100
0000
,
0010
0000
1000
0010
0100
0000
0001
0010
0100
1000
0100
0000
0010
0100
1000
0000
,
0000
0000
0001
0000
1000
0000
0001
0100
0001
0000
0100
0000
0010
0000
1000
0000
,
0001
0000
1000
0000
1000
0000
0100
0000
0010
0001
0010
0000
0001
0000
0022
0000
,
0033
0000
1000
0000
0001
0000
0100
0001
0100
0000
0010
0000
1000
0000
0010
0000
,
0100
0000
0001
0100
0010
0000
1000
0100
0010
0001
0010
0000
0100
0010
0001
0000
,
0000
0000
1000
0000
0001
0000
1000
0010
1000
0000
0010
0000
0100
0000
0001
0000
,
4000
0000
0000
0000
0000
0000
0000
3000
,
0001
0000
0000
0100
0000
0000
0010
0000
0000
2020
3030
0000
1000
0000
0000
0001
0000
0000
0010
0000
0000
0220
0330
0000
,
1000
0000
0000
0100
0000
0000
0001
0000
0000
0202
0303
0000
0100
0000
0000
1000
0000
0000
0001
0000
0000
2002
3003
0000
,
0001
0100
1000
0100
0001
0100
1000
0100
,
0010
0100
0010
0001
0010
1000
0010
1000
,
0001
0010
0001
0100
0001
1000
0010
1000
,
0001
1000
0001
1000
0001
1000
0001
1000
0001
1000
0001
1000
0001
1000
0001
1000
,
0002
0003
1000
0000
0001
0000
0200
0300
0010
0000
0100
0000
0002
0003
1000
0000
,
0001
0000
0010
0000
0100
0000
1000
0000
0002
0003
1000
0000
0010
0000
0100
0000
,
0020
0030
1000
0000
0010
0000
0200
0300
0001
0000
1000
0000
0010
0000
1000
0000
,
0001
0000
0020
0030
0100
0000
1000
0000
0001
0000
2000
3000
0010
0000
0100
0000
,
0002
0003
1000
0000
0010
0000
0100
0000
0001
0000
0010
0000
0200
0300
1000
0000
,
0100
0000
0010
0000
0002
0003
0010
0000
0100
0000
2000
3000
0002
0003
1000
0001
,
1000
0001
1000
0001
1000
0000
0002
0003
0100
0000
0001
0000
0020
0030
0001
0000
,
0100
0000
2000
3000
0100
0000
0001
0000
0020
0030
0001
0000
0010
0000
2000
3000
,
0010
0000
0001
0000
1000
0000
0200
0300
0010
0000
0001
0000
2000
3000
0001
0000
,
1000
0000
0010
0000
1000
0000
0010
0000
0200
0300
0001
0000
1000
0000
0010
0000
,
0100
0001
0010
0001
0010
1000
0010
0001
,
0100
0010
1000
0010
0001
0010
1000
0001
,
1000
0100
0010
0001
1000
0010
0100
0001
,
1000
0001
1000
0001
1000
0001
1000
0000
2002
0000
0000
0000
0000
0000
0000
0000
,
3003
0000
0000
0000
;

//---------------dance-single - S.Philipp----------------
#NOTES:
     dance-single:
     S.Philipp:
     Challenge:
     9:
     0.607,0.757,0.121,0.332,0.481:
0000
0000
0000
0000
,
0000
0000
0000
0000
,
1000
0000
0010
0000
0100
0100
0001
0000
,
1000
0010
0100
0000
0001
0001
1000
0000
,
0001
0000
0000
0001
0000
0000
1000
0100
0010
0000
0001
0000
1000
0000
1000
0000
0001
0000
0000
0001
0000
0000
1000
0100
0010
0000
0001
0010
0100
1000
0001
0000
,
1000
0000
0000
1000
0000
0000
0001
0010
0100
0000
1000
0000
0001
0000
0001
0000
1000
0000
0000
1000
0000
0000
0001
0010
0100
0000
1000
0010
0100
0001
0100
0000
,
0010
0000
0000
0100
0000
0000
0001
1000
0010
0000
0100
0000
0010
0000
0010
0000
0100
0000
0000
0100
0000
0000
0010
1000
0100
0000
1000
0100
0010
0001
1000
0000
,
0100
0000
0000
0010
0000
0000
0001
1000
0010
0000
0100
0000
0010
0000
0010
0000
0100
0000
0000
0100
0000
0000
0010
1000
0100
0000
1000
0100
0010
0001
1000
0000
,
0100
0010
0001
0011
0010
0100
1000
1100
,
0100
1000
0001
1001
1000
0010
0100
0110
,
0010
0100
0001
0101
0100
0001
1000
1010
,
0010
1000
0001
1001
1000
0100
0010
0011
,
0001
0100
0001
0100
0001
0100
0001
0100
0001
0100
0001
0100
,
0001
0100
0001
0100
0010
0100
0010
0100
0010
0100
0010
0100
,
0010
0100
0010
0100
0010
0100
0010
0100
0010
1000
0010
1000
,
0010
1000
0010
1000
0040
4000
0000
0000
0000
0000
0000
3030
,
0000
0000
0100
0001
1000
0000
0010
0000
0100
0000
0002
0000
0003
0100
0020
0000
,
1030
0000
0001
0010
0100
0000
1000
0010
0100
0001
2000
0000
3001
0010
0200
0000
,
0300
0000
1000
0000
1000
0000
0001
0010
0100
0000
2000
0000
3100
0010
0002
0000
,
1003
0000
0001
0000
0100
0000
0010
0000
1000
0010
0200
0000
0301
0000
0001
0000
,
MMMM
0000
0001
0000
1000
0000
0010
0100
0010
0000
1000
0000
0001
0000
1000
0000
,
0010
0000
0100
0001
0100
0000
0001
1000
0001
0010
0100
0000
0001
0010
0100
0000
,
0000
0000
0001
0000
1000
0000
0001
1000
0100
0000
0010
0000
0001
0000
0010
0000
,
0100
0000
1000
0000
0001
0000
1000
0000
0010
1000
0010
0000
1000
0000
2002
3003
,
0000
0000
0001
0000
1000
0000
0010
1000
0010
0000
0100
0000
0001
0000
0100
0000
,
0010
0000
1000
0010
0100
0000
0001
0010
0100
1000
0100
0000
0010
0100
1000
0000
,
0000
0000
0001
0000
1000
0000
0001
0100
0001
0000
0100
0000
0010
0000
1000
0000
,
0001
0000
1000
0000
1000
0000
0100
0000
0010
0001
0010
0000
0001
0000
0022
0000
,
0033
0000
1000
0000
0001
0000
0100
0001
0100
0000
0010
0000
1000
0000
0010
0000
,
0100
0000
0001
0100
0010
0000
1000
0100
0010
0001
0010
0000
0100
0010
0001
0000
,
0000
0000
1000
0000
0001
0000
1000
0010
1000
0000
0010
0000
0100
0000
0001
0000
,
4000
0000
0000
0000
0000
0000
0000
3000
,
0001
0000
0000
0100
0000
0000
0010
0000
0000
2020
3030
0000
1000
0000
0000
0001
0000
0000
0010
0000
0000
0220
0330
0000
,
1000
0000
0000
0100
0000
0000
0001
0000
0000
0202
0303
0000
0100
0000
0000
1000
0000
0000
0001
0000
0000
2002
3003
0000
,
0001
0100
1000
0100
0001
0100
1000
0100
,
0010
0100
0010
0001
0010
1000
0010
1000
,
0001
0010
0001
0100
0001
1000
0010
1000
,
0001
1000
0001
1000
0001
1000
0001
1000
0001
1000
0001
1000
0001
1000
0001
1000
,
0002
0003
1000
0000
0001
0000
0200
0300
0010
0000
0100
0000
0002
0003
1000
0000
,
0001
0000
0010
0000
0100
0000
1000
0000
0002
0003
1000
0000
0010
0000
0100
0000
,
0020
0030
1000
0000
0010
0000
0200
0300
0001
0000
1000
0000
0010
0000
1000
0000
,
0001
0000
0020
0030
0100
0000
1000
0000
0001
0000
2000
3000
0010
0000
0100
0000
,
0002
0003
1000
0000
0010
0000
0100
0000
0001
0000
0010
0000
0200
0300
1000
0000
,
0100
0000
0010
0000
0002
0003
0010
0000
0100
0000
2000
3000
0002
0003
1000
0001
,
1000
0001
1000
0001
1000
0000
0002
0003
0100
0000
0001
0000
0020
0030
0001
0000
,
0100
0000
2000
3000
0100
0000
0001
0000
0010
0000
0001
0000
0010
0000
2000
3000
,
0010
0000
0001
0000
1000
0000
0200
0300
0010
0000
0001
0000
2000
3000
0001
0000
,
1000
0000
0010
0000
1000
0000
0010
0000
0200
0300
0001
0000
1000
0000
0010
0000
,
0100
0001
0010
0001
0010
1000
0010
0001
,
0100
0010
1000
0010
0001
0010
1000
0001
,
1000
0100
0010
0001
1000
0010
0100
0001
,
1000
0001
1000
0001
1000
0001
1000
0000
2002
0000
0000
0000
0000
0000
0000
0000
,
3003
0000
0000
0000
;

//---------------dance-single - S.Philipp----------------
#NOTES:
     dance-single:
     S.Philipp:
     Hard:
     8:
     0.435,0.583,0.032,0.227,0.117:
0000
0000
0000
0000
,
0000
0000
0000
0000
,
1000
0000
0010
0000
0100
0100
0001
0000
,
1000
0010
0100
0000
0001
0001
1000
0000
,
0001
1000
0010
0100
0001
0001
0010
0100
,
1000
0001
1000
0001
1000
0001
0100
0010
,
0100
0001
1000
0010
1000
0001
0010
0100
,
1000
0001
1000
0010
0100
0001
1000
0001
,
0001
0010
0001
0001
0010
0100
1000
1000
,
0100
1000
0001
0001
1000
0010
0100
0100
,
0010
0100
0001
0001
0100
0001
1000
1000
,
0010
1000
0001
0001
1000
0100
0010
0010
,
0004
4000
0000
0000
0000
0000
0000
0000
0000
0000
0000
0000
,
0000
0000
0000
0000
0000
0000
0000
0000
0040
0000
0400
0000
0000
0000
0000
0000
0000
3000
0003
0000
0000
0000
0000
0000
,
0000
0000
0000
0000
0000
0000
0000
0000
0040
4000
0000
0000
,
0000
0030
0300
0000
0000
0000
0000
0000
0000
0000
0000
0000
,
0000
0000
0000
0000
0000
0000
1000
0000
0000
0010
0000
0000
1000
0000
0000
0000
0000
0000
0010
0000
0000
0000
0000
0000
3100
0000
0030
0000
0000
0000
0001
0000
0000
0000
0000
0000
0000
0000
0000
0100
0000
0000
0010
0000
0000
0000
0000
0000
,
1000
0000
0001
0000
1000
0000
0010
0000
0100
0000
0010
0000
1000
0010
1000
0000
,
0000
0000
0001
0000
1000
0000
0001
0010
0100
0000
1000
0000
0100
0000
0010
0000
,
0001
0000
0001
0000
1000
0000
0001
0000
1000
0010
0100
0000
0001
0000
0001
0000
,
0000
0000
0001
0100
0001
0000
0100
0000
0010
0000
1000
0000
0000
0010
0100
0000
,
0001
0000
1000
0000
0001
0000
0100
0000
0010
0000
0100
0000
0001
0100
0001
0000
,
0000
0000
1000
0000
0001
0000
1000
0100
0010
0000
0001
0000
0010
0000
0100
0000
,
00M0
0000
000M
0000
0M00
0000
M000
0000
00M0
0M00
000M
0000
M000
0000
MMMM
0000
,
0000
0000
1000
0010
1000
0000
0010
0000
0100
0000
0001
0000
0000
0100
0010
0000
,
1000
0000
0001
0000
1000
0000
0010
0000
0100
0000
0010
0000
1000
0010
1000
0000
,
0000
0000
0001
0000
1000
0000
0001
0010
0100
0000
1000
0000
0100
0000
0010
0000
,
0001
0000
0001
0000
1000
0000
0001
0000
1000
0010
0100
0000
0001
0000
0001
0000
,
0000
0000
0001
0100
0001
0000
0100
0000
0010
0000
1000
0000
0000
0010
0100
0000
,
0001
0000
1000
0000
0001
0000
0100
0000
0010
0000
0100
0000
0001
0100
0001
0000
,
0000
0000
1000
0000
0001
0000
1000
0100
0010
0000
0001
0000
0010
0000
0001
0000
,
4000
0000
0000
0000
0000
0000
0000
3000
,
0001
0000
0100
0000
0010
0000
2020
3030
1000
0000
0001
0000
0010
0000
0220
0330
,
1000
0000
0100
0000
0001
0000
0202
0303
0100
0000
1000
0000
0001
0000
2002
3003
,
0001
0100
1000
0100
0001
0100
1000
0100
,
0010
0100
0010
0001
0010
1000
0010
1000
,
0001
0010
0001
0100
0001
1000
0010
1000
,
0004
4000
0000
0000
0000
0000
0000
0000
0000
0000
0000
0000
0000
0000
0003
3000
,
0002
0003
1000
0000
0001
0000
0200
0300
0010
0000
0100
0000
0002
0003
1000
0000
,
0001
0000
0010
0000
0100
0000
1000
0000
0002
0003
1000
0000
0010
0000
0100
0000
,
0020
0030
1000
0000
0010
0000
0200
0300
0001
0000
1000
0000
0010
0000
1000
0000
,
0001
0000
0020
0030
0100
0000
1000
0000
0001
0000
2000
3000
0010
0000
0100
0000
,
0002
0003
1000
0000
0010
0000
0100
0000
0001
0000
0010
0000
0200
0300
1000
0000
,
0100
0000
0010
0000
0002
0003
0010
0000
0100
0000
2000
3000
0002
0003
0M00
00M0
,
0M00
00M0
0M00
00M0
0M00
00M0
0002
0003
0100
0000
0001
0000
0020
0030
0001
0000
,
0100
0000
0002
0003
0100
0000
0001
0000
0010
0000
0001
0000
1000
0000
0002
0003
,
1000
0000
0001
0000
0100
0000
0020
0030
1000
0000
0001
0000
2000
3000
0001
0000
,
1000
0000
0100
0000
0010
0000
0001
0000
2000
3000
0001
0000
1000
0000
0001
0000
,
1000
0010
0100
0010
0100
0001
0010
0100
,
1000
0001
0100
0010
1000
0010
1000
0010
,
1000
0100
0010
0001
0010
0001
1000
0001
,
4000
0004
0000
0000
0000
0000
0000
0000
3003
0000
0000
0000
0000
0000
0000
0000
;

//---------------dance-single - S.Philipp----------------
#NOTES:
     dance-single:
     S.Philipp:
     Medium:
     5:
     0.225,0.252,0.040,0.186,0.065:
0000
0000
0000
0000
,
0000
0000
0000
0000
,
1000
0010
0100
0001
,
1000
0100
0010
0001
,
1000
0010
1000
0010
,
0100
0001
1000
0100
,
0010
0001
0100
0001
,
0100
0010
0100
0010
,
1000
0001
0010
0100
,
0010
0001
0100
0010
,
1000
0001
0100
0010
,
1000
0001
1000
0100
,
0010
0000
0001
0000
0010
0000
0001
0000
0010
0000
0001
0000
,
0010
0000
0001
0000
0010
0000
0100
0000
0010
0000
0100
0000
,
0010
0000
0100
0000
0010
0000
0100
0000
1000
0000
0001
0000
,
1000
0000
0001
0000
1000
0000
0001
0000
1000
0000
0001
0000
,
0000
1000
0100
0000
,
1000
0100
0100
0010
,
0000
0001
0100
0100
,
0010
0100
0001
1000
,
0000
1000
0010
1000
,
0010
0100
0001
0001
,
0000
1000
0100
0010
,
1001
0000
0000
0000
,
0000
1000
0010
0100
,
0010
0100
0001
1000
,
0000
1000
0001
0010
,
0001
1000
0010
0100
,
0000
0001
0100
0010
,
0100
0010
1000
0001
,
0000
0001
1000
0100
,
4000
0000
0000
0000
0000
0000
0000
3000
,
0000
0010
1000
0010
,
1000
0001
0100
0001
,
0001
1000
0001
1000
,
0010
0010
0010
0010
,
1000
1000
1000
1000
,
2M02
00M0
0M00
00M0
0M00
00M0
3M03
0000
,
0002
0003
0000
2000
3000
0000
0002
0003
,
0000
0000
0000
0000
0200
0300
0000
0000
,
0020
0030
0000
2000
3000
0000
0000
0000
,
0000
0020
0030
0000
0000
0200
0300
0000
,
0002
0003
0000
0000
0000
0000
2000
3000
,
0000
0000
0020
0030
0000
1001
2002
0M00
,
00M0
0M00
30M3
0000
0000
0000
0002
0003
,
0000
2000
3000
0000
0000
0000
0000
0020
,
0030
0000
0000
0200
0300
0000
0002
0003
,
0000
0000
0000
0000
2000
3000
0000
0000
,
0100
0100
0010
0010
,
0001
1000
0001
1000
,
0010
0010
1000
0010
,
0100
0001
2002
0000
,
3003
0000
0000
0000
;
