#VERSION:0.83;
#TITLE:fundamental 7 beats 4 girls;
#SUBTITLE:;
#ARTIST:miii;
#TITLETRANSLIT:;
#SUBTITLETRANSLIT:;
#ARTISTTRANSLIT:;
#GENRE:;
#ORIGIN:;
#CREDIT:;
#BANNER:;
#BACKGROUND:;
#PREVIEWVID:;
#JACKET:;
#CDIMAGE:;
#DISCIMAGE:;
#LYRICSPATH:;
#CDTITLE:;
#MUSIC:fundamental7beats4girls.mp3;
#OFFSET:-0.060000;
#SAMPLESTART:79.099998;
#SAMPLELENGTH:11.400000;
#SELECTABLE:YES;
#DISPLAYBPM:85.000000:340.000000;
#BPMS:0.000=85.000,
8.500=170.000,
183.000=85.000,
199.000=340.000,
647.000=85.000,
664.500=350.000,
666.000=327.000,
667.000=294.000,
668.000=264.000,
669.000=157.000,
670.000=140.000,
671.000=110.000,
671.500=105.000,
672.500=42.500,
672.750=21.250;
#STOPS:119.500=0.200,
664.500=0.280;
#DELAYS:;
#WARPS:263.000=8.000,
274.000=8.000,
287.000=8.000,
298.000=8.000,
311.000=8.000,
322.000=8.000,
335.000=8.000,
346.000=8.000,
359.000=8.000,
370.000=8.000,
383.000=8.000,
394.000=8.000,
407.000=8.000,
418.000=8.000,
431.000=8.000,
442.000=8.000,
455.000=8.000,
466.000=8.000,
479.000=8.000,
490.000=8.000,
503.000=8.000,
514.000=8.000,
527.000=8.000,
538.000=8.000,
551.000=8.000,
562.000=8.000,
575.000=8.000,
586.000=8.000,
599.000=8.000,
610.000=8.000,
623.000=8.000,
634.000=8.000;
#TIMESIGNATURES:0.000=4=4;
#TICKCOUNTS:0.000=4;
#COMBOS:0.000=1;
#SPEEDS:0.000=1.000=0.000=0;
#SCROLLS:0.000=1.000;
#FAKES:;
#LABELS:0.000=Song Start;
#BGCHANGES:;
#KEYSOUNDS:;
#ATTACKS:
;

//---------------dance-single - ----------------
#NOTEDATA:;
#CHARTNAME:;
#STEPSTYPE:dance-single;
#DESCRIPTION:;
#CHARTSTYLE:;
#DIFFICULTY:Challenge;
#METER:19;
#RADARVALUES:1.040424,3.285421,0.235886,0.132686,0.781371,988.000000,956.000000,32.000000,18.000000,0.000000,0.000000,0.000000,0.000000,173.000000,1.040424,3.285421,0.235886,0.132686,0.781371,988.000000,956.000000,32.000000,18.000000,0.000000,0.000000,0.000000,0.000000,173.000000;
#CREDIT:;
#NOTES:
// measure 0
0000
0000
0000
0000
,  // measure 1
0000
0000
0000
0000
,  // measure 2
0000
0000
0010
0000
1000
0010
1000
0010
1000
0000
0001
0100
0001
0100
0001
0000
,  // measure 3
0001
0000
0010
0000
0100
1000
0100
1000
0100
0000
1000
0001
1000
0001
1000
0000
,  // measure 4
1000
0000
0010
0000
0100
0010
0100
0010
0100
0000
0001
0100
0001
0100
0001
0000
,  // measure 5
1000
0001
1000
0001
1000
0001
1000
0001
2000
0000
3001
0000
0000
0000
0100
0000
,  // measure 6
0100
0000
0101
0000
0001
1000
0001
1000
0001
0000
1000
0010
1000
0000
0100
0000
,  // measure 7
0100
0000
1001
0000
0001
1000
0001
1000
0001
0000
0010
0100
0010
0000
1000
0000
,  // measure 8
1000
0000
1001
0000
0001
0100
0001
0100
0001
0000
1000
0100
1000
0000
0010
0000
,  // measure 9
0001
0010
0001
0000
1000
0100
1000
0100
1000
0000
2002
0000
3003
0000
0001
0000
,  // measure 10
0010
0000
1010
0000
1000
0100
1000
0100
1000
0000
0010
0100
0010
0000
0100
0000
,  // measure 11
0001
0000
1001
0000
1000
0010
1000
0010
1000
0000
0001
1000
0001
0000
0100
0000
,  // measure 12
0001
0000
1001
0000
1000
0100
1000
0100
1000
0000
0001
0100
0001
0000
1000
0000
,  // measure 13
0010
0100
0010
0000
0100
0010
0100
0010
0100
0000
0220
0000
0330
0000
0100
0000
,  // measure 14
0001
0000
0101
0000
0100
1000
0100
1000
0100
0000
1000
0001
1000
0000
0010
0000
,  // measure 15
0100
0000
0101
0000
0001
0010
0001
0010
0001
0000
1000
0001
1000
0000
0001
0000
,  // measure 16
0010
0000
0011
0000
0001
0010
0001
0010
0001
0000
1000
0100
1000
0000
0100
0000
,  // measure 17
0100
0001
0100
0000
0001
0010
0001
0010
0001
0000
0022
0000
0033
0000
1000
0000
,  // measure 18
0001
0000
1001
0000
1000
0001
1000
0001
1000
0000
1000
0010
1000
0000
0001
0000
,  // measure 19
0100
0000
0101
0000
0001
1000
0001
1000
0001
0000
0001
0010
0001
0000
0100
0000
,  // measure 20
0010
0000
0110
0000
0100
1000
0100
1000
0100
0000
0100
0010
0100
0000
0001
0000
,  // measure 21
0001
1000
0001
0000
0001
0100
0001
0100
0001
0000
2002
0000
3003
0000
1000
0000
,  // measure 22
0010
0000
1010
0000
0010
0100
0010
0100
0010
0000
0100
0001
0100
0000
0001
0000
,  // measure 23
0100
0000
0101
0000
0100
0010
0100
0010
0100
0000
0010
1000
0010
0000
0100
0000
,  // measure 24
0010
0000
1010
0000
0010
1000
0010
1000
0010
0000
1000
0001
1000
0000
0010
0000
,  // measure 25
0100
0001
0100
0000
0001
0010
0001
0010
0001
0000
2002
0000
3003
0000
0100
0000
,  // measure 26
0010
0000
0110
0000
0010
1000
0010
1000
0010
0000
1000
0001
1000
0000
0100
0000
,  // measure 27
0010
0000
1010
0000
0010
0100
0010
0100
0010
0000
1000
0010
1000
0000
0010
0000
,  // measure 28
0100
0000
0110
0000
0010
0100
0010
0100
0010
0000
0100
0001
0100
0000
0010
0000
,  // measure 29
0001
1000
0001
0000
0100
0010
0100
0010
0100
0000
2002
0000
3003
0000
0110
0000
,  // measure 30
0100
0000
0001
0100
0001
0000
0100
0000
0001
0100
0001
0000
1000
0000
1000
0000
,  // measure 31
0010
0000
1000
0010
1000
0000
0100
0000
1000
0010
1000
0000
0001
0000
0001
0000
,  // measure 32
0010
0000
0100
1000
0100
0000
0010
0000
0100
1000
0100
0000
0001
0000
1000
0001
,  // measure 33
1000
0000
0010
0100
0010
0000
1000
0000
0002
0000
0003
0000
0100
0000
0100
0000
,  // measure 34
0010
0000
1000
0001
1000
0000
0100
0000
0010
0100
0010
0000
0001
0000
0001
0000
,  // measure 35
0010
0000
1000
0100
1000
0000
0001
0000
0010
0001
0010
0000
1000
0000
1000
0000
,  // measure 36
0100
0000
0001
1000
0001
0000
0100
0000
0010
1000
0010
0000
0100
0000
0001
1000
,  // measure 37
0001
0000
0100
0010
0100
0000
1000
0000
0200
0000
0300
0000
0001
0100
0001
0100
,  // measure 38
0001
0000
1000
0100
1000
0100
1000
0000
0001
1000
0001
1000
0001
0010
0001
0010
,  // measure 39
0001
0000
1000
0100
1000
0100
1000
0000
0010
1000
0010
1000
0001
1000
0001
1000
,  // measure 40
0001
0000
0100
0010
0100
0010
0100
0000
0001
0100
0001
0100
0001
1000
0001
1000
,  // measure 41
0001
0000
1000
0001
1000
0001
1000
0000
0100
0010
0100
0010
0100
0001
0100
0010
,  // measure 42
0100
0000
0001
1000
0001
0010
0001
0000
1000
0001
1000
0001
1000
0010
1000
0001
,  // measure 43
1000
0000
0100
0001
0100
0010
0100
0000
0001
1000
0001
1000
0001
0100
0001
1000
,  // measure 44
0001
0000
1000
0010
1000
0001
1000
0000
0100
0010
0100
0010
1000
0001
1000
0010
,  // measure 45
1000
0000
0000
0000
0100
0000
0001
0000
0100
0000
0010
0000
0100
0000
0000
0000
0001
0000
1000
0000
0001
0000
1000
0000
0002
0000
0000
0000
1003
0000
1000
0001
,  // measure 46
1000
0001
1000
0000
0001
1000
0001
1000
0001
0000
0100
0001
0100
0001
0100
0000
0010
0100
0010
0100
0010
0000
1000
0010
1000
0010
1000
0000
0001
1000
0001
1000
,  // measure 47
0001
0000
0100
0001
0100
0010
0100
0000
0001
1000
0001
0100
0001
0000
1000
0010
1000
0001
1000
0000
0100
0010
0100
0010
0100
0000
0100
0000
0010
0000
1000
0000
,  // measure 48
1000
0100
0001
0001
0010
1000
1000
0001
0010
0010
0100
1000
1000
0001
0100
0100
,  // measure 49
0010
0001
0001
0010
1000
1000
0100
0010
0010
0001
1000
0001
1000
0000
0100
0000
,  // measure 50
1000
0010
0100
0001
0010
0100
1000
0001
,  // measure 51
0100
0001
0010
0000
1010
0000
0100
0001
,  // measure 52
0010
0100
1000
0001
0100
0001
0010
1000
,  // measure 53
0010
0100
0001
0000
1001
0000
0100
0001
,  // measure 54
0010
0100
1000
0001
0100
0001
1000
0100
,  // measure 55
0010
0001
1000
0000
1010
0000
0100
0001
,  // measure 56
0010
0001
1000
0100
1000
0010
0100
0001
,  // measure 57
0100
0010
1000
0001
0100
0000
1000
0100
,  // measure 58
1000
0001
0100
0010
1000
0100
1000
0001
,  // measure 59
0100
0010
1000
0000
1100
0000
0100
0001
,  // measure 60
1000
0010
0100
0001
0010
0001
1000
0100
,  // measure 61
0010
1000
0001
0000
0110
0000
0010
1000
,  // measure 62
0100
0010
0001
1000
0001
0100
0010
1000
,  // measure 63
0001
0100
0010
0000
1010
0000
0001
0100
,  // measure 64
0001
0010
1000
0100
1000
0001
0100
0010
,  // measure 65
1000
0001
0100
0010
1000
0000
000M
M000
,  // measure 66
000M
M000
000M
M000
0000
0000
0000
0000
,  // measure 67
0000
0000
0000
0000
0000
0000
0001
1000
,  // measure 68
0001
1000
0001
1000
00M0
0M00
00M0
0M00
,  // measure 69
00M0
M000
0M00
00M0
0M00
0000
0000
0000
,  // measure 70
0000
0000
0000
0000
0010
0100
0010
0100
,  // measure 71
0010
1000
0100
0010
0100
0000
000M
0M00
,  // measure 72
000M
0M00
000M
0M00
0000
0000
0000
0000
,  // measure 73
0000
0000
0000
0000
0000
0000
0001
0100
,  // measure 74
0001
0100
0001
0100
00M0
M000
00M0
M000
,  // measure 75
000M
M000
000M
0M00
00M0
0000
0000
0000
,  // measure 76
0000
0000
0000
0000
0010
1000
0010
1000
,  // measure 77
0001
1000
0001
0100
0010
0000
M000
0M00
,  // measure 78
M000
0M00
M000
0M00
0000
0000
0000
0000
,  // measure 79
0000
0000
0000
0000
0000
0000
1000
0100
,  // measure 80
1000
0100
1000
0100
00M0
000M
00M0
000M
,  // measure 81
0M00
00M0
M000
000M
0M00
0000
0000
0000
,  // measure 82
0000
0000
0000
0000
0010
0001
0010
0001
,  // measure 83
0100
0010
1000
0001
0100
0000
000M
M000
,  // measure 84
000M
M000
000M
M000
0000
0000
0000
0000
,  // measure 85
0000
0000
0000
0000
0000
0000
0001
1000
,  // measure 86
0001
1000
0001
1000
00M0
0M00
00M0
0M00
,  // measure 87
00M0
M000
0M00
00M0
000M
0000
0000
0000
,  // measure 88
0000
0000
0000
0000
0010
0100
0010
0100
,  // measure 89
0010
1000
0100
0010
0001
0000
000M
M000
,  // measure 90
000M
M000
0000
0000
000M
0M00
0000
0000
,  // measure 91
0000
0000
0000
0000
0000
0000
0001
1000
,  // measure 92
0001
1000
0001
1000
000M
0M00
000M
0M00
,  // measure 93
00M0
M000
0000
0000
0000
0000
0000
0000
,  // measure 94
0000
0000
0000
0000
0001
0100
0001
0100
,  // measure 95
0010
1000
0100
0010
0001
0000
M000
00M0
,  // measure 96
M000
00M0
0000
0000
0M00
00M0
0000
0000
,  // measure 97
0000
0000
0000
0000
0000
0000
1000
0010
,  // measure 98
1000
0010
1000
0010
0M00
00M0
0M00
00M0
,  // measure 99
M000
0M00
0000
0000
0000
0000
0000
0000
,  // measure 100
0000
0000
0000
0000
0100
0010
0100
0010
,  // measure 101
1000
0100
0010
0001
1000
0000
0M00
M000
,  // measure 102
0M00
M000
0000
0000
000M
M000
0000
0000
,  // measure 103
0000
0000
0000
0000
0000
0000
0100
1000
,  // measure 104
0100
1000
0100
1000
000M
M000
000M
M000
,  // measure 105
00M0
0M00
0000
0000
0000
0000
0000
0000
,  // measure 106
0000
0000
0000
0000
0001
1000
0001
1000
,  // measure 107
0010
0100
0001
0010
0100
0000
000M
00M0
,  // measure 108
000M
00M0
0000
0000
0M00
00M0
0000
0000
,  // measure 109
0000
0000
0000
0000
0000
0000
0001
0010
,  // measure 110
0001
0010
0001
0010
0M00
00M0
0M00
00M0
,  // measure 111
M000
0M00
0000
0000
0000
0000
0000
0000
,  // measure 112
0000
0000
0000
0000
0100
0010
0100
0010
,  // measure 113
1000
0100
1000
0001
0100
0000
00M0
M000
,  // measure 114
00M0
M000
0000
0000
0000
0000
0000
0000
,  // measure 115
0000
0000
0000
0000
0000
0000
0010
1000
,  // measure 116
0010
1000
0010
1000
00M0
0M00
00M0
0M00
,  // measure 117
0000
0000
0000
0000
,  // measure 118
0000
0000
0000
0000
0010
0100
0010
0100
,  // measure 119
0010
0100
0001
0100
0001
0100
000M
M000
,  // measure 120
000M
M000
0000
0000
0000
0000
0000
0000
,  // measure 121
0000
0000
0000
0000
0000
0000
0001
1000
,  // measure 122
0001
1000
0001
1000
0M00
M000
0M00
M000
,  // measure 123
0000
0000
0000
0000
,  // measure 124
0000
0000
0000
0000
0100
1000
0100
1000
,  // measure 125
0100
1000
0100
0010
0100
0010
000M
00M0
,  // measure 126
000M
00M0
0000
0000
0000
0000
0000
0000
,  // measure 127
0000
0000
0000
0000
0000
0000
0001
0010
,  // measure 128
0001
0010
0001
0010
000M
M000
000M
M000
,  // measure 129
0000
0000
0000
0000
,  // measure 130
0000
0000
0000
0000
0001
1000
0001
1000
,  // measure 131
0001
1000
0010
0100
0010
0100
00M0
M000
,  // measure 132
00M0
M000
0000
0000
0000
0000
0000
0000
,  // measure 133
0000
0000
0000
0000
0000
0000
0010
1000
,  // measure 134
0010
1000
0010
1000
000M
M000
000M
M000
,  // measure 135
0000
0000
0000
0000
,  // measure 136
0000
0000
0000
0000
0001
1000
0001
1000
,  // measure 137
0001
1000
0100
1000
0100
1000
000M
0M00
,  // measure 138
0000
0000
0000
0000
,  // measure 139
0000
0000
0000
0000
0000
0000
0001
0100
,  // measure 140
0001
0100
0001
0100
00M0
0M00
0000
0000
,  // measure 141
0000
0000
0000
0000
,  // measure 142
0000
0000
0000
0000
0010
0100
0010
0100
,  // measure 143
0010
0100
0001
0010
0100
1000
0M00
M000
,  // measure 144
0000
0000
0000
0000
,  // measure 145
0000
0000
0000
0000
0000
0000
0100
1000
,  // measure 146
0100
1000
0100
1000
000M
M000
0000
0000
,  // measure 147
0000
0000
0000
0000
,  // measure 148
0000
0000
0000
0000
0001
1000
0001
1000
,  // measure 149
0001
1000
0001
0100
0010
1000
00M0
0M00
,  // measure 150
000M
00M0
0M00
M000
0000
0000
0000
0000
,  // measure 151
0000
0000
0000
0000
0000
0000
0010
0100
,  // measure 152
0001
0010
0100
1000
000M
00M0
000M
0M00
,  // measure 153
00M0
M000
0M00
0000
0000
0000
0000
0000
,  // measure 154
0000
0000
0000
0000
0001
0010
0001
0100
,  // measure 155
0010
1000
0100
1000
0010
0100
000M
M000
,  // measure 156
0M00
M000
000M
0M00
0000
0000
0000
0000
,  // measure 157
0000
0000
0000
0000
0000
0000
0001
1000
,  // measure 158
0100
1000
0001
0100
00M0
M000
0M00
00M0
,  // measure 159
000M
M000
0000
0000
0000
0000
0000
0000
,  // measure 160
0000
0000
0000
0000
0010
1000
0100
0010
,  // measure 161
0001
0000
1000
0000
0001
0000
1000
0000
0001
0000
1000
0000
0001
0000
0000
0001
,  // measure 162
0000
0000
0000
0000
0100
0000
0000
0100
0000
0000
0000
0000
0010
0000
0000
0010
,  // measure 163
0000
0000
0000
0000
1000
0000
0000
1000
0000
0000
0000
0000
1000
0000
0000
0001
,  // measure 164
0000
0000
0000
0000
0100
0000
0000
0010
0000
0000
0000
0000
0010
0000
0000
0001
,  // measure 165
0000
0000
0000
0000
1000
0000
0000
0100
0000
0000
0000
0000
1000
0000
0000
0001
,  // measure 166
0000
2002
0000
0000
,  // measure 167
0000
0000
0000
0000
,  // measure 168
0000
0000
3000
0003
0000
0000
0000
0000
0000
0000
0000
0000
0000
0000
0000
0000
;
