#TITLE:Resolve;
#SUBTITLE:;
#ARTIST:TOTAL SCIENCE;
#TITLETRANSLIT:;
#SUBTITLETRANSLIT:;
#ARTISTTRANSLIT:;
#GENRE:DRUM'N'BASS;
#CREDIT:;
#BANNER:;
#BACKGROUND:;
#LYRICSPATH:;
#CDTITLE:;
#MUSIC:06.Resolve.mp3;
#OFFSET:-0.400000;
#SAMPLESTART:22.400000;
#SAMPLELENGTH:11.100000;
#SELECTABLE:YES;
#BPMS:0.000000=174.000000
;
#STOPS:
;
#BGCHANGES:;
#KEYSOUNDS:;
#ATTACKS:;

//---------------dance-single - ----------------
#NOTES:
     dance-single:
     :
     Beginner:
     3:
     0.363818,0.428087,0.089185,0.079275,0.000000,257.000000,248.000000,9.000000,8.000000,0.000000,0.000000,0.363818,0.428087,0.089185,0.079275,0.000000,257.000000,248.000000,9.000000,8.000000,0.000000,0.000000:
// measure 0
0000
0000
0000
0000
,  // measure 1
0000
0000
0000
0000
,  // measure 2
0000
0000
0000
0000
,  // measure 3
0000
0000
0000
0000
,  // measure 4
2000
0000
0000
3000
,  // measure 5
0002
0000
0000
0003
,  // measure 6
0200
0000
0000
0300
,  // measure 7
0020
0000
0000
0030
,  // measure 8
1000
0100
1000
1000
,  // measure 9
0001
0100
0001
0001
,  // measure 10
0010
0001
0010
0010
,  // measure 11
0100
1000
0100
0100
,  // measure 12
1000
0001
0100
0100
,  // measure 13
0001
1000
0010
0010
,  // measure 14
0100
0001
1000
1000
,  // measure 15
0100
0010
0001
0001
,  // measure 16
0100
0001
0100
0001
,  // measure 17
1000
0010
1000
0010
,  // measure 18
0001
0010
0001
0010
,  // measure 19
1000
0100
1000
0100
,  // measure 20
0001
0100
1000
0100
,  // measure 21
0001
0010
1000
0010
,  // measure 22
0001
0100
0001
0010
,  // measure 23
1000
0100
1000
0010
,  // measure 24
0100
0101
0001
1000
,  // measure 25
0100
1100
1000
0001
,  // measure 26
0010
0011
0001
0010
,  // measure 27
1000
1010
1000
0010
,  // measure 28
0001
1001
1000
0001
,  // measure 29
0100
0110
0010
0100
,  // measure 30
0001
0101
0100
0001
,  // measure 31
1000
1010
0010
1000
,  // measure 32
0001
0100
0001
0010
,  // measure 33
1000
0100
0001
0010
,  // measure 34
0001
0100
1000
0010
,  // measure 35
0100
0001
1000
0001
,  // measure 36
0010
0100
1000
0001
,  // measure 37
0010
0100
0001
1000
,  // measure 38
0010
0001
1000
0100
,  // measure 39
0001
1000
0001
1001
,  // measure 40
0100
0001
0100
0001
,  // measure 41
1000
0010
1000
0010
,  // measure 42
0001
0010
0001
0010
,  // measure 43
1000
0100
1000
0100
,  // measure 44
0001
0100
1000
0100
,  // measure 45
0001
0010
1000
0010
,  // measure 46
0001
1000
0100
0010
,  // measure 47
0010
0100
1000
0001
,  // measure 48
1000
0100
0001
0001
,  // measure 49
0010
0001
1000
1000
,  // measure 50
0100
1000
0010
0010
,  // measure 51
0001
1000
0100
0100
,  // measure 52
0001
0010
1000
0100
,  // measure 53
0001
0100
1000
0010
,  // measure 54
0001
1000
0001
0100
,  // measure 55
0010
1000
0001
0010
,  // measure 56
0100
0001
0100
1000
,  // measure 57
0010
0100
1000
0100
,  // measure 58
0010
0001
0010
0100
,  // measure 59
0001
1000
0001
0100
,  // measure 60
0100
0010
1000
0001
,  // measure 61
0100
0001
0010
1000
,  // measure 62
0100
0001
0100
1000
,  // measure 63
0010
0100
0001
1000
,  // measure 64
0001
0100
0001
0100
,  // measure 65
0001
1000
0001
1000
,  // measure 66
0010
1000
0010
1000
,  // measure 67
0100
0010
0100
0010
,  // measure 68
0200
0000
0000
0300
,  // measure 69
0020
0000
0000
0030
,  // measure 70
2000
0000
0000
0000
,  // measure 71
0002
0000
0000
0000
,  // measure 72
3003
0000
0000
0000
;

//---------------dance-single - ----------------
#NOTES:
     dance-single:
     :
     Easy:
     6:
     0.471406,0.499435,0.089185,0.118913,0.000000,333.000000,324.000000,9.000000,12.000000,0.000000,0.000000,0.471406,0.499435,0.089185,0.118913,0.000000,333.000000,324.000000,9.000000,12.000000,0.000000,0.000000:
0000
0000
0000
0000
,
0000
0000
0000
0000
,
0000
0000
0000
0000
,
0000
0000
0000
0000
,
2000
0000
0000
3200
0000
0000
2300
0000
,
0000
3200
0000
0000
1000
0000
1300
0000
,
0002
0000
0000
0023
0000
0000
0032
0000
,
0000
0023
0000
0000
0001
0000
0031
0000
,
1000
0000
0001
0000
0100
0001
0100
0000
,
0010
0000
0100
0000
1000
0010
1000
0000
,
0100
0000
0001
0000
0010
0100
0010
0000
,
0001
0000
0100
0000
0010
1000
0010
0000
,
1000
0000
0001
0000
0100
0001
0100
0000
,
1000
0000
0001
0000
0010
1000
0010
0000
,
0100
0000
0001
0000
1000
0010
1000
0000
,
0100
0000
0001
0000
0010
0100
0010
0000
,
0100
0000
0001
0000
0001
0010
0001
0000
,
0100
0000
1000
0000
1000
0010
1000
0000
,
0100
0000
0010
0000
0010
0100
0010
0000
,
0001
0000
0100
0000
0100
0010
0100
0000
,
0001
0000
0100
0000
0010
1000
0010
0000
,
1000
0000
0001
0000
0010
0100
0010
0000
,
0001
0000
1000
0000
0100
0001
0100
0000
,
0010
0000
1000
0000
1000
0001
1000
0000
,
0100
0000
0001
0100
0001
0000
1001
0000
,
0010
0000
1000
0100
1000
0000
0110
0000
,
0100
0000
0010
1000
0010
0000
1010
0000
,
0001
0000
1000
0001
1000
0000
1001
0000
,
0010
0000
0100
0001
0100
0000
1001
0000
,
0010
0000
1000
0100
1000
0000
1100
0000
,
0100
0000
0001
1000
0001
0000
0011
0000
,
0100
0000
0001
1000
0001
0000
0110
0000
,
0100
0000
0010
1000
0001
1000
0010
0000
,
0100
0000
0001
1000
0001
0010
0001
0000
,
0100
0000
0010
1000
0010
0100
0010
0000
,
0001
0000
1000
0100
1000
0001
1000
0000
,
0100
0000
0001
0010
0001
1000
0001
0000
,
0100
0000
0010
1000
0010
0100
0010
0000
,
0001
0000
0010
0100
0010
1000
0010
0000
,
0100
0000
0001
1000
0001
0000
1001
0000
,
1000
0000
0100
0000
1000
0100
0000
1000
,
0100
0000
0010
0000
0100
0010
0100
0000
,
0001
0000
0100
0000
0010
1000
0000
1000
,
0010
0000
0100
0000
0001
0100
0001
1000
,
0001
0000
1000
0000
0100
0001
0000
0001
,
0100
0000
0010
0000
1000
0010
1000
0000
,
0100
0000
0001
0000
0010
1000
0000
1000
,
0010
0000
0001
0000
1000
0001
1000
0000
,
0001
0000
0100
0000
0010
0100
0010
0000
,
0100
0000
0001
0000
1000
0001
1000
0000
,
0100
0000
0010
0000
1000
0010
1000
0000
,
0100
0000
1000
0000
0001
0010
0001
0000
,
0100
0000
0001
0000
1000
0100
1000
0000
,
0001
0000
1000
0000
0010
0100
0010
0000
,
0001
0000
0100
0000
0001
1000
0001
0000
,
0010
0000
0100
0000
1000
0010
1000
0000
,
0001
0000
0100
0000
0001
0100
0000
0001
,
0100
0000
0010
0000
1000
0010
1000
0000
,
0100
0000
0010
0000
0100
0010
0000
0100
,
0010
0000
0100
0000
0001
0100
0001
0100
,
0001
0000
0010
0000
0100
1000
0000
0100
,
1000
0000
0001
0000
0100
0010
0100
0000
,
0001
0000
1000
0000
0010
0100
0000
0010
,
0100
0000
0010
0000
1000
0001
1000
0000
,
0001
0000
0100
0000
0001
0100
0000
0001
,
0100
0010
1000
0100
,
0010
0000
0001
0000
1000
0010
0000
1000
,
0010
0000
0100
0000
0001
0000
1000
0001
,
2000
0000
0000
3000
,
0002
0000
0000
0003
,
0200
0000
0000
0000
,
0020
0000
0000
0000
,
0330
0000
0000
0000
;

//---------------dance-single - ----------------
#NOTES:
     dance-single:
     :
     Medium:
     8:
     0.584656,0.606457,0.218007,0.118913,0.059457,413.000000,391.000000,22.000000,12.000000,0.000000,0.000000,0.584656,0.606457,0.218007,0.118913,0.059457,413.000000,391.000000,22.000000,12.000000,0.000000,0.000000:
0000
0000
0000
0000
,
0000
0000
0000
0000
,
0000
0000
0000
0000
,
0000
0000
0000
0000
,
2000
0000
0000
3002
0000
0000
0203
0000
,
0000
0320
0000
0000
1000
0000
1030
0000
,
0200
0000
0000
0302
0000
0000
2003
0000
,
0000
3020
0000
0000
1000
0000
1030
0000
,
1001
0000
0010
1000
0100
1000
0010
0001
,
0100
0000
0110
0000
1000
0010
0000
1000
,
0010
0000
0100
0001
1000
0001
0010
1000
,
0100
0000
0101
0000
0001
1000
0000
0010
,
0100
0000
0001
1000
0100
0010
0001
0100
,
0010
0000
1001
0000
0100
0010
0000
1000
,
0001
0000
0001
0100
1000
0010
1000
0100
,
0001
0000
0011
0000
1000
0100
0000
0001
,
0100
0000
0000
0100
0000
0000
0010
0000
0000
0000
0001
0000
1000
0000
0001
0000
,
1000
0000
0000
1000
0000
0000
0010
0000
0000
0000
0100
0000
0001
0000
1000
0000
,
0001
0000
0000
0001
0000
0000
0010
0000
0000
0000
0100
0000
1000
0000
0001
0000
,
1000
0000
0000
1000
0000
0000
0100
0000
0000
0000
0001
0000
0010
0000
1000
0000
,
0100
0001
0010
1000
0001
0100
0010
0000
,
0100
0001
1000
0100
0010
1000
0001
0000
,
0100
0001
1000
0010
0100
0001
1000
0000
,
0010
0100
1000
0001
0100
0010
1000
0000
,
1000
0000
0000
0100
0000
0000
1000
0000
0010
0000
0100
0000
0001
0000
0000
0000
,
0001
0000
0000
0100
0000
0000
0010
0000
1000
0000
0100
0000
0001
0000
0000
0000
,
1000
0000
0000
0010
0000
0000
0100
0000
0001
0000
1000
0000
0100
0000
0000
0000
,
0001
0000
0000
0010
0000
0000
0100
0000
0001
0000
1000
0000
0010
0000
0000
0000
,
0100
0000
0000
1000
0000
0000
0010
0000
0100
0000
0001
0000
1000
0000
0010
0000
,
0100
0000
0000
0001
0000
0000
1000
0000
0001
0000
0100
0000
0010
0000
1000
0000
,
0100
0000
0000
0010
0000
0000
0001
0000
1000
0000
0100
0000
0001
0000
1000
0000
,
0001
0000
0000
0100
0000
0000
0010
0000
1000
0000
0100
0000
0001
0000
1000
0000
,
0001
0100
0010
1000
0100
1000
0010
0001
,
0100
1000
0001
0010
1000
0100
0001
0000
,
0001
0010
0100
0001
1000
0010
0100
0001
,
1000
0001
0100
0010
1000
0001
0100
0000
,
0001
0100
0010
0100
0001
0010
1000
0100
,
0001
0100
0010
1000
0001
0100
0010
0000
,
0100
0001
0010
1000
0100
0001
0010
1000
,
0100
0000
0001
0010
0100
1000
1001
0000
,
0100
0000
0101
0000
0001
1000
0000
0001
,
1000
0000
1010
0000
0010
1000
0010
0100
,
0001
0000
0101
0000
0100
0010
0000
0010
,
1000
0000
1100
0000
0001
1000
0010
0100
,
0001
0000
0011
0000
1000
0100
0000
0001
,
1000
0000
0110
0000
0010
1000
0001
0100
,
0001
0000
1100
0000
0001
1000
0000
0100
,
0001
0000
1010
0000
0010
0100
0001
1000
,
0001
0100
0010
1000
0100
1000
0001
0000
,
0010
1000
0001
0100
0001
1000
0010
0000
,
0100
0001
0010
1000
0100
0001
1000
0000
,
0001
0100
0010
0001
1000
0100
0010
0001
,
1000
0001
0100
0001
0010
1000
0001
0000
,
0001
1000
0100
0001
1000
0010
0100
0000
,
0010
0100
0001
1000
0010
0001
0100
0000
,
0010
1000
0001
1000
0001
0010
0100
0000
,
0001
0000
0101
0000
0001
0100
0000
0001
,
0100
0000
1010
0000
1000
0001
1000
0001
,
0100
0000
0110
0000
0001
0010
0000
1000
,
0010
0000
0110
0000
0001
0100
0001
1000
,
0001
0000
0110
0000
0010
1000
0000
0100
,
0010
0000
1001
0000
0010
0001
0100
0000
,
1000
0000
1010
0000
0001
0100
0000
1000
,
0100
0000
1001
0000
0001
0010
0100
0000
,
1000
0000
0010
0000
1000
0010
0000
0001
,
0100
0000
0010
0000
1000
0001
0000
0010
,
0001
0000
0100
0000
0001
1000
0000
0100
,
0010
0000
1000
0000
0010
0100
0010
1000
,
0020
0000
0000
0000
,
0230
0000
0000
0000
,
0302
0000
0000
0000
,
2000
0000
0000
0000
,
3003
0000
0000
0000
;

//---------------dance-single - ----------------
#NOTES:
     dance-single:
     :
     Hard:
     10:
     0.731882,0.749153,0.277464,0.198189,0.178370,517.000000,489.000000,28.000000,20.000000,0.000000,0.000000,0.731882,0.749153,0.277464,0.198189,0.178370,517.000000,489.000000,28.000000,20.000000,0.000000,0.000000:
0000
0000
0000
0000
,
0000
0000
0000
0000
,
0000
0000
0000
0000
,
0000
0000
0000
0000
,
2002
0000
3003
0202
0000
0303
2020
0000
,
3030
2002
0000
0003
0001
0000
3001
0000
,
0220
0000
0330
0202
0000
0303
2020
0000
,
3030
0022
0000
0030
0100
0000
0103
0000
,
1000
0001
0010
0100
1000
0010
0100
0010
,
0001
0100
0010
1000
0100
0001
1000
0001
,
0010
0100
0001
1000
0010
0100
0001
1000
,
0001
0100
0001
1000
0010
0100
0001
0100
,
1000
0100
0001
1000
0010
0100
0001
1000
,
0010
0001
0100
0010
1000
0100
1000
0001
,
0010
0100
0001
0010
0100
1000
0010
0100
,
0001
0100
0010
1000
0100
1000
0001
0010
,
1000
0000
0000
1100
0000
0000
0110
0000
0000
0000
0101
0000
0001
0000
0010
0000
,
0100
0000
0000
0110
0000
0000
0101
0000
0000
0000
0011
0000
0010
0000
0100
0000
,
1000
0000
0000
1100
0000
0000
1001
0000
0000
0000
1010
0000
0100
0000
0010
0000
,
0001
0000
0000
0011
0000
0000
1001
0000
0000
0000
0101
0000
0010
0000
0100
0000
,
0001
0000
0000
1001
0000
0000
1000
0000
0010
0000
0100
0000
0001
0000
0010
0000
,
0100
0000
0000
0110
0000
0000
0010
0000
0001
0000
1000
0000
0001
0000
0010
0000
,
0100
0000
0000
1100
0000
0000
0010
0000
0001
0000
1000
0000
0100
0000
1000
0000
,
0001
0000
0000
0011
0000
0000
0010
0000
0100
0000
0001
0000
1000
0000
0100
0000
,
0010
0000
0001
0000
0100
0000
0010
0000
1000
0100
1000
0000
0010
0000
0100
0000
,
0010
0100
0001
0010
1000
0100
0001
1000
,
0010
0000
0001
0000
1000
0000
0100
0000
0001
1000
0001
0000
0010
0000
0100
0000
,
0001
0010
0100
0001
1000
0010
0100
1000
,
0010
0000
0001
0000
1000
0000
0100
0000
0010
1000
0010
0000
0100
0000
0001
0000
,
0010
0100
0001
1000
0100
0001
0010
1000
,
0010
0000
0001
0000
0100
0000
1000
0000
0001
1000
0001
0000
0010
0000
0100
0000
,
0001
1000
0001
0100
0010
1000
0100
0010
,
0001
0000
0010
0000
0100
0000
1000
0000
0001
0100
0001
0000
1000
0010
1000
0000
,
0100
0000
0010
0000
0001
0000
0100
0000
0010
1000
0010
0000
0100
0001
0100
0000
,
0001
0000
0100
0000
0010
0000
1000
0000
0010
0100
0010
0000
0001
1000
0001
0000
,
0010
0000
0001
0000
0100
0000
1000
0000
0001
0100
0001
0000
1000
0010
1000
0000
,
0100
0000
0001
0000
0010
0000
0001
0000
0100
0001
0100
0000
0010
0100
0010
0000
,
1000
0000
0100
0000
0001
0000
1000
0000
0001
1000
0001
0000
1000
0001
1000
0000
,
0010
0000
0100
0000
0001
0000
1000
0000
0001
0100
0001
0000
1000
0010
1000
0000
,
0001
0000
0001
0000
0010
0000
0100
0000
1000
0100
1000
0000
0001
0010
0001
0000
,
0100
0010
1000
0010
0100
0001
0010
0001
,
1000
0001
0010
0100
0001
1000
0100
0010
,
0001
0100
0010
0001
0100
1000
0001
1000
,
0010
1000
0100
0001
1000
0100
0001
0010
,
0001
0000
0001
0000
0010
0000
0100
0000
0001
0010
0001
0000
1000
0100
1000
0000
,
0010
0000
0010
0000
0100
0000
1000
0000
0001
0100
0001
0000
1000
0010
1000
0000
,
1000
0000
1000
0000
0001
0000
0100
0000
0010
1000
0010
0000
0001
1000
0001
0000
,
0100
0000
0100
0000
0010
0000
0001
0000
0001
0100
0001
0000
1000
0010
1000
0000
,
0100
0001
0010
1000
0100
0001
0100
0001
,
1000
0010
0100
0010
0001
1000
0100
0001
,
0010
1000
0001
0100
0001
1000
0010
0001
,
1000
0100
0010
0100
1000
0010
0001
0100
,
0010
0001
0100
0001
0010
1000
0100
1000
,
0010
0100
0001
1000
0010
0001
0100
0001
,
1000
0010
0100
0001
1000
0010
0100
1000
,
0010
0100
0001
0010
0100
1000
0100
0001
,
0010
0000
0100
0001
0010
1000
0000
0001
,
0100
0000
0110
0000
0010
1000
0010
0100
,
0001
0000
0010
0100
1000
0001
0000
0001
,
0100
0000
1010
0000
0001
1000
0100
0010
,
0001
0000
0010
1000
0010
0100
0000
0001
,
0010
0000
0011
0000
0100
1000
0001
0100
,
0010
0000
1000
0010
0100
0001
0000
0001
,
1000
0000
1100
0000
1000
0010
0100
0001
,
1000
0000
1000
0001
0010
0001
0000
0001
,
0010
0000
0100
1000
0010
0100
0000
0001
,
0010
0000
0001
0100
0010
1000
0000
0001
,
0100
0000
0010
1000
0100
0001
1000
0001
,
2000
0000
0000
0000
,
0200
0000
0000
3000
,
0020
0000
0000
0300
,
0002
0000
0000
0000
,
0033
0000
0000
0000
;
